osu file format v13

[General]
AudioFilename: Souzou Diary.mp3
AudioLeadIn: 1000
PreviewTime: 50765
Countdown: 0
SampleSet: Soft
StackLeniency: 0.2
Mode: 0
LetterboxInBreaks: 0
WidescreenStoryboard: 0

[Editor]
DistanceSpacing: 0.5
BeatDivisor: 4
GridSize: 4
TimelineZoom: 1.9

[Metadata]
Title:Souzou Diary
TitleUnicode:想像ダイアリー
Artist:Touyama Nao, Hanazawa Kana, Komatsu Mikako, Asumi Kana
ArtistUnicode:東山奈央, 花澤香菜, 小松未可子, 阿澄佳奈
Creator:Momochikun
Version:Insane
Source:ニセコイ
Tags:nisekoi tv size guy shaft fake love ending chitoge kirisaki kosaki onodera seishirou tsugumi marika tachibana
BeatmapID:461549
BeatmapSetID:194345

[Difficulty]
HPDrainRate:7
CircleSize:4.2
OverallDifficulty:7
ApproachRate:9
SliderMultiplier:1.6
SliderTickRate:1

[Events]
//Background and Video events
0,0,"Souzou BG.jpg",0,0
Video,0,"Video.avi"
//Break Periods
//Storyboard Layer 0 (Background)
//Storyboard Layer 1 (Fail)
//Storyboard Layer 2 (Pass)
//Storyboard Layer 3 (Foreground)
//Storyboard Sound Samples
//Background Colour Transformations
3,100,163,162,255

[TimingPoints]
1042,331.491712707182,4,2,1,65,1,0
3030,-100,4,1,1,75,0,0
3362,-66.6666666666667,4,2,1,75,0,0
3403,-66.6666666666667,4,2,1,50,0,0
3528,-66.6666666666667,4,2,1,40,0,0
3693,-100,4,2,1,70,0,1
3776,-100,4,2,1,65,0,0
8500,-100,4,2,1,60,0,0
8666,-100,4,2,1,65,0,0
10986,-100,4,2,1,45,0,0
11318,-100,4,2,1,55,0,0
11649,-111.111111111111,4,2,1,45,0,0
12809,-105.263157894737,4,2,1,65,0,0
13472,-117.647058823529,4,2,1,65,0,0
13804,-133.333333333333,4,2,1,60,0,0
14633,-133.333333333333,4,2,1,45,0,0
15627,-133.333333333333,4,2,1,50,0,0
16290,-133.333333333333,4,2,1,40,0,0
16953,-133.333333333333,4,1,1,40,0,0
17119,-133.333333333333,4,2,1,50,0,0
17285,-133.333333333333,4,1,1,40,0,0
17450,-133.333333333333,4,2,1,50,0,0
17616,-133.333333333333,4,1,1,40,0,0
17782,-133.333333333333,4,2,1,50,0,0
17948,-133.333333333333,4,1,1,40,0,0
18113,-133.333333333333,4,2,1,50,0,0
18279,-133.333333333333,4,1,1,40,0,0
19108,-133.333333333333,4,2,1,50,0,0
19274,-133.333333333333,4,1,1,40,0,0
19439,-133.333333333333,4,2,1,50,0,0
19605,-133.333333333333,4,1,1,40,0,0
20102,-133.333333333333,4,2,1,50,0,0
20268,-133.333333333333,4,1,1,40,0,0
20434,-133.333333333333,4,2,1,50,0,0
20600,-133.333333333333,4,1,1,40,0,0
21262,-133.333333333333,4,1,1,25,0,0
21594,-133.333333333333,4,1,1,40,0,0
21760,-133.333333333333,4,1,1,45,0,0
22257,-133.333333333333,4,1,1,35,0,0
22588,-133.333333333333,4,1,1,40,0,0
23086,-133.333333333333,4,2,1,50,0,0
23251,-133.333333333333,4,1,1,40,0,0
23417,-133.333333333333,4,2,1,50,0,0
23583,-133.333333333333,4,1,1,40,0,0
24743,-133.333333333333,4,2,1,50,0,0
24909,-133.333333333333,4,1,1,40,0,0
25406,-133.333333333333,4,2,1,50,0,0
25572,-133.333333333333,4,1,1,40,0,0
25821,-133.333333333333,4,2,1,5,0,0
25903,-133.333333333333,4,1,1,35,0,0
26069,-133.333333333333,4,2,1,5,0,0
26235,-111.111111111111,4,1,1,75,0,0
27561,-111.111111111111,4,1,1,70,0,0
27727,-111.111111111111,4,2,1,65,0,0
28970,-111.111111111111,4,2,1,5,0,0
29218,-111.111111111111,4,2,1,65,0,0
30296,-111.111111111111,4,2,1,5,0,0
30544,-111.111111111111,4,2,1,65,0,0
32367,-111.111111111111,4,2,1,50,0,0
32699,-111.111111111111,4,2,1,65,0,0
35517,-111.111111111111,4,2,1,60,0,0
35848,-111.111111111111,4,2,1,65,0,0
36180,-111.111111111111,4,2,1,55,0,0
36677,-111.111111111111,4,2,1,60,0,0
37174,-111.111111111111,4,2,1,40,0,0
37506,-111.111111111111,4,2,1,65,0,0
38169,-133.333333333333,4,2,1,65,0,0
38666,-133.333333333333,4,1,1,50,0,0
38832,-133.333333333333,4,2,1,65,0,0
39163,-133.333333333333,4,3,0,45,0,0
39495,-133.333333333333,4,1,1,50,0,0
39660,-133.333333333333,4,2,1,65,0,0
39992,-133.333333333333,4,2,1,50,0,0
40158,-133.333333333333,4,2,1,65,0,0
40323,-133.333333333333,4,1,1,45,0,0
40489,-133.333333333333,4,2,1,60,0,0
40821,-133.333333333333,4,1,1,50,0,0
40986,-133.333333333333,4,2,1,65,0,0
41318,-133.333333333333,4,1,1,50,0,0
41483,-133.333333333333,4,2,1,65,0,0
41815,-133.333333333333,4,3,0,45,0,0
42146,-133.333333333333,4,1,1,50,0,0
42312,-133.333333333333,4,2,1,65,0,0
42478,-133.333333333333,4,1,1,50,0,0
42644,-133.333333333333,4,2,1,65,0,0
42809,-133.333333333333,4,2,1,70,0,0
42975,-133.333333333333,4,3,0,45,0,0
43141,-133.333333333333,4,1,1,55,0,0
43472,-100,4,2,1,75,0,0
44798,-125,4,2,1,75,0,0
44881,-100,4,2,1,5,0,0
45130,-100,4,2,1,80,0,0
45296,-100,4,2,1,65,0,0
45793,-100,4,2,1,80,0,0
46041,-100,4,2,1,5,0,0
46124,-100,4,2,1,80,0,0
46290,-100,4,2,1,50,0,0
46456,-100,4,2,1,65,0,0
46622,-100,4,2,1,45,0,0
46787,-100,4,2,1,60,0,0
46953,-100,4,2,1,50,0,0
47119,-100,4,2,1,55,0,0
47450,-100,4,2,1,75,0,0
47616,-100,4,2,1,65,0,0
48030,-100,4,2,1,70,0,0
48776,-100,4,2,1,75,0,0
49439,-100,4,2,1,80,0,0
49937,-100,4,2,1,35,0,0
50102,-125,4,2,1,45,0,0
50434,-125,4,2,1,40,0,0
50765,-125,4,2,1,65,0,0
51097,-133.333333333333,4,2,1,60,0,0
51345,-133.333333333333,4,2,1,5,0,0
51428,-100,4,2,1,85,0,1
56235,-100,4,2,1,60,0,1
56401,-100,4,2,1,65,0,1
56566,-100,4,2,1,5,0,1
56732,-100,4,2,1,85,0,1
57229,-100,4,2,1,75,0,1
57561,-100,4,2,1,85,0,1
58721,-100,4,2,1,70,0,1
58970,-100,4,2,1,5,0,1
59053,-100,4,2,1,80,0,1
59384,-100,4,2,1,85,0,1
60710,-100,4,2,1,5,0,1
60876,-100,4,2,1,80,0,1
61041,-100,4,2,1,5,0,1
61207,-100,4,2,1,80,0,1
61373,-100,4,2,1,60,0,0
61704,-100,4,2,1,65,0,0
62036,-100,4,2,1,85,0,1
63362,-100,4,2,1,80,0,1
64356,-100,4,2,1,50,0,1
64522,-100,4,2,1,5,0,1
64688,-100,4,1,1,40,0,1
65351,-100,4,1,1,45,0,1
65682,-100,4,1,1,50,0,1
66014,-100,4,1,1,55,0,1
66345,-100,4,1,1,60,0,1
66677,-100,4,1,1,65,0,1
67008,-100,4,1,1,70,0,1
67257,-100,4,2,1,5,0,1
67340,-100,4,2,1,85,0,1
67837,-100,4,2,1,75,0,1
68334,-100,4,2,1,85,0,1
69329,-100,4,2,1,75,0,1
69660,-100,4,2,1,80,0,1
69992,-100,4,2,1,85,0,1
70158,-100,4,2,1,75,0,1
70323,-100,4,2,1,85,0,1
71318,-100,4,2,1,45,0,0
71649,-125,4,2,1,80,0,1
71732,-125,4,2,1,75,0,1
73804,-125,4,2,1,60,0,1
73970,-125,4,2,1,60,0,1
74301,-125,4,1,1,60,0,1
74467,-125,4,2,1,5,0,1
74633,-125,4,1,1,60,0,1
74798,-125,4,2,1,5,0,1
74964,-125,4,1,1,60,0,1
75130,-125,4,2,1,5,0,1
75296,-125,4,2,1,70,0,0
75461,-125,4,2,1,75,0,0
76290,-125,4,2,1,65,0,0
76622,-125,4,2,1,75,0,0
77285,-125,4,1,1,85,0,0
77450,-133.333333333333,4,1,1,85,0,0
77782,-133.333333333333,4,2,1,30,0,0
77948,-100,4,2,1,70,0,1
78030,-100,4,2,1,65,0,0
81925,-100,4,2,1,70,0,0
82920,-100,4,2,1,60,0,0
83251,-100,4,2,1,75,0,0
83749,-100,4,2,1,80,0,0
84412,-100,4,2,1,85,0,0
84743,-100,4,2,1,75,0,0
85075,-100,4,2,1,80,0,0
85406,-100,4,2,1,75,0,0
85738,-100,4,2,1,70,0,1
85821,-100,4,2,1,5,0,0
87064,-100,4,2,1,40,0,0

[Colours]
Combo1 : 255,85,85
Combo2 : 255,255,74
Combo3 : 169,86,86
Combo4 : 255,139,83
Combo5 : 55,155,255

[HitObjects]
343,349,1042,5,4,0:0:0:0:
338,329,1704,1,2,0:0:0:0:
333,309,2367,1,4,0:0:0:0:
328,289,3030,5,0,0:0:0:0:
285,97,3196,1,0,0:0:0:0:
408,220,3362,2,0,L|417:192,7,30.0000011444092,2|0|0|0|0|0|0|0,0:0|0:0|0:0|0:0|0:0|0:0|0:0|0:0,0:0:0:0:
406,171,3693,6,0,P|388:121|395:48,1,120,4|0,1:0|0:0,0:0:0:0:
429,42,4025,2,0,P|403:13|360:3,1,80,8|0,1:2|0:0,0:0:0:0:
285,97,4356,1,2,1:2:0:0:
406,171,4522,1,0,1:2:0:0:
287,221,4688,2,0,P|224:208|152:202,1,120,8|0,0:0|0:0,0:0:0:0:
101,223,5019,6,0,P|89:186|95:135,1,80,2|0,1:2|0:0,0:0:0:0:
134,347,5351,1,8,0:0:0:0:
47,315,5517,1,2,0:0:0:0:
182,262,5682,2,0,P|226:246|271:248,1,80,0|0,1:0|1:0,0:0:0:0:
101,223,6014,2,0,P|78:171|77:106,1,120,8|0,0:0|0:0,0:0:0:0:
99,84,6345,6,0,B|162:97|215:62|215:62|247:83,1,160,2|8,1:2|0:0,0:0:0:0:
144,12,6843,1,0,0:0:0:0:
247,83,7008,1,2,1:2:0:0:
144,12,7174,1,0,1:0:0:0:
306,129,7340,2,0,P|268:153|227:155,1,80,8|0,0:0|0:0,0:0:0:0:
400,77,7671,6,0,L|391:213,1,120,2|0,1:2|0:0,0:0:0:0:
389,228,8003,1,8,0:0:0:0:
280,268,8169,2,0,B|208:287|219:248|121:271,1,160,2|12,1:2|1:2,0:0:0:0:
4,329,8666,1,8,1:2:0:0:
22,175,8832,1,0,1:3:0:0:
86,360,8997,5,4,0:0:0:0:
86,360,9329,1,8,0:0:0:0:
213,231,9495,2,0,P|271:244|331:249,1,120,4|0,0:0|0:0,0:0:0:0:
365,275,9826,1,2,1:2:0:0:
421,119,9992,1,8,0:0:0:0:
297,141,10158,6,0,P|297:200|331:248,1,120,4|0,0:0|0:0,0:0:0:0:
365,275,10489,1,2,1:2:0:0:
367,174,10655,1,8,0:0:0:0:
264,331,10821,1,10,0:0:0:0:
287,132,10986,5,8,1:3:0:0:
365,275,11152,1,4,1:3:0:0:
274,122,11318,2,0,P|231:114|192:109,1,80,2|0,1:3|0:0,0:0:0:0:
115,241,11649,6,0,B|120:304|172:323|172:323|236:313,2,143.999995605469,4|0|0,1:2|1:0|1:0,0:0:0:0:
115,241,12644,1,0,1:0:0:0:
250,156,12809,6,0,L|330:146,1,75.9999979705811,10|0,0:0|0:0,0:0:0:0:
297,61,13141,2,0,L|374:51,1,75.9999979705811,10|0,0:0|0:0,0:0:0:0:
250,156,13472,2,0,L|264:296,1,136.000002593994,10|0,0:0|1:0,0:0:0:0:
400,349,13970,6,0,L|415:227,2,120.000004577637,10|4|0,0:0|1:0|1:0,0:0:0:0:
219,299,14964,2,0,P|178:289|144:291,1,60.0000022888184,2|0,1:2|0:0,0:0:0:0:
263,368,15296,2,0,P|289:338|287:259,1,120.000004577637,0|4,1:0|1:2,0:0:0:0:
284,247,16290,1,4,1:2:0:0:
284,247,16787,5,0,0:2:0:0:
279,240,16870,1,0,3:0:0:0:
273,233,16953,2,0,L|282:171,1,60.0000022888184,2|0,0:2|0:0,0:0:0:0:
188,63,17285,2,0,L|196:122,1,60.0000022888184,0|0,0:0|0:0,0:0:0:0:
143,228,17616,2,0,P|115:244|81:251,1,60.0000022888184,0|0,0:0|0:0,0:0:0:0:
88,158,17948,1,0,0:0:0:0:
210,188,18113,1,0,0:0:0:0:
46,319,18279,6,0,P|19:280|25:203,2,120.000004577637,2|0|0,0:2|0:0|0:0,0:0:0:0:
88,158,19108,1,0,0:0:0:0:
145,354,19274,2,0,L|214:339,1,60.0000022888184,0|0,0:0|0:0,0:0:0:0:
365,203,19605,2,0,L|242:229,1,120.000004577637,2|0,0:2|0:0,0:0:0:0:
164,167,20102,1,0,0:0:0:0:
323,312,20268,2,0,P|321:277|304:241,1,60.0000022888184,0|0,0:0|0:0,0:0:0:0:
135,279,20600,2,0,P|181:306|256:298,1,120.000004577637,2|0,0:2|0:0,0:0:0:0:
258,287,21262,6,0,L|333:296,1,60.0000022888184,4|0,0:2|0:0,0:0:0:0:
179,215,21594,1,0,0:0:0:0:
205,364,21760,1,8,0:2:0:0:
278,161,21925,1,0,0:0:0:0:
258,287,22091,1,8,0:2:0:0:
195,135,22257,6,0,B|159:122|159:122|125:141|72:135,2,120.000004577637,4|0|0,0:2|0:0|0:0,0:0:0:0:
179,215,23086,1,0,0:0:0:0:
138,54,23251,2,0,P|109:64|79:65,1,60.0000022888184,2|0,0:2|0:0,0:0:0:0:
79,65,23583,2,0,L|193:118,2,120.000004577637,0|0|0,0:0|0:0|0:0,0:0:0:0:
83,298,24577,1,0,0:0:0:0:
154,192,24743,1,0,0:0:0:0:
19,259,24909,6,0,P|10:305|48:367,1,120.000004577637,2|0,0:2|0:0,0:0:0:0:
126,378,25406,1,0,0:0:0:0:
283,271,25572,2,0,L|184:286,1,90.0000034332277,0|0,0:0|0:0,0:0:0:0:
162,266,25903,2,0,L|99:277,1,60.0000022888184,4|0,0:2|0:0,0:0:0:0:
189,159,26235,5,4,0:0:0:0:
371,213,26401,1,0,0:0:0:0:
306,350,26566,1,0,0:0:0:0:
290,112,26732,1,0,0:0:0:0:
299,99,27064,1,0,0:2:0:0:
309,86,27395,1,8,0:2:0:0:
189,159,27561,6,0,P|151:175|103:175,2,71.9999978027344,4|0|10,0:0|0:2|0:0,0:0:0:0:
290,112,28058,2,0,P|329:160|310:257,1,143.999995605469,0|2,0:2|1:2,0:0:0:0:
253,192,28555,1,8,0:0:0:0:
420,265,28721,1,2,0:0:0:0:
320,321,28887,6,0,P|279:311|250:286,1,71.9999978027344,0|0,1:2|0:0,0:0:0:0:
375,187,29218,2,0,B|430:169|488:200|488:200|476:160,1,143.999995605469,8|0,0:0|1:0,0:0:0:0:
449,82,29716,1,0,1:0:0:0:
420,265,29881,2,0,P|425:324|427:353,1,71.9999978027344,10|0,0:0|0:0,0:0:0:0:
375,187,30213,5,2,1:2:0:0:
182,114,30544,2,0,P|144:138|54:133,1,107.999996704102,8|0,0:0|0:0,0:0:0:0:
42,130,30876,1,2,1:2:0:0:
147,253,31041,2,0,P|149:210|138:173,1,71.9999978027344,0|8,1:0|0:0,0:0:0:0:
111,45,31373,1,0,0:0:0:0:
72,225,31539,6,0,L|237:198,2,143.999995605469,2|10|0,1:2|0:0|1:0,0:0:0:0:
212,314,32367,1,12,0:0:0:0:
335,241,32533,1,12,0:0:0:0:
268,119,32699,1,0,0:0:0:0:
278,309,32865,6,0,P|255:282|246:248,1,71.9999978027344,2|0,1:2|0:0,0:0:0:0:
278,309,33196,2,0,P|224:348|148:341,1,143.999995605469,8|2,0:0|1:2,0:0:0:0:
61,171,33693,2,0,L|68:253,1,71.9999978027344,0|8,1:0|0:0,0:0:0:0:
77,366,34025,1,2,0:0:0:0:
143,201,34191,6,0,L|154:51,1,143.999995605469,0|10,1:0|0:0,0:0:0:0:
366,116,34854,2,0,L|287:131,1,71.9999978027344,0|0,1:0|1:2,0:0:0:0:
424,171,35185,2,0,P|439:103|404:43,1,143.999995605469,10|4,0:0|1:2,0:0:0:0:
404,43,35848,6,0,L|489:28,1,71.9999978027344,8|0,0:0|3:0,0:0:0:0:
259,13,36180,1,2,1:3:0:0:
211,165,36345,1,0,1:0:0:0:
330,109,36511,1,10,0:0:0:0:
309,298,36677,6,0,P|286:264|284:188,1,107.999996704102,4|0,1:2|0:0,0:0:0:0:
283,182,37008,2,0,P|312:154|353:148,1,71.9999978027344,2|8,1:2|1:3,0:0:0:0:
448,204,37340,1,4,1:3:0:0:
204,260,37506,2,0,P|138:268|80:222,1,143.999995605469,4|2,0:0|1:2,0:0:0:0:
141,59,38003,6,0,L|147:130,1,71.9999978027344,8|4,1:2|0:0,0:0:0:0:
149,144,38500,1,2,0:0:0:0:
241,19,38666,1,0,0:0:0:0:
229,171,38832,2,0,B|226:209|226:209|246:298,1,120.000004577637,8|2,0:2|0:0,0:0:0:0:
328,351,39329,5,2,0:0:0:0:
318,198,39495,1,2,0:2:0:0:
139,229,39660,2,0,L|155:288,2,60.0000022888184,8|0|2,0:0|0:0|0:0,0:0:0:0:
74,154,40158,1,8,0:0:0:0:
187,351,40323,2,0,P|129:355|87:314,1,120.000004577637,2|8,0:2|0:0,0:0:0:0:
139,229,40821,5,2,0:2:0:0:
296,259,40986,2,0,B|341:267|341:267|365:261|365:261|430:272,1,120.000004577637,8|0,0:0|0:0,0:0:0:0:
329,156,41483,2,0,B|284:148|284:148|260:154|260:154|195:143,1,120.000004577637,10|2,0:0|0:0,0:0:0:0:
117,95,41981,1,2,0:0:0:0:
192,37,42146,6,0,P|165:15|137:6,1,60.0000022888184,2|8,0:2|0:0,0:0:0:0:
121,165,42478,2,0,P|126:130|120:101,1,60.0000022888184,0|2,0:0|0:0,0:0:0:0:
45,237,42809,1,8,0:0:0:0:
143,263,42975,1,8,0:3:0:0:
217,191,43141,1,4,1:3:0:0:
26,140,43307,1,2,1:2:0:0:
40,356,43472,6,0,B|91:360|117:335|117:335|157:344|196:319,1,160,4|8,0:0|0:0,0:0:0:0:
363,204,43970,2,0,P|323:207|293:232,1,80,2|0,0:0|1:0,0:0:0:0:
273,340,44301,1,0,1:0:0:0:
350,277,44467,1,8,0:0:0:0:
303,135,44633,1,2,0:0:0:0:
441,78,44798,6,0,P|463:124|459:184,1,96,0|0,1:0|1:0,0:0:0:0:
367,68,45130,2,0,P|381:29|415:5,1,80,12|0,0:0|0:0,0:0:0:0:
303,135,45461,1,2,1:2:0:0:
260,2,45627,1,0,1:0:0:0:
303,135,45793,2,0,P|308:213|312:257,1,120,12|0,0:0|0:0,0:0:0:0:
322,333,46124,5,4,1:0:0:0:
238,314,46290,1,2,0:0:0:0:
386,251,46456,1,10,0:0:0:0:
471,234,46622,1,2,0:0:0:0:
424,110,46788,5,2,1:2:0:0:
361,168,46954,1,2,1:2:0:0:
292,111,47119,1,8,0:0:0:0:
318,29,47285,1,2,0:0:0:0:
222,154,47450,2,0,P|250:181|291:190,1,80,2|2,0:3|0:0,0:0:0:0:
424,110,47782,5,8,0:0:0:0:
318,29,47948,1,0,1:2:0:0:
299,24,48030,1,8,0:0:0:0:
279,18,48113,1,0,1:0:0:0:
361,168,48279,1,0,1:0:0:0:
213,77,48445,6,0,P|153:124|164:200,1,160,8|4,0:0|0:0,0:0:0:0:
194,302,48942,1,0,0:0:0:0:
307,270,49108,2,0,L|387:262,1,80,4|0,0:0|0:0,0:0:0:0:
163,199,49439,2,0,L|83:208,1,80,4|0,0:0|0:0,0:0:0:0:
194,302,49771,5,4,0:0:0:0:
396,350,49937,1,8,0:3:0:0:
411,333,50019,1,0,3:0:0:0:
423,319,50102,2,0,P|413:261|406:190,1,128,4|12,0:3|0:1,0:0:0:0:
408,182,50765,5,10,0:0:0:0:
281,147,50931,1,2,1:2:0:0:
162,110,51097,2,0,P|83:121|18:126,1,120.000004577637,2|4,0:0|1:0,0:0:0:0:
89,28,51594,5,0,0:0:0:0:
143,188,51760,2,0,P|153:231|148:282,1,80,8|2,0:2|0:0,0:0:0:0:
135,309,52008,1,8,0:0:0:0:
135,309,52091,2,0,L|229:292,1,80,0|0,1:2|1:0,0:0:0:0:
415,345,52423,2,0,P|357:349|309:299,1,120,8|0,0:2|0:0,0:0:0:0:
290,244,52754,5,2,1:2:0:0:
380,282,52920,1,2,0:0:0:0:
217,350,53086,1,8,0:2:0:0:
290,244,53251,1,2,0:0:0:0:
294,224,53334,1,8,0:0:0:0:
299,204,53417,2,0,P|308:150|311:120,1,80,0|0,1:0|1:0,0:0:0:0:
187,27,53749,2,0,P|191:66|198:106,1,80,10|0,0:2|0:0,0:0:0:0:
200,204,54080,6,0,B|134:192|134:192|107:201|107:201|41:189,1,160,2|8,1:2|0:2,0:0:0:0:
157,288,54577,1,2,0:0:0:0:
157,288,54660,1,8,0:0:0:0:
157,288,54743,2,0,L|249:306,1,80,0|0,1:0|1:0,0:0:0:0:
113,179,55075,2,0,P|103:141|104:101,1,80,8|0,0:2|0:0,0:0:0:0:
151,35,55406,6,0,P|98:22|22:97,1,160,2|8,1:2|0:2,0:0:0:0:
28,196,55903,2,0,L|14:248,2,40,2|8|0,0:0|0:0|1:0,0:0:0:0:
104,102,56235,1,12,0:0:0:0:
199,167,56401,2,0,P|241:158|285:154,1,80,12|0,0:0|0:0,0:0:0:0:
435,182,56732,6,0,B|397:213|349:198|349:198|323:229|285:236,1,160,4|8,0:2|0:2,0:0:0:0:
166,267,57229,2,0,P|119:259|84:255,1,80,4|0,0:0|0:0,0:0:0:0:
199,167,57561,1,0,1:0:0:0:
265,350,57727,1,8,0:2:0:0:
155,246,57892,6,0,P|100:236|35:226,1,120,4|0,0:0|0:0,0:0:0:0:
23,203,58224,2,0,P|35:169|40:120,1,80,0|8,1:0|0:0,0:0:0:0:
29,12,58555,1,8,0:0:0:0:
197,44,58721,2,0,P|223:91|222:167,1,120,4|0,0:0|0:0,0:0:0:0:
223,184,59053,2,0,L|314:197,1,80,2|0,1:3|0:0,0:0:0:0:
416,313,59384,6,0,L|257:290,2,160,4|8|0,0:0|0:0|1:0,0:0:0:0:
511,232,60213,1,0,1:0:0:0:
404,75,60379,1,8,1:2:0:0:
339,271,60544,6,0,P|317:231|321:154,1,120,4|0,0:0|0:0,0:0:0:0:
240,181,60876,2,0,P|205:198|159:196,1,80,4|0,0:0|0:0,0:0:0:0:
17,117,61207,1,0,1:2:0:0:
71,288,61373,1,4,1:2:0:0:
71,288,61704,5,8,1:2:0:0:
103,311,61786,1,0,1:0:0:0:
140,325,61869,1,0,1:2:0:0:
180,327,61952,1,0,1:0:0:0:
219,318,62036,2,0,P|278:300|353:301,1,120,4|0,1:0|0:0,0:0:0:0:
394,259,62367,6,0,L|378:179,2,80,8|0|2,0:2|0:0|1:2,0:0:0:0:
458,334,62865,1,0,1:0:0:0:
486,153,63030,1,8,0:0:0:0:
350,115,63196,5,0,0:0:0:0:
350,115,63279,1,0,0:0:0:0:
350,115,63362,2,0,P|306:128|252:130,1,80,2|2,1:2|0:0,0:0:0:0:
162,108,63693,1,8,0:2:0:0:
295,42,63859,1,2,0:0:0:0:
222,202,64025,5,0,1:0:0:0:
130,35,64191,1,0,0:0:0:0:
124,43,64274,1,0,1:0:0:0:
120,52,64356,2,0,L|131:184,1,120,8|0,1:0|0:0,0:0:0:0:
144,242,64688,5,4,0:0:0:0:
163,264,64770,1,8,0:2:0:0:
188,280,64853,1,8,0:2:0:0:
217,288,64936,1,8,0:2:0:0:
247,285,65019,1,2,0:2:0:0:
360,349,65185,1,0,0:0:0:0:
447,251,65351,6,0,L|441:206,3,40,2|0|0|0,0:2|0:0|0:2|0:0,0:0:0:0:
341,177,65682,2,0,L|347:132,3,40,8|0|0|0,0:2|0:0|0:0|0:0,0:0:0:0:
354,64,66014,6,0,P|312:72|263:79,1,80,2|0,0:2|0:0,0:0:0:0:
235,72,66262,1,0,0:0:0:0:
197,59,66344,1,10,0:2:0:0:
157,60,66427,1,0,0:0:0:0:
120,74,66510,1,0,0:0:0:0:
89,100,66593,1,0,0:0:0:0:
70,135,66677,6,0,L|29:149,1,40,10|8,0:2|0:2,0:0:0:0:
139,245,66843,2,0,L|146:205,1,40,0|0,0:2|0:2,0:0:0:0:
35,278,67008,2,0,P|61:325|142:337,1,120,10|0,0:2|0:0,0:0:0:0:
207,320,67340,6,0,B|313:291|313:291|371:298,1,160,4|8,1:0|0:2,0:0:0:0:
240,185,67837,2,0,L|320:195,1,80,4|0,0:0|0:0,0:0:0:0:
455,223,68169,1,0,1:0:0:0:
406,54,68334,1,8,0:2:0:0:
455,223,68500,6,0,B|433:269|462:328|462:328|430:313|405:321,1,160,4|0,0:0|1:0,0:0:0:0:
301,340,68997,1,8,0:0:0:0:
212,267,69163,1,0,1:0:0:0:
330,201,69329,1,2,1:3:0:0:
205,370,69495,1,0,0:0:0:0:
261,162,69660,2,0,P|315:128|392:148,1,120,2|0,1:3|0:0,0:0:0:0:
392,83,69992,6,0,P|355:97|312:99,1,80,4|0,0:0|0:0,0:0:0:0:
197,41,70323,1,8,0:0:0:0:
261,162,70489,1,2,0:0:0:0:
266,181,70572,1,8,0:0:0:0:
271,199,70655,1,0,1:0:0:0:
169,119,70821,5,0,1:0:0:0:
289,295,70986,2,0,P|291:236|266:182,1,120,10|8,0:0|0:0,0:0:0:0:
261,162,71318,1,2,0:0:0:0:
261,162,71649,6,0,L|394:174,1,128,4|2,1:0|0:0,0:0:0:0:
468,123,72146,1,0,1:0:0:0:
340,22,72312,2,0,L|349:96,1,64,8|0,0:0|0:0,0:0:0:0:
374,284,72644,5,4,0:2:0:0:
468,223,72809,1,0,1:0:0:0:
481,213,72892,1,0,1:0:0:0:
494,204,72975,1,8,1:2:0:0:
361,361,73141,2,0,P|310:325|302:263,2,128,2|2|2,1:2|1:2|1:3,0:0:0:0:
377,197,73970,5,2,0:0:0:0:
289,168,74135,1,0,0:0:0:0:
210,217,74301,2,0,L|200:281,1,64,2|0,0:2|0:0,0:0:0:0:
316,90,74633,2,0,L|326:26,1,64,2|0,0:2|0:0,0:0:0:0:
225,120,74964,2,0,P|196:133|164:136,1,64,2|0,0:2|0:0,0:0:0:0:
43,104,75296,5,4,1:0:0:0:
96,327,75461,2,0,B|112:283|112:283|102:187,1,128,8|0,0:0|1:0,0:0:0:0:
180,81,75959,2,0,L|176:145,1,64,8|0,0:0|0:0,0:0:0:0:
190,284,76290,6,0,P|236:293|310:253,1,128,0|0,1:0|1:0,0:0:0:0:
357,190,76787,2,0,P|410:157|473:163,1,128,8|0,0:0|1:0,0:0:0:0:
438,330,77285,5,0,0:0:0:0:
407,134,77450,2,0,P|396:76|408:18,1,120.000004577637,0|2,0:0|0:0,0:0:0:0:
408,17,77948,6,0,B|358:44|358:44|313:11|256:27,1,160,4|8,1:0|0:0,0:0:0:0:
161,63,78445,2,0,P|124:77|84:76,1,80,0|2,0:0|1:2,0:0:0:0:
4,32,78776,1,0,1:2:0:0:
107,190,78942,2,0,P|109:131|85:77,1,120,8|0,0:0|0:0,0:0:0:0:
74,46,79274,5,2,1:2:0:0:
173,255,79605,2,0,P|164:297|138:329,1,80,8|2,0:0|0:0,0:0:0:0:
253,346,79937,1,0,1:0:0:0:
294,214,80102,2,0,P|259:192|217:188,1,80,2|8,1:2|0:0,0:0:0:0:
392,318,80600,6,0,B|448:287|506:306|506:306|487:264,1,160,2|8,1:2|0:0,0:0:0:0:
361,250,81097,1,0,0:2:0:0:
457,370,81262,1,2,1:2:0:0:
420,200,81428,2,0,P|388:174|345:170,1,80,0|8,1:0|0:0,0:0:0:0:
231,199,81760,1,0,0:0:0:0:
232,199,81843,1,8,0:0:0:0:
232,199,81925,2,0,P|199:221|159:222,1,80,4|0,0:2|1:0,0:0:0:0:
174,117,82257,5,8,0:0:0:0:
57,262,82423,1,2,1:2:0:0:
38,270,82506,1,8,0:0:0:0:
20,278,82588,1,8,0:0:0:0:
61,148,82754,1,4,1:3:0:0:
160,299,82920,5,8,0:0:0:0:
181,319,83002,1,8,0:0:0:0:
208,333,83085,1,8,0:0:0:0:
237,340,83168,1,8,0:0:0:0:
267,339,83251,2,0,P|323:331|354:328,1,80,4|2,0:0|0:0,0:0:0:0:
468,293,83583,5,8,0:0:0:0:
373,165,83749,2,0,P|321:189|250:186,1,120,4|0,0:0|0:0,0:0:0:0:
223,178,84080,1,2,1:2:0:0:
132,35,84246,1,8,0:0:0:0:
242,107,84412,6,0,B|260:197|260:197|230:221|218:260,1,160,4|10,0:0|0:0,0:0:0:0:
181,367,84909,1,8,1:2:0:0:
365,238,85075,5,4,0:0:0:0:
377,228,85406,1,4,0:0:0:0:
389,217,85738,1,4,0:0:0:0:
256,192,85821,12,2,87064,0:0:0:0:
