osu file format v14

[General]
AudioFilename: ED.mp3
AudioLeadIn: 0
PreviewTime: 50780
Countdown: 0
SampleSet: Soft
StackLeniency: 0.7
Mode: 0
LetterboxInBreaks: 0
WidescreenStoryboard: 0

[Editor]
DistanceSpacing: 1
BeatDivisor: 4
GridSize: 8
TimelineZoom: 1.8

[Metadata]
Title:Souzou Diary
TitleUnicode:想像ダイアリー
Artist:Touyama Nao, Hanazawa Kana, Komatsu Mikako, Asumi Kana
ArtistUnicode:東山奈央, 花澤香菜, 小松未可子, 阿澄佳奈
Creator:Hyasalia
Version:Normal
Source:ニセコイ
Tags:nisekoi tv size ending chitoge kirisaki kosaki onodera seishirou tsugumi marika tachibana zj0924
BeatmapID:662244
BeatmapSetID:291574

[Difficulty]
HPDrainRate:4
CircleSize:3
OverallDifficulty:4
ApproachRate:5
SliderMultiplier:1.15
SliderTickRate:1

[Events]
//Background and Video events
Video,277,"ED_1.avi"
0,0,"ED.jpg",0,0
//Break Periods
//Storyboard Layer 0 (Background)
//Storyboard Layer 1 (Fail)
//Storyboard Layer 2 (Pass)
//Storyboard Layer 3 (Foreground)
//Storyboard Sound Samples

[TimingPoints]
1222,331.491712707182,4,2,1,60,1,0
3210,-100,4,2,1,70,0,0
3873,-100,4,2,1,65,0,0
15807,-100,4,2,1,50,0,0
17133,-100,4,2,1,45,0,0
26415,-100,4,2,1,60,0,0
38349,-100,4,2,1,55,0,0
43652,-100,4,2,1,60,0,0
50614,-100,4,2,1,65,0,0
51608,-100,4,2,1,70,0,1
61884,-100,4,2,1,65,0,0
62216,-100,4,2,1,70,0,1
74150,-100,4,2,1,40,0,0
74481,-100,4,2,1,60,0,0
78128,-100,4,2,1,65,0,0
87409,-100,4,2,1,5,0,0

[Colours]
Combo1 : 0,128,255
Combo2 : 255,128,192
Combo3 : 15,163,251
Combo4 : 128,128,255

[HitObjects]
265,364,1222,6,0,P|342:284|337:172,1,230,2|2,0:0|0:0,0:0:0:0:
114,114,2547,1,6,0:0:0:0:
333,44,3210,2,0,L|411:65,1,57.5,8|2,0:0|0:0,0:0:0:0:
396,231,3873,6,0,B|403:345|403:345|482:246,1,230,2|2,0:0|0:0,0:0:0:0:
430,147,4868,1,8,0:0:0:0:
319,179,5199,2,0,P|274:222|218:233,1,115,2|8,0:0|0:0,0:0:0:0:
176,199,5697,2,0,L|197:64,1,115,0|0,0:0|0:0,0:0:0:0:
139,64,6194,2,0,P|64:84|35:118,1,115,8|2,0:0|0:0,0:0:0:0:
71,220,6857,5,8,0:0:0:0:
20,322,7188,2,0,P|78:334|147:305,1,115,2|8,0:0|0:0,0:0:0:0:
240,286,7851,2,0,L|228:163,1,115,2|8,0:0|0:0,0:0:0:0:
191,128,8349,1,0,0:0:0:0:
275,50,8680,2,0,P|251:29|221:19,2,57.5,8|8|0,0:0|0:0|0:0,0:0:0:0:
311,94,9177,6,0,L|440:69,1,115,2|8,0:0|0:0,0:0:0:0:
470,107,9675,1,0,0:0:0:0:
437,218,10006,1,0,0:0:0:0:
324,207,10338,2,0,P|277:248|214:246,1,115,6|2,0:0|0:0,0:0:0:0:
123,203,11001,1,2,0:0:0:0:
157,157,11166,2,0,L|129:43|129:43,2,115,2|4|2,0:0|0:0|0:0,0:0:0:0:
225,249,12161,5,0,0:0:0:0:
338,263,12492,1,0,0:0:0:0:
397,165,12824,2,0,L|476:184,1,57.5,8|8,0:0|0:0,0:0:0:0:
468,64,13321,1,8,0:0:0:0:
353,68,13652,2,0,P|300:119|292:170,1,115,8|8,0:0|0:0,0:0:0:0:
304,213,14150,1,8,0:0:0:0:
274,323,14481,6,0,B|212:307|192:244|192:244|154:293|82:286,1,230,2|2,0:0|0:0,0:0:0:0:
101,171,15476,1,0,0:0:0:0:
192,101,15807,2,0,P|297:120|385:22,1,230,2|2,0:0|0:0,0:0:0:0:
494,241,17133,6,0,L|370:217,1,115,2|0,0:0|0:0,0:0:0:0:
276,266,17796,2,0,P|303:320|298:375,1,115,2|0,0:0|0:0,0:0:0:0:
187,341,18459,1,2,0:0:0:0:
113,253,18791,2,0,L|-1:298,2,115,0|2|0,0:0|0:0|0:0,0:0:0:0:
192,170,19785,6,0,P|140:143|69:149,1,115,2|0,0:0|0:0,0:0:0:0:
34,116,20282,1,0,0:0:0:0:
34,116,20448,2,0,P|78:80|93:6,2,115,2|0|2,0:0|0:0|0:0,0:0:0:0:
5,229,21442,1,2,0:0:0:0:
107,281,21774,2,0,L|221:248,1,115,2|2,0:0|0:0,0:0:0:0:
247,199,22271,1,2,0:0:0:0:
206,158,22437,6,0,B|181:60|181:60|245:25|304:66,1,230,6|0,0:0|0:0,0:0:0:0:
413,32,23431,1,2,0:0:0:0:
461,136,23763,2,0,L|434:268,1,115,2|0,0:0|0:0,0:0:0:0:
421,303,24260,1,2,0:0:0:0:
421,303,24426,2,0,P|353:346|304:341,1,115,2|0,0:0|0:0,0:0:0:0:
213,303,25089,2,0,B|180:268|180:268|193:208|161:153|161:153|191:87,1,230,2|2,0:0|0:0,0:0:0:0:
276,23,26083,1,2,0:0:0:0:
362,99,26415,6,0,L|435:67,2,57.5,8|12|8,0:0|0:0|0:0,0:0:0:0:
344,153,26912,1,0,0:0:0:0:
245,212,27244,2,0,L|121:195,1,115,8|4,0:0|0:0,0:0:0:0:
104,247,27741,6,0,P|139:300|141:367,1,115,2|8,0:0|0:0,0:0:0:0:
257,330,28404,2,0,L|336:346,1,57.5,2|0,0:0|0:0,0:0:0:0:
362,311,28735,1,8,0:0:0:0:
477,314,29067,2,0,P|467:261|425:213,1,115,0|8,0:0|0:0,0:0:0:0:
330,164,29730,2,0,L|346:91,1,57.5,2|0,0:0|0:0,0:0:0:0:
301,66,30061,1,8,0:0:0:0:
186,74,30393,6,0,L|63:105,2,115,2|8|2,0:0|0:0|0:0,0:0:0:0:
213,124,31221,1,0,0:0:0:0:
213,124,31387,2,0,P|194:190|150:231,1,115,8|6,0:0|0:0,0:0:0:0:
53,258,32050,1,8,0:0:0:0:
138,334,32382,2,0,L|209:351,1,57.5,2|8,0:0|0:0,0:0:0:0:
238,311,32713,2,0,L|375:288,2,115,8|2|8,0:0|0:0|0:0,0:0:0:0:
182,209,33708,2,0,L|208:128,1,57.5,2|0,0:0|0:0,0:0:0:0:
176,101,34039,1,8,0:0:0:0:
289,82,34371,6,0,P|347:86|413:44,2,115,2|8|2,0:0|0:0|0:0,0:0:0:0:
246,42,35199,1,0,0:0:0:0:
194,16,35365,2,0,P|126:28|90:86,1,115,8|2,0:0|0:0,0:0:0:0:
59,169,36028,1,8,0:0:0:0:
117,270,36360,2,0,B|189:304|189:304|241:299|277:246,1,172.5,6|6,0:0|0:0,0:0:0:0:
338,168,37188,2,0,L|415:189,2,57.5,2|2|2,0:0|0:0|0:0,0:0:0:0:
287,139,37686,2,0,P|222:141|180:175,1,115,2|2,0:0|0:0,0:0:0:0:
103,252,38349,6,0,P|69:173|170:61,1,230,2|2,0:0|0:0,0:0:0:0:
345,182,39675,2,0,P|424:160|442:27,1,230,6|8,0:0|0:0,0:0:0:0:
389,49,40503,1,0,0:0:0:0:
254,157,41001,1,2,0:0:0:0:
425,310,41663,5,8,0:0:0:0:
254,157,42326,2,0,P|216:244|217:281,1,115,6|2,0:0|0:0,0:0:0:0:
254,305,42824,1,0,0:0:0:0:
254,305,42989,2,0,P|182:360|155:362,1,115,8|0,0:0|0:0,0:0:0:0:
72,288,43652,6,0,P|101:240|101:159,1,115,6|8,0:0|0:0,0:0:0:0:
73,134,44150,1,0,0:0:0:0:
86,78,44315,2,0,P|127:43|199:30,1,115,2|8,0:0|0:0,0:0:0:0:
263,113,44978,1,2,0:0:0:0:
359,49,45310,1,12,0:0:0:0:
443,127,45641,2,0,L|412:253,1,115,2|12,0:0|0:0,0:0:0:0:
363,336,46304,6,0,B|324:355|276:348|276:348|223:365|223:365|173:349|161:302,1,230,2|2,0:0|0:0,0:0:0:0:
244,226,47299,1,8,0:0:0:0:
131,201,47630,2,0,B|78:220|78:220|79:287|38:339,2,172.5,2|0|8,0:0|0:0|0:0,0:0:0:0:
235,152,48956,5,8,0:0:0:0:
328,218,49288,1,8,0:0:0:0:
339,103,49619,1,8,0:0:0:0:
235,152,49951,2,0,P|211:223|236:282,1,115,8|0,0:0|0:0,0:0:0:0:
312,329,50614,2,0,B|385:339|385:339|463:302|455:203,1,230,6|8,0:0|0:0,0:0:0:0:
384,120,51608,6,0,L|409:-2,2,115,6|8|2,0:0|0:0|0:0,0:0:0:0:
310,209,52603,1,8,0:0:0:0:
221,136,52934,2,0,L|143:122,1,57.5,2|0,0:0|0:0,0:0:0:0:
111,102,53266,2,0,L|-10:134,2,115,8|2|12,0:0|0:0|0:0,0:0:0:0:
221,136,54260,2,0,P|280:110|314:56,1,115,2|8,0:0|0:0,0:0:0:0:
363,52,54757,1,0,0:0:0:0:
410,84,54923,2,0,P|448:129|459:182,1,115,2|8,0:0|0:0,0:0:0:0:
505,288,55586,5,2,0:0:0:0:
396,326,55918,1,8,0:0:0:0:
338,226,56249,2,0,L|350:166,1,57.5,6|2,0:0|0:0,0:0:0:0:
310,127,56581,2,0,P|257:164|236:224,1,115,8|2,0:0|0:0,0:0:0:0:
248,323,57244,5,8,0:0:0:0:
215,370,57409,2,0,P|143:362|106:330,1,115,4|0,0:0|0:0,0:0:0:0:
19,268,58072,1,4,0:0:0:0:
122,216,58404,1,0,0:0:0:0:
111,101,58735,1,0,0:0:0:0:
167,116,58901,2,0,L|287:87,1,115,2|8,0:0|0:0,0:0:0:0:
385,133,59564,6,0,P|365:196|381:252,1,115,2|8,0:0|0:0,0:0:0:0:
447,332,60227,2,0,L|522:303,2,57.5,2|2|8,0:0|0:0|0:0,0:0:0:0:
391,342,60724,2,0,P|335:344|280:302,1,115,0|0,0:0|0:0,0:0:0:0:
259,200,61387,1,0,0:0:0:0:
212,166,61553,2,0,L|87:203,1,115,8|8,0:0|0:0,0:0:0:0:
8,266,62216,6,0,P|60:304|131:306,2,115,6|8|2,0:0|0:0|0:0,0:0:0:0:
5,150,63210,1,8,0:0:0:0:
63,51,63542,2,0,P|96:78|108:101,1,57.5,2|0,0:0|0:0,0:0:0:0:
149,125,63873,2,0,P|203:127|268:80,1,115,8|2,0:0|0:0,0:0:0:0:
360,141,64536,1,4,0:0:0:0:
299,238,64868,6,0,L|280:359,1,115,2|0,0:0|0:0,0:0:0:0:
189,282,65531,2,0,L|166:159,1,115,2|2,0:0|0:0,0:0:0:0:
278,137,66194,1,2,0:0:0:0:
382,185,66525,1,8,0:0:0:0:
459,101,66857,1,2,0:0:0:0:
403,2,67188,1,8,0:0:0:0:
292,25,67520,6,0,P|226:35|180:87,1,115,6|8,0:0|0:0,0:0:0:0:
160,113,68017,2,0,L|35:104,1,115,4|0,0:0|0:0,0:0:0:0:
84,212,68680,2,0,L|209:221,1,115,4|0,0:0|0:0,0:0:0:0:
246,188,69177,2,0,P|265:161|271:119,1,57.5,8|0,0:0|0:0,0:0:0:0:
323,112,69509,2,0,P|377:134|441:125,1,115,6|8,0:0|0:0,0:0:0:0:
481,232,70172,6,0,L|462:301,1,57.5,2|0,0:0|0:0,0:0:0:0:
423,327,70503,2,0,P|366:357|311:351,1,115,8|2,0:0|0:0,0:0:0:0:
229,278,71166,2,0,L|245:153,1,115,8|6,0:0|0:0,0:0:0:0:
226,50,71829,1,8,0:0:0:0:
332,93,72161,2,0,P|408:82|443:44,1,115,2|8,0:0|0:0,0:0:0:0:
486,160,72824,2,0,L|461:289,1,115,2|2,0:0|0:0,0:0:0:0:
444,327,73321,1,8,0:0:0:0:
331,302,73652,1,8,0:0:0:0:
372,196,73984,2,0,L|349:133,1,57.5,8|2,0:0|0:0,0:0:0:0:
237,136,74481,6,0,L|116:162,2,115,2|2|2,0:0|0:0|0:0,0:0:0:0:
287,31,75476,1,2,0:0:0:0:
384,239,76139,2,0,P|452:274|485:156,1,230,2|6,0:0|0:0,0:0:0:0:
259,165,77465,2,0,L|245:232,1,57.5,8|8,0:0|0:0,0:0:0:0:
155,367,78128,5,2,0:0:0:0:
115,259,78459,2,0,P|52:286|-9:279,2,115,8|2|8,0:0|0:0|0:0,0:0:0:0:
40,170,79454,2,0,L|73:47,1,115,2|8,0:0|0:0,0:0:0:0:
116,24,79951,2,0,P|177:52|240:45,1,115,0|0,0:0|0:0,0:0:0:0:
272,80,80448,2,0,L|292:203,1,115,8|2,0:0|0:0,0:0:0:0:
222,286,81111,5,8,0:0:0:0:
331,320,81442,2,0,L|409:317,2,57.5,2|0|8,0:0|0:0|0:0,0:0:0:0:
227,369,82105,2,0,P|191:320|138:293,1,115,2|8,0:0|0:0,0:0:0:0:
86,300,82603,1,0,0:0:0:0:
143,201,82934,2,0,L|214:167,2,57.5,0|8|0,0:0|0:0|0:0,0:0:0:0:
86,191,83431,6,0,P|38:173|3:108,1,115,2|8,0:0|0:0,0:0:0:0:
3,63,83929,1,4,0:0:0:0:
117,73,84260,2,0,L|236:44,1,115,0|4,0:0|0:0,0:0:0:0:
249,159,84923,2,0,L|227:224,1,57.5,0|8,0:0|0:0,0:0:0:0:
273,252,85255,1,6,0:0:0:0:
380,211,85586,1,2,0:0:0:0:
355,98,85918,1,4,0:0:0:0:
256,192,86083,12,2,87244,0:0:0:0:
