osu file format v14

[General]
AudioFilename: Nao Tauyama, Kana Hanazawa, Kana Asumi, Mikako Komatsu - Aimai Hertz.mp3
AudioLeadIn: 0
PreviewTime: 53813
Countdown: 0
SampleSet: Soft
StackLeniency: 0.3
Mode: 0
LetterboxInBreaks: 0
WidescreenStoryboard: 0

[Editor]
Bookmarks: 76979
DistanceSpacing: 1.2
BeatDivisor: 4
GridSize: 4
TimelineZoom: 1

[Metadata]
Title:Aimai Hertz TVsize ver.
TitleUnicode:曖昧ヘルツ TVsize ver.
Artist:Touyama Nao, Hanazawa Kana, Komatsu Mikako, Asumi Kana
ArtistUnicode:東山 奈央, 花澤 香菜, 小松 未可子, 阿澄 佳奈
Creator:Inyuschan
Version:Mochi's Hard
Source:Nisekoi:
Tags:ニセコイ Fake False Love Ending Second Season Kirisaki Chitoge Onodera Kosaki Tsugumi Seishiro Marika Tachibana IamKwaN Momochikun DakeDekaane
BeatmapID:680996
BeatmapSetID:303666

[Difficulty]
HPDrainRate:6
CircleSize:4
OverallDifficulty:6
ApproachRate:7.5
SliderMultiplier:1.45
SliderTickRate:1

[Events]
//Background and Video events
0,0,"BG.jpg",0,0
Video,449,"optc.flv"
//Break Periods
//Storyboard Layer 0 (Background)
//Storyboard Layer 1 (Fail)
//Storyboard Layer 2 (Pass)
//Storyboard Layer 3 (Foreground)
//Storyboard Sound Samples

[TimingPoints]
648,355.029585798817,4,2,1,40,1,0
4908,-100,4,2,1,40,0,0
6328,-100,4,2,1,65,0,1
6417,-100,4,2,1,65,0,0
17156,-111.111111111111,4,2,1,50,0,0
17689,-117.647058823529,4,2,1,40,0,0
23369,-100,4,2,1,45,0,0
38636,-100,4,1,1,55,0,0
38991,-100,4,2,1,50,0,0
39701,-100,4,1,1,45,0,0
40233,-100,4,1,1,30,0,0
40411,-111.111111111111,4,2,1,40,0,0
48044,-117.647058823529,4,2,1,45,0,0
48576,-100,4,2,1,55,0,0
51772,-100,4,1,1,50,0,0
53192,-100,4,1,1,55,0,0
53902,-200,4,2,1,55,0,0
54612,-100,4,1,1,60,0,1
65263,-100,4,1,1,50,0,1
65884,-100,4,1,1,60,0,0
65973,-100,4,1,1,60,0,1
76801,-100,4,1,1,40,0,1
77334,-111.111111111111,4,2,1,50,0,0
81417,-153.846153846154,4,2,1,40,0,0
82304,-166.666666666667,4,1,1,55,0,0
83014,-100,4,2,1,65,0,1
83103,-100,4,2,1,55,0,0
85500,-100,4,2,1,55,0,0
85855,-100,4,1,1,40,0,0
88340,-100,4,2,1,35,0,0
88695,-133.333333333333,4,2,1,40,0,0

[Colours]
Combo1 : 138,184,118
Combo2 : 235,172,109
Combo3 : 136,182,227
Combo4 : 232,225,104

[HitObjects]
256,192,4908,12,0,5973,0:0:0:0:
200,279,6328,6,0,P|146:296|75:230,2,145,4|8|2,1:0|0:0|1:0,0:0:0:0:
277,238,7216,1,0,2:0:0:0:
277,238,7393,2,0,P|323:229|359:223,1,72.5,8|0,0:0|0:0,0:0:0:0:
411,165,7748,1,2,1:0:0:0:
242,119,8103,2,0,L|206:112|170:105,1,72.5,8|0,0:0|0:0,0:0:0:0:
93,65,8458,2,0,P|42:104|54:195,1,145,2|8,1:0|0:0,0:0:0:0:
69,262,8991,1,0,0:0:0:0:
154,246,9168,6,0,B|199:227|199:227|235:263|303:239,1,145,2|8,1:0|0:0,0:0:0:0:
360,191,9701,2,0,L|406:183,2,36.25,0|0|2,0:0|3:0|1:0,0:0:0:0:
282,150,10056,1,0,0:0:0:0:
354,101,10233,2,0,P|367:70|364:30,1,72.5,8|0,0:0|0:0,0:0:0:0:
294,54,10588,2,8,L|463:81,1,145,2|8,1:0|0:0,0:0:0:0:
492,144,11121,1,0,0:0:0:0:
424,197,11298,1,0,1:0:0:0:
432,207,11387,2,0,P|421:256|412:329,1,108.75,0|4,1:0|1:2,0:0:0:0:
326,257,11831,1,2,0:0:0:0:
314,362,12008,6,0,P|272:363|234:348,1,72.5,4|0,1:0|0:0,0:0:0:0:
181,292,12363,2,0,P|119:292|32:317,1,145,8|2,0:0|1:0,0:0:0:0:
11,231,12896,1,0,0:0:0:0:
89,192,13074,2,0,P|151:192|238:167,1,145,8|2,0:0|1:0,0:0:0:0:
285,102,13606,1,0,0:0:0:0:
261,187,13784,2,0,L|267:261,1,72.5,8|0,0:0|0:0,0:0:0:0:
371,304,14139,2,0,L|376:231,1,72.5,2|0,1:0|0:0,0:0:0:0:
386,145,14494,1,8,0:0:0:0:
218,192,14849,6,0,B|165:201|165:201|133:194|133:194|69:207,1,145,2|8,1:0|0:0,0:0:0:0:
21,273,15381,1,0,0:0:0:0:
21,273,15559,2,0,P|40:223|13:130,2,145,2|8|4,1:0|0:0|0:0,0:0:0:0:
256,357,17156,5,2,0:0:0:0:
325,304,17334,2,0,L|397:291,1,65.2499980087281
421,286,17600,5,0,3:0:0:0:
421,286,17689,2,0,P|403:239|413:157,1,123.250002350807,4|0,0:0|0:0,0:0:0:0:
264,72,18399,2,0,P|282:119|272:201,1,123.250002350807,2|0,0:0|0:0,0:0:0:0:
201,234,18932,1,0,0:0:0:0:
155,160,19109,2,0,B|74:147|74:147|23:167,1,123.250002350807,2|0,0:0|0:0,0:0:0:0:
137,301,19819,2,0,B|218:314|218:314|269:294,1,123.250002350807,2|0,0:0|0:0,0:0:0:0:
332,257,20352,1,0,0:0:0:0:
332,257,20440,1,0,3:0:0:0:
332,257,20529,1,4,0:0:0:0:
296,88,20884,6,0,P|280:118|278:147,1,61.6250011754036,2|0,0:0|0:0,0:0:0:0:
296,88,21239,2,0,P|250:61|174:66,1,123.250002350807,2|0,0:0|0:0,0:0:0:0:
141,139,21772,2,0,P|80:142|26:113,1,123.250002350807,2|0,0:0|0:0,0:0:0:0:
75,42,22304,1,0,0:0:0:0:
68,237,22659,2,0,L|79:309,1,61.6250011754036
153,257,23014,2,0,L|164:329,1,61.6250011754036,2|0,0:0|0:0,0:0:0:0:
254,359,23369,6,0,B|298:372|298:372|340:344|410:352,1,145,4|8,0:0|0:0,0:0:0:0:
474,319,23902,1,2,0:0:0:0:
411,258,24079,2,0,L|420:177,1,72.5,0|2,0:0|0:0,0:0:0:0:
427,99,24434,1,8,0:0:0:0:
338,193,24612,2,0,P|285:200|214:132,1,145,2|2,0:0|0:0,0:0:0:0:
279,54,25145,2,0,P|297:95|291:135,1,72.5,8|0,0:0|0:0,0:0:0:0:
234,212,25500,2,0,P|216:171|222:131,1,72.5,2|0,0:0|0:0,0:0:0:0:
279,54,25855,1,8,0:0:0:0:
193,66,26032,5,0,0:0:0:0:
193,66,26210,2,0,P|124:73|36:102,1,145,2|8,0:0|0:0,0:0:0:0:
24,177,26742,1,0,0:0:0:0:
153,221,26920,2,0,P|217:245|295:296,1,145,2|8,0:0|0:0,0:0:0:0:
322,362,27452,1,0,0:0:0:0:
353,246,27630,6,0,L|343:175,1,72.5,0|0,1:0|0:0,0:0:0:0:
473,140,27985,2,0,L|463:211,1,72.5,0|0,1:0|0:0,0:0:0:0:
439,323,28340,1,0,1:0:0:0:
439,323,28695,1,2,0:0:0:0:
353,337,28872,1,0,0:0:0:0:
266,346,29050,6,0,P|212:337|183:250,1,145,4|8,0:0|0:0,0:0:0:0:
204,176,29582,1,0,0:0:0:0:
204,176,29671,1,0,0:0:0:0:
204,176,29760,2,0,P|146:163|119:154,1,72.5,2|0,0:0|0:0,0:0:0:0:
182,86,30115,2,0,P|240:73|267:64,1,72.5,8|0,0:0|0:0,0:0:0:0:
307,1,30470,2,0,B|286:98|286:98|305:111|313:141,1,145,2|8,0:0|0:0,0:0:0:0:
282,218,31003,1,0,0:0:0:0:
366,197,31180,2,0,P|432:173|509:179,2,145,2|8|2,0:0|0:0|0:0,0:0:0:0:
175,256,32245,6,0,P|139:255|101:242,1,72.5,8|0,0:0|0:0,0:0:0:0:
38,186,32600,2,0,P|68:245|63:332,1,145,2|8,0:0|0:0,0:0:0:0:
10,375,33133,2,0,P|64:338|155:353,1,145,2|0,0:0|0:0,0:0:0:0:
227,372,33665,2,0,P|276:361|299:357,1,72.5,8|0,0:0|0:0,0:0:0:0:
266,277,34020,2,0,P|315:266|338:262,1,72.5,2|0,0:0|0:0,0:0:0:0:
417,297,34375,1,8,0:0:0:0:
290,176,34730,6,0,P|218:188|148:204,1,145,4|8,0:0|0:0,0:0:0:0:
70,162,35263,2,0,P|76:108|79:85,2,72.5,2|0|2,0:0|0:0|0:0,0:0:0:0:
26,237,35795,1,8,0:0:0:0:
100,282,35973,2,0,P|121:318|128:357,1,72.5,2|0,0:0|0:0,0:0:0:0:
223,384,36328,2,0,P|238:351|244:315,1,72.5,2|8,0:0|0:0,0:0:0:0:
205,237,36683,1,0,0:0:0:0:
151,115,36861,2,0,P|135:147|129:183,1,72.5,2|12,0:0|0:0,0:0:0:0:
205,237,37216,2,0,P|274:222|340:209,1,108.75,12|0,0:0|0:0,0:0:0:0:
356,227,37571,6,0,P|364:189|369:153,1,72.5,4|0,0:0|0:0,0:0:0:0:
423,81,37926,2,0,P|365:65|295:118,1,145,8|4,0:0|0:0,0:0:0:0:
224,161,38458,1,2,0:0:0:0:
172,88,38636,2,0,L|129:76,3,36.25
95,66,38991,6,0,P|71:100|69:130,1,72.5,2|2,1:0|0:0,0:0:0:0:
83,158,39257,1,0,0:0:0:0:
83,158,39346,2,0,L|73:233,1,72.5,2|0,0:0|0:0,0:0:0:0:
59,315,39701,1,4,1:2:0:0:
157,281,39878,2,0,P|230:257|314:248,1,145,4|0,1:2|0:3,0:0:0:0:
315,251,40322,1,0,0:0:0:0:
332,255,40411,1,4,0:0:0:0:
455,81,40766,6,0,P|421:90|375:91,1,65.2499980087281,0|0,1:0|1:0,0:0:0:0:
329,32,41121,2,0,P|349:127|354:161,1,130.499996017456,2|0,0:0|1:0,0:0:0:0:
199,229,41831,2,0,P|213:165|223:100,1,130.499996017456,2|0,0:0|1:0,0:0:0:0:
160,44,42363,1,0,1:0:0:0:
160,44,42541,2,0,P|119:29|81:25,1,65.2499980087281,2|0,0:0|0:0,0:0:0:0:
27,73,42896,1,0,1:0:0:0:
163,173,43251,6,0,B|218:180|218:180|241:173|241:173|294:180,1,130.499996017456,2|0,0:0|1:0,0:0:0:0:
363,225,43784,1,0,1:0:0:0:
405,152,43961,2,0,P|426:102|419:24,1,130.499996017456,2|0,0:0|1:0,0:0:0:0:
363,225,44671,6,0,L|376:296,1,65.2499980087281,0|0,1:0|0:0,0:0:0:0:
251,266,45026,2,0,L|239:201,1,65.2499980087281,0|0,1:0|0:0,0:0:0:0:
296,84,45381,2,0,L|309:155,1,65.2499980087281,0|0,1:0|0:0,0:0:0:0:
161,215,45736,2,0,L|149:150,1,65.2499980087281,0|0,1:0|0:0,0:0:0:0:
138,66,46091,6,0,P|71:57|1:106,1,130.499996017456,4|2,0:0|3:2,0:0:0:0:
37,170,46624,1,0,0:0:0:0:
37,170,46801,1,0,3:0:0:0:
150,296,47156,2,0,P|195:289|220:284,1,65.2499980087281,2|0,0:0|0:0,0:0:0:0:
275,226,47511,2,0,P|318:231|409:244,1,130.499996017456,0|0,3:0|0:0,0:0:0:0:
470,173,48044,1,0,0:0:0:0:
365,78,48221,2,0,L|375:141,1,61.6250011754036,2|8,0:0|0:0,0:0:0:0:
404,243,48576,5,8,0:0:0:0:
354,315,48754,2,0,P|303:318|212:248,1,145,4|2,0:0|0:0,0:0:0:0:
176,199,49287,1,8,0:0:0:0:
93,170,49464,2,0,P|144:173|235:103,1,145,4|2,0:0|0:0,0:0:0:0:
303,78,49997,5,8,0:0:0:0:
303,78,50174,2,0,P|348:127|342:209,1,145,4|2,0:0|0:0,0:0:0:0:
278,263,50707,1,8,0:0:0:0:
278,263,50884,2,0,B|367:235|367:235|390:243|424:246,1,145,4|2,0:0|0:0,0:0:0:0:
490,293,51417,1,12,0:0:0:0:
378,328,51594,5,0,1:0:0:0:
364,333,51683,1,0,1:0:0:0:
350,339,51772,2,0,L|271:364,1,72.5,4|0,0:0|2:0,0:0:0:0:
189,331,52127,2,0,P|194:281|169:221,1,108.75,0|0,1:0|2:0,0:0:0:0:
152,204,52482,6,0,P|194:200|232:177,1,72.5,0|0,0:0|2:0,0:0:0:0:
269,114,52837,2,0,P|301:98|337:96,1,72.5,0|0,0:0|2:0,0:0:0:0:
405,159,53192,2,0,L|418:207,3,36.25
454,211,53547,2,0,L|441:259,3,36.25
430,287,53902,6,0,B|373:302|331:254|331:254|350:259|374:254,1,145,2|4,0:0|0:0,0:0:0:0:
400,84,54967,1,8,0:0:0:0:
400,84,55145,1,0,0:0:0:0:
317,113,55322,6,0,P|263:106|230:99,1,72.5,2|0,0:0|0:0,0:0:0:0:
166,65,55677,2,0,P|143:98|145:142,1,72.5,8|0,0:0|0:0,0:0:0:0:
190,201,56032,2,0,P|144:161|61:170,1,145,2|8,0:0|0:0,0:0:0:0:
140,271,56565,2,0,P|209:281|265:237,1,145,2|0,0:0|0:0,0:0:0:0:
350,253,57097,2,0,L|340:181,1,72.5,8|0,0:0|0:0,0:0:0:0:
329,94,57452,5,2,0:0:0:0:
451,218,57807,2,0,L|441:290,1,72.5,8|0,0:0|0:0,0:0:0:0:
369,339,58162,2,0,B|297:364|306:321|226:353,1,145,2|8,0:0|0:0,0:0:0:0:
150,311,58695,1,0,0:0:0:0:
190,234,58872,2,0,P|201:165|151:94,1,145,2|8,0:0|0:0,0:0:0:0:
118,172,59405,2,0,B|161:176|161:176|270:136,1,145,2|0,0:0|0:0,0:0:0:0:
342,153,59937,2,0,P|337:109|313:80,1,72.5,8|0,0:0|0:0,0:0:0:0:
247,35,60292,5,4,0:0:0:0:
349,240,60648,1,8,0:0:0:0:
349,240,61003,2,0,P|364:205|359:166,1,72.5,2|0,0:0|0:0,0:0:0:0:
269,285,61358,2,0,L|197:271,1,72.5,8|0,0:0|0:0,0:0:0:0:
259,368,61713,2,0,L|405:341,2,145,2|8|2,0:0|0:0|0:0,0:0:0:0:
89,328,62778,1,12,0:0:0:0:
35,259,62955,5,0,0:0:0:0:
35,259,63044,1,0,0:0:0:0:
35,259,63133,2,0,P|43:213|51:175,1,72.5
118,136,63488,2,0,P|179:147|247:87,1,145,12|0,0:0|0:0,0:0:0:0:
162,64,64020,1,0,0:0:0:0:
287,36,64198,2,0,L|267:187,1,145,12|0,0:0|0:0,0:0:0:0:
244,263,64730,1,0,0:0:0:0:
328,283,64908,1,4,0:0:0:0:
328,283,65263,6,0,L|384:269,3,36.25
399,297,65618,2,0,L|455:283,3,36.25
476,277,65973,1,4,0:0:0:0:
276,154,66328,1,8,0:0:0:0:
276,154,66505,1,0,0:0:0:0:
206,206,66683,6,0,B|159:218|159:218|116:177|140:110,1,145,2|8,0:0|0:0,0:0:0:0:
282,38,67393,2,0,P|406:57|434:62,1,145,2|8,0:0|0:0,0:0:0:0:
474,132,67926,1,2,0:0:0:0:
393,164,68103,2,0,P|383:199|379:237,1,72.5,0|2,0:0|0:0,0:0:0:0:
403,318,68458,1,8,0:0:0:0:
465,257,68636,1,2,0:0:0:0:
379,234,68813,6,0,P|326:233|232:193,1,145,0|8,0:0|0:0,0:0:0:0:
68,179,69523,2,0,P|73:220|80:251,1,72.5,2|0,0:0|0:0,0:0:0:0:
135,317,69878,1,8,0:0:0:0:
164,145,70233,2,0,B|177:49|177:49|216:12,1,145,2|8,0:0|0:0,0:0:0:0:
283,65,70766,2,0,P|356:64|448:28,1,145,2|0,0:0|0:0,0:0:0:0:
364,104,71298,2,0,P|349:138|352:178,1,72.5,8|0,0:0|0:0,0:0:0:0:
405,240,71653,5,4,0:0:0:0:
243,303,72008,1,8,0:0:0:0:
273,131,72363,1,2,0:0:0:0:
210,191,72541,1,0,0:0:0:0:
291,220,72719,2,0,P|350:211|375:206,1,72.5,8|0,0:0|0:0,0:0:0:0:
442,172,73074,2,0,P|473:128|443:40,2,145,2|8|2,0:0|0:0|0:0,0:0:0:0:
291,220,74139,1,8,0:0:0:0:
291,220,74494,6,0,P|278:272|274:306,1,72.5,2|0,0:0|0:0,0:0:0:0:
211,350,74849,2,0,B|148:360|110:322|110:322|85:358,1,145,8|2,0:0|0:0,0:0:0:0:
33,282,75381,1,0,0:0:0:0:
72,204,75559,2,0,P|86:171|82:122,1,72.5,8|0,0:0|0:0,0:0:0:0:
32,65,75914,2,0,P|85:108|182:86,1,145,0|12,0:0|0:0,0:0:0:0:
242,80,76446,1,0,0:0:0:0:
242,80,76535,1,0,0:0:0:0:
242,80,76624,2,0,P|297:89|324:92,1,72.5,0|4,0:0|1:2,0:0:0:0:
348,192,76979,2,0,P|293:183|266:180,1,72.5,4|0,1:2|0:0,0:0:0:0:
173,168,77334,6,0,P|194:223|196:302,1,130.499996017456,4|2,1:0|0:0,0:0:0:0:
123,346,77866,1,0,1:0:0:0:
123,346,78044,2,0,P|79:335|55:330,1,65.2499980087281,8|0,0:0|1:0,0:0:0:0:
250,374,78576,2,0,P|307:367|383:339,1,130.499996017456,2|0,1:0|1:0,0:0:0:0:
396,160,79287,1,0,1:0:0:0:
313,198,79464,2,0,L|304:243|299:268,1,65.2499980087281,8|0,0:0|0:0,0:0:0:0:
217,221,79819,2,0,L|213:202|204:157,1,65.2499980087281,2|0,0:0|0:0,0:0:0:0:
193,66,80174,5,0,1:0:0:0:
103,76,80352,2,0,B|83:108|83:108|99:204,1,130.499996017456,2|0,0:0|1:0,0:0:0:0:
102,230,80795,1,0,1:0:0:0:
102,230,80884,2,0,P|61:217|26:219,1,65.2499980087281,8|0,0:0|1:0,0:0:0:0:
39,216,81417,6,0,L|192:180,1,141.374993528366,4|2,0:0|0:0,0:0:0:0:
358,137,82304,1,0,1:0:0:0:
301,210,82482,2,0,P|282:245|283:324,1,108.749996681213,0|0,0:0|2:0,0:0:0:0:
290,337,83014,6,0,P|257:321|210:327,1,72.5,4|0,1:0|0:0,0:0:0:0:
142,359,83369,2,0,L|0:332,1,145,8|2,0:0|1:0,0:0:0:0:
58,167,84079,1,8,0:0:0:0:
227,125,84434,6,0,P|244:163|238:209,1,72.5,2|0,1:0|0:0,0:0:0:0:
232,280,84790,2,0,B|273:281|297:260|297:260|318:265|318:265|346:246|395:252,1,145,8|2,0:0|1:0,0:0:0:0:
448,285,85322,1,0,0:0:0:0:
448,178,85500,2,0,L|441:140,3,36.25,0|0|0|0,1:0|1:0|1:0|1:0,0:0:0:0:
434,99,85855,6,0,P|394:82|352:87,1,72.5,4|0,0:2|0:0,0:0:0:0:
336,97,86121,1,0,1:0:0:0:
336,97,86210,2,0,L|253:78,1,72.5,4|0,1:2|0:0,0:0:0:0:
188,166,86565,2,0,L|258:182,1,72.5,4|0,1:2|0:0,0:0:0:0:
310,286,86920,2,0,L|239:269,1,72.5,4|0,1:2|0:0,0:0:0:0:
153,285,87275,6,0,B|92:272|92:272|56:254|65:199,2,145,4|4|0,0:2|0:0|2:0,0:0:0:0:
256,53,88340,1,0,0:0:0:0:
256,53,88695,1,2,0:0:0:0:
