osu file format v12

[General]
AudioFilename: Cross road ED.mp3
AudioLeadIn: 0
PreviewTime: 49137
Countdown: 0
SampleSet: Soft
StackLeniency: 0.7
Mode: 0
LetterboxInBreaks: 0
WidescreenStoryboard: 0

[Editor]
Bookmarks: 50158,50824,78983
DistanceSpacing: 1
BeatDivisor: 3
GridSize: 8

[Metadata]
Title:Koko Kara Hajimaru Monogatari (TV Size)
TitleUnicode:ここからはじまる物語 (TV Size)
Artist:Touyama Nao
ArtistUnicode:东山奈央
Creator:ts8zs
Version:Normal
Source:Ikoku Meiro no Croisee
Tags:とうやま なお Ikoku Meiro no Kurou a Ze Cross Road
BeatmapID:268289
BeatmapSetID:97957

[Difficulty]
HPDrainRate:3
CircleSize:3
OverallDifficulty:3
ApproachRate:4
SliderMultiplier:0.500000005960464
SliderTickRate:1

[Events]
//Background and Video events
0,0,"Konachan.com - 112399 animal cat flowers ikoku_meiro_no_croisee japanese_clothes kimono kimura_tatsuki yune_(ikoku_meiro_no_croisee).jpg",0,0
Video,-700,"ed.flv"
//Break Periods
//Storyboard Layer 0 (Background)
//Storyboard Layer 1 (Fail)
//Storyboard Layer 2 (Pass)
//Storyboard Layer 3 (Foreground)
//Storyboard Sound Samples
//Background Colour Transformations
3,100,163,162,255

[TimingPoints]
569,400,4,2,1,20,1,8
2169,-100,4,2,1,20,0,8
46169,-66.6666666666667,4,2,1,30,0,0
50169,-66.6666666666667,4,2,1,30,0,1
61902,-66.6666666666667,4,2,1,30,0,0
62968,-66.6666666666667,4,2,1,30,0,1
75502,-66.6666666666667,4,2,1,30,0,0

[Colours]
Combo1 : 221,227,183
Combo2 : 159,149,174
Combo3 : 254,243,177
Combo4 : 253,226,245

[HitObjects]
256,192,5369,12,2,6969,0:0:0:0:
72,96,8569,6,0,P|128:104|232:80,1,150,2|0,0:0|0:0,0:0:0:0:
264,72,10169,2,0,P|248:128|264:176,1,100,2|0,0:0|0:0,0:0:0:0:
352,128,11769,2,0,P|360:192|304:256,1,150,2|0,0:0|0:0,0:0:0:0:
320,304,13369,2,0,P|256:312|192:256,1,150,2|0,0:0|0:0,0:0:0:0:
180,212,14969,6,0,P|236:180|260:156,1,50,2|0,0:0|0:0,0:0:0:0:
260,152,15769,2,0,P|300:120|316:112,1,50,2|0,0:0|0:0,0:0:0:0:
344,100,16569,2,0,P|392:100|424:92,2,50,2|0|0,0:0|0:0|0:0,0:0:0:0:
248,76,18169,6,0,L|232:76|208:76,3,33.3333333333333,2|2|2|2,0:0|0:0|0:0|0:0,0:0:0:0:
116,84,19769,2,0,P|140:164|148:244,1,150,2|0,0:0|0:0,0:0:0:0:
148,280,21369,6,0,P|204:288|276:272,1,100,2|0,0:0|0:0,0:0:0:0:
296,268,22569,1,0,0:0:0:0:
344,276,22969,2,0,P|424:292|472:284,1,100,2|0,0:0|0:0,0:0:0:0:
492,284,24169,1,0,0:0:0:0:
460,248,24569,6,0,P|424:188|412:96,1,150,2|0,0:0|0:0,0:0:0:0:
412,60,26169,2,0,P|360:76|312:84,1,100,2|2,0:0|0:0,0:0:0:0:
216,100,27769,6,0,L|156:132,1,50,2|0,0:0|0:0,0:0:0:0:
128,148,28569,2,0,L|172:196,1,50,2|0,0:0|0:0,0:0:0:0:
200,220,29369,2,0,B|256:232|320:208|352:216,1,150,2|0,0:0|0:0,0:0:0:0:
400,224,30969,6,0,P|412:176|400:72,1,150,2|0,0:0|0:0,0:0:0:0:
376,36,32569,2,0,P|340:52|312:60,2,50,2|2|2,0:0|0:0|0:0,0:0:0:0:
472,4,34169,6,0,P|496:64|496:112,1,100,2|0,0:0|0:0,0:0:0:0:
488,148,35369,1,2,0:0:0:0:
440,164,35769,2,0,P|388:200|368:232,1,100,2|0,0:0|0:0,0:0:0:0:
348,276,36969,5,0,0:0:0:0:
300,292,37369,2,0,P|248:296|192:280,1,100,2|0,0:0|0:0,0:0:0:0:
156,264,38569,1,0,0:0:0:0:
112,240,38969,2,0,P|92:264|64:284,2,50,2|0|2,0:0|0:0|0:0,0:0:0:0:
136,196,40169,5,0,0:0:0:0:
152,148,40569,2,0,P|192:152|216:152,1,50,2|2,0:0|0:0,0:0:0:0:
252,148,41369,2,0,P|292:144|316:148,1,50,2|0,0:0|0:0,0:0:0:0:
352,152,42169,2,0,P|416:152|464:136,1,100,2|0,0:0|0:0,0:0:0:0:
496,124,43369,1,0,0:0:0:0:
476,168,43769,2,0,P|456:220|444:272,1,100,2|0,0:0|0:0,0:0:0:0:
432,312,44969,2,0,P|400:308|372:296,1,50,2|0,0:0|0:0,0:0:0:0:
244,240,46169,6,0,P|296:208|320:176,1,100.00000500679,2|0,0:0|0:0,0:0:0:0:
280,144,46969,2,0,P|252:144|220:136,2,50,0|2|0,0:0|0:0|0:0,0:0:0:0:
320,108,47769,2,0,P|312:84|312:52,2,50,2|0|2,0:0|0:0|0:0,0:0:0:0:
332,156,48569,2,0,P|384:192|440:204,1,100,2|0,0:0|0:0,0:0:0:0:
468,204,49369,6,0,P|464:248|468:272,1,50
468,304,49902,2,2,P|440:332|424:340,1,50,2|2,0:0|0:0,0:0:0:0:
364,264,50702,2,0,P|328:280|304:284,1,50,0|8,0:0|0:0,0:0:0:0:
292,184,51502,2,0,P|252:184|232:180,1,50
192,172,52035,2,0,P|160:168|128:172,1,50
92,172,52569,6,0,P|76:208|64:224,1,50,10|0,0:0|0:0,0:0:0:0:
60,264,53102,2,0,P|96:256|124:252,1,50
208,240,53902,2,0,P|248:248|276:244,1,50,0|8,0:0|0:0,0:0:0:0:
308,244,54435,1,0,0:0:0:0:
356,232,54702,2,0,L|384:232|408:232,1,50.0000025033951
456,240,55235,2,0,P|492:244|512:240,2,50,0|0|2,0:0|0:0|0:0,0:0:0:0:
408,232,56035,6,0,P|396:180|416:128,1,100
312,116,57102,2,0,L|264:152,1,50,0|8,0:0|0:0,0:0:0:0:
232,176,57635,2,0,P|208:140|200:108,2,50
220,228,58435,2,0,P|252:256|264:272,2,50,0|0|10,0:0|0:0|0:0,0:0:0:0:
176,204,59235,6,0,P|112:216|76:212,1,100
124,124,60302,2,0,L|180:112,1,50,0|8,0:0|0:0,0:0:0:0:
220,100,60835,2,0,P|256:128|308:148,1,100
356,156,61635,2,2,P|360:124|376:96,1,50,0|0,0:0|0:0,0:0:0:0:
392,64,62169,6,0,P|372:44|364:20,2,50,10|0|2,0:0|0:0|0:0,0:0:0:0:
436,92,62969,2,0,P|456:152|444:212,1,100,2|0,0:0|0:0,0:0:0:0:
444,236,63769,2,0,P|392:220|324:232,1,100,8|0,0:0|0:0,0:0:0:0:
300,236,64569,2,0,P|276:180|248:144,1,100
240,100,65369,6,0,P|180:108|152:104,2,50,10|0|0,0:0|0:0|0:0,0:0:0:0:
292,100,66169,2,0,P|348:100|396:116,1,100
440,120,66969,2,0,P|424:172|428:216,1,100,8|0,0:0|0:0,0:0:0:0:
440,264,67769,2,0,P|388:280|348:312,1,100
308,332,68569,1,2,0:0:0:0:
264,304,68835,6,0,P|216:256|192:208,1,100
184,184,69635,2,0,P|160:168|136:144,2,50.0000025033951,0|0|8,0:0|0:0|0:0,0:0:0:0:
232,192,70435,2,0,P|288:192|336:168,1,100
376,152,71235,2,0,P|424:200|448:208,1,50
448,224,71769,2,0,P|416:264|360:288,1,100,10|0,0:0|0:0,0:0:0:0:
320,296,72569,6,0,P|264:280|216:248,1,100
192,232,73369,1,8,0:0:0:0:
160,192,73635,2,0,P|104:216|64:224,1,100
16,224,74435,1,0,0:0:0:0:
40,264,74702,2,0,P|64:280|96:296,1,50,0|10,0:0|0:0,0:0:0:0:
176,312,75502,5,0,0:0:0:0:
216,288,75769,2,0,P|256:256|304:240,1,100
352,240,76569,2,0,P|408:280|456:288,1,100,8|0,0:0|0:0,0:0:0:0:
488,288,77369,2,0,P|472:256|464:192,1,100
456,144,78169,2,0,P|408:160|360:160,1,100,10|0,0:0|0:0,0:0:0:0:
312,160,78969,2,0,P|288:128|264:72,1,100
248,24,79769,2,0,P|232:80|204:128,1,100,8|0,0:0|0:0,0:0:0:0:
192,160,80569,2,0,P|144:184|88:184,1,100
48,184,81369,5,2,0:0:0:0:
56,232,81635,2,0,P|56:272|40:304,2,50
208,232,82969,2,0,P|248:248|304:248,1,100
352,240,83769,2,0,P|392:280|416:328,1,100
424,368,84569,1,10,0:0:0:0:
280,328,85369,6,0,P|200:312|168:296,1,100
144,272,86169,2,0,P|168:200|168:144,1,100,8|0,0:0|0:0,0:0:0:0:
184,128,86969,2,0,P|248:128|280:112,1,100
328,96,87769,2,0,P|384:144|424:152,1,100,10|0,0:0|0:0,0:0:0:0:
456,168,88569,2,0,P|416:216|408:256,1,100
392,296,89369,2,0,P|336:264|296:264,1,100,8|0,0:0|0:0,0:0:0:0:
256,272,90169,1,2,0:0:0:0:
