osu file format v12

[General]
AudioFilename: Cross road ED.mp3
AudioLeadIn: 0
PreviewTime: 49137
Countdown: 0
SampleSet: Soft
StackLeniency: 0.7
Mode: 0
LetterboxInBreaks: 0
WidescreenStoryboard: 0

[Editor]
DistanceSpacing: 1
BeatDivisor: 3
GridSize: 8

[Metadata]
Title:Koko Kara Hajimaru Monogatari (TV Size)
TitleUnicode:ここからはじまる物語 (TV Size)
Artist:Touyama Nao
ArtistUnicode:东山奈央
Creator:ts8zs
Version:Hard
Source:Ikoku Meiro no Croisee
Tags:とうやま なお Ikoku Meiro no Kurou a Ze Cross Road
BeatmapID:268924
BeatmapSetID:97957

[Difficulty]
HPDrainRate:5
CircleSize:4
OverallDifficulty:5
ApproachRate:7
SliderMultiplier:0.899999999999999
SliderTickRate:1

[Events]
//Background and Video events
0,0,"Konachan.com - 112399 animal cat flowers ikoku_meiro_no_croisee japanese_clothes kimono kimura_tatsuki yune_(ikoku_meiro_no_croisee).jpg",0,0
Video,-700,"ed.flv"
//Break Periods
//Storyboard Layer 0 (Background)
//Storyboard Layer 1 (Fail)
//Storyboard Layer 2 (Pass)
//Storyboard Layer 3 (Foreground)
//Storyboard Sound Samples
//Background Colour Transformations
3,100,163,162,255

[TimingPoints]
569,400,4,2,1,20,1,8
2169,-100,4,2,1,20,0,8
46169,-66.6666666666667,4,2,1,30,0,0
50169,-66.6666666666667,4,2,1,30,0,1
61902,-66.6666666666667,4,2,1,30,0,0
62968,-66.6666666666667,4,2,1,30,0,1
75502,-66.6666666666667,4,2,1,30,0,0

[Colours]
Combo1 : 221,227,183
Combo2 : 159,149,174
Combo3 : 254,243,177
Combo4 : 253,226,245

[HitObjects]
256,192,5369,12,2,6969,0:0:0:0:
56,120,8569,6,0,P|124:88|192:152,1,180,2|0,0:0|0:0,0:0:0:0:
96,272,9769,1,0,0:0:0:0:
40,208,9969,1,0,0:0:0:0:
120,164,10169,2,0,P|188:224|260:192,1,180,2|0,0:0|0:0,0:0:0:0:
68,296,11769,6,0,P|108:308|156:296,1,90,2|0,0:0|0:0,0:0:0:0:
192,280,12369,2,0,P|256:264|320:284,1,135
448,112,13369,2,0,P|408:124|360:112,1,90,2|0,0:0|0:0,0:0:0:0:
328,96,13969,2,0,P|264:80|200:100,1,135
272,216,14969,6,0,P|292:252|328:284,2,90,2|0|2,0:0|0:0|0:0,0:0:0:0:
368,164,16169,2,0,P|404:196|448:212,1,90,0|2,0:0|0:0,0:0:0:0:
452,116,16969,1,0,0:0:0:0:
368,48,17369,2,0,L|440:24,2,45
264,76,18169,5,2,0:0:0:0:
208,120,18419,1,2,0:0:0:0:
256,172,18669,1,2,0:0:0:0:
312,128,18969,1,2,0:0:0:0:
312,128,19235,2,0,L|328:160,1,30
372,244,19769,2,0,P|296:260|192:252,1,180,2|0,0:0|0:0,0:0:0:0:
96,104,20969,5,0,0:0:0:0:
208,112,21369,2,0,P|260:104|300:80,2,90,2|0|2,0:0|0:0|0:0,0:0:0:0:
224,208,22569,1,2,0:0:0:0:
184,200,22769,1,0,0:0:0:0:
224,208,22969,2,0,P|292:204|316:196,3,90,2|0|2|2,0:0|0:0|0:0|0:0,0:0:0:0:
208,288,24569,6,0,P|168:308|124:316,1,89.9999999999999,2|0,0:0|0:0,0:0:0:0:
84,316,25169,1,0,0:0:0:0:
124,316,25369,2,0,P|84:316|36:300,1,89.9999999999999,2|0,0:0|0:0,0:0:0:0:
212,92,26169,6,0,P|252:72|296:64,1,89.9999999999999,2|0,0:0|0:0,0:0:0:0:
336,64,26769,1,0,0:0:0:0:
296,64,26969,2,0,P|336:64|384:80,1,89.9999999999999,2|0,0:0|0:0,0:0:0:0:
440,256,27769,6,0,P|396:260|344:292,2,90,2|2|2,0:0|0:0|0:0,0:0:0:0:
344,180,28969,2,0,L|256:200,1,90,0|2,0:0|0:0,0:0:0:0:
168,104,29769,2,0,L|256:124,1,90,2|0,0:0|0:0,0:0:0:0:
344,28,30569,2,0,L|256:48,1,90,2|2,0:0|0:0,0:0:0:0:
176,72,31169,5,2,0:0:0:0:
88,96,31369,1,0,0:0:0:0:
248,136,31569,1,2,0:0:0:0:
168,152,31969,1,2,0:0:0:0:
160,192,32169,1,2,0:0:0:0:
152,224,32369,1,0,0:0:0:0:
144,256,32569,1,2,0:0:0:0:
256,256,32969,1,2,0:0:0:0:
120,216,33369,1,2,0:0:0:0:
220,244,33769,6,0,P|232:200|256:160,1,90,2|2,0:0|0:0,0:0:0:0:
288,136,34369,1,2,0:0:0:0:
304,184,34569,2,0,P|292:228|268:268,1,90,2|2,0:0|0:0,0:0:0:0:
368,264,35369,1,2,0:0:0:0:
368,224,35569,1,2,0:0:0:0:
408,216,35769,2,0,L|428:264,1,45,2|0,0:0|0:0,0:0:0:0:
456,208,36169,2,0,P|472:248|472:304,1,89.9999999999999,2|2,0:0|0:0,0:0:0:0:
368,264,36969,6,0,L|248:300,1,90,0|2,0:0|0:0,0:0:0:0:
232,300,37569,1,0,0:0:0:0:
256,252,37769,1,2,0:0:0:0:
176,176,38169,2,0,L|120:196,2,60
256,192,38969,2,0,P|232:232|188:252,3,90,2|0|2|0,0:0|0:0|0:0|0:0,0:0:0:0:
168,256,40369,5,0,0:0:0:0:
80,232,40569,2,0,L|144:168,1,90,2|0,0:0|0:0,0:0:0:0:
320,192,41369,2,0,L|256:256,1,90,2|0,0:0|0:0,0:0:0:0:
256,104,42169,2,0,L|320:40,1,90,2|0,0:0|0:0,0:0:0:0:
352,8,42769,1,0,0:0:0:0:
344,144,42969,2,0,L|280:208,1,90,2|0,0:0|0:0,0:0:0:0:
224,272,43769,6,0,P|196:224|260:124,1,180,2|0,0:0|0:0,0:0:0:0:
280,208,44969,2,0,P|320:248|352:264,2,90,0|2|0,0:0|0:0|0:0,0:0:0:0:
264,296,46169,6,0,L|256:344,4,45.0000017166138,2|2|0|0|0,0:0|0:0|0:0|0:0|0:0,0:0:0:0:
280,208,46969,1,0,0:0:0:0:
384,128,47235,1,2,0:0:0:0:
352,264,47502,1,0,0:0:0:0:
304,128,47769,1,0,0:0:0:0:
416,208,48035,1,2,0:0:0:0:
360,312,48302,2,0,P|321:288|294:252,1,90,2|0,0:0|0:0,0:0:0:0:
416,208,48769,2,2,L|456:216,6,22.5000008583069
376,200,49369,5,0,0:0:0:0:
224,160,49635,1,0,0:0:0:0:
280,240,49902,2,2,L|288:216,3,22.5000008583069,2|0|2|2,0:0|0:0|0:0|0:0,0:0:0:0:
248,272,50169,6,0,P|240:318|208:352,1,90.0000034332276,2|0,0:0|0:0,0:0:0:0:
168,284,50702,1,0,0:0:0:0:
352,312,50969,2,0,P|396:319|438:335,2,90,8|0|0,0:0|0:0|0:0,0:0:0:0:
384,192,51769,2,0,P|425:208|470:215,2,90,2|2|2,0:0|0:0|0:0,0:0:0:0:
248,144,52569,5,8,0:0:0:0:
324,256,52835,1,0,0:0:0:0:
336,120,53102,1,0,0:0:0:0:
248,224,53369,2,0,P|196:220|152:200,1,90
80,88,53902,5,0,0:0:0:0:
84,228,54169,1,0,0:0:0:0:
160,120,54435,1,8,0:0:0:0:
32,160,54702,1,0,0:0:0:0:
161,205,54969,2,0,P|203:221|248:224,2,90,0|2|0,0:0|0:0|0:0,0:0:0:0:
80,88,55769,1,10,0:0:0:0:
208,128,56035,5,0,0:0:0:0:
168,40,56302,1,2,0:0:0:0:
120,112,56569,2,0,P|76:96|24:88,1,90,2|2,0:0|0:0,0:0:0:0:
256,64,57102,2,0,P|300:80|352:88,1,90,2|8,0:0|0:0,0:0:0:0:
208,128,57635,1,0,0:0:0:0:
168,40,57902,1,0,0:0:0:0:
120,112,58169,2,0,P|72:120|24:108,2,90.0000034332276,2|2|2,0:0|0:0|0:0,0:0:0:0:
240,160,58969,1,8,0:0:0:0:
156,264,59235,5,0,0:0:0:0:
288,244,59502,1,0,0:0:0:0:
164,188,59769,2,0,L|72:172,1,90,2|0,0:0|0:0,0:0:0:0:
252,112,60302,2,0,L|163:96,1,90,0|10,0:0|0:0,0:0:0:0:
344,48,60835,5,2,0:0:0:0:
392,128,61102,1,0,0:0:0:0:
344,216,61369,1,2,0:0:0:0:
376,312,61635,2,0,P|416:284|440:244,1,90
480,120,62169,5,8,0:0:0:0:
344,216,62435,1,0,0:0:0:0:
192,128,62702,2,2,L|168:136,3,22.5000008583069,2|0|2|2,0:0|0:0|0:0|0:0,0:0:0:0:
144,144,62969,2,0,P|188:156|228:180,1,90,2|0,0:0|0:0,0:0:0:0:
328,256,63502,5,0,0:0:0:0:
328,256,63769,2,0,P|368:272|416:280,1,90,8|0,0:0|0:0,0:0:0:0:
400,176,64302,1,0,0:0:0:0:
328,256,64569,2,0,P|312:296|304:344,1,90,2|2,0:0|0:0,0:0:0:0:
416,328,65102,1,2,0:0:0:0:
400,176,65369,5,10,0:0:0:0:
248,184,65635,1,0,0:0:0:0:
264,336,65902,1,0,0:0:0:0:
328,256,66169,2,0,P|288:240|232:240,1,90.0000034332276,2|0,0:0|0:0,0:0:0:0:
128,280,66702,5,0,0:0:0:0:
0,248,66969,1,8,0:0:0:0:
120,200,67235,1,0,0:0:0:0:
56,312,67502,1,0,0:0:0:0:
40,176,67769,1,0,0:0:0:0:
116,76,68035,5,2,0:0:0:0:
124,108,68169,1,0,0:0:0:0:
132,140,68302,1,2,0:0:0:0:
140,168,68435,1,0,0:0:0:0:
148,196,68569,1,10,0:0:0:0:
80,248,68835,5,0,0:0:0:0:
232,140,69102,1,0,0:0:0:0:
162,180,69369,2,0,P|117:176|76:160,1,90,2|2,0:0|0:0,0:0:0:0:
237,219,69902,2,0,P|282:223|324:240,1,90,2|8,0:0|0:0,0:0:0:0:
288,148,70435,5,0,0:0:0:0:
232,56,70702,1,0,0:0:0:0:
112,92,70969,2,0,P|64:88|24:60,2,90,2|2|2,0:0|0:0|0:0,0:0:0:0:
24,192,71769,1,10,0:0:0:0:
152,232,72035,5,0,0:0:0:0:
224,116,72302,1,0,0:0:0:0:
316,216,72569,2,0,L|228:192,1,90,2|0,0:0|0:0,0:0:0:0:
252,288,73102,2,0,L|164:264,1,90,2|10,0:0|0:0,0:0:0:0:
376,144,73635,2,0,L|288:120,1,90
404,240,74169,2,0,L|316:216,1,90,2|0,0:0|0:0,0:0:0:0:
344,52,74702,2,0,L|256:28,1,90,2|10,0:0|0:0,0:0:0:0:
320,160,75502,5,0,0:0:0:0:
224,128,75769,1,2,0:0:0:0:
224,128,76035,2,0,P|199:97|159:65,1,90
192,224,76569,1,8,0:0:0:0:
192,224,76835,2,0,P|161:248|129:288,1,90
292,260,77369,1,2,0:0:0:0:
292,260,77635,2,0,P|316:290|356:322,1,90
320,160,78169,1,8,0:0:0:0:
320,160,78435,2,0,P|350:135|382:95,1,90
256,192,78969,5,2,0:0:0:0:
76,156,79235,2,0,L|160:120,1,90
256,192,79769,1,10,0:0:0:0:
168,272,80035,2,0,L|250:307,1,90,2|2,0:0|0:0,0:0:0:0:
256,192,80569,1,2,0:0:0:0:
276,72,80835,2,0,L|360:36,1,90,2|2,0:0|0:0,0:0:0:0:
256,192,81369,1,10,0:0:0:0:
352,340,81635,2,8,L|396:356,3,45,8|0|8|0,0:0|0:0|0:0|0:0,0:0:0:0:
432,368,82169,6,0,P|412:300|472:208,1,180.000006866455,2|0,0:0|0:0,0:0:0:0:
508,304,82969,1,0,0:0:0:0:
360,128,83435,1,0,0:0:0:0:
360,128,83769,1,2,0:0:0:0:
152,256,84302,1,0,0:0:0:0:
256,192,84569,1,8,0:0:0:0:
132,144,84835,5,0,0:0:0:0:
256,88,85102,1,0,0:0:0:0:
380,144,85369,1,2,0:0:0:0:
292,244,85635,1,0,0:0:0:0:
424,220,85902,1,0,0:0:0:0:
300,168,86169,1,8,0:0:0:0:
368,284,86435,1,0,0:0:0:0:
224,288,86702,1,0,0:0:0:0:
292,244,86969,5,2,0:0:0:0:
248,104,87235,1,0,0:0:0:0:
168,224,87502,1,0,0:0:0:0:
300,168,87769,1,8,0:0:0:0:
176,144,88035,1,0,0:0:0:0:
264,32,88302,1,0,0:0:0:0:
248,104,88569,5,2,0:0:0:0:
368,80,88835,1,0,0:0:0:0:
336,216,89102,1,0,0:0:0:0:
320,144,89369,1,8,0:0:0:0:
280,272,89635,1,0,0:0:0:0:
408,248,89902,1,0,0:0:0:0:
336,216,90169,1,2,0:0:0:0:
