osu file format v12

[General]
AudioFilename: 1.mp3
AudioLeadIn: 3000
PreviewTime: 49359
Countdown: 0
SampleSet: Soft
StackLeniency: 0.7
Mode: 0
LetterboxInBreaks: 0

[Editor]
DistanceSpacing: 1.5
BeatDivisor: 3
GridSize: 4

[Metadata]
Title:Koko Kara Hajimaru Monogatari (TV Size)
TitleUnicode:ここからはじまる物語 (TV Size)
Artist:Touyama Nao
ArtistUnicode:東山 奈央
Creator:HeatKai
Version:Hard
Source:Ikoku Meiro no Croisée
Tags:ending matsuura misuo yamaguchi minako byakugan249 Croisee
BeatmapID:238431
BeatmapSetID:87264

[Difficulty]
HPDrainRate:5
CircleSize:4
OverallDifficulty:6
ApproachRate:6
SliderMultiplier:1.6
SliderTickRate:1

[Events]
//Background and Video events
0,0,"bg.png",0,0
//Break Periods
//Storyboard Layer 0 (Background)
//Storyboard Layer 1 (Fail)
//Storyboard Layer 2 (Pass)
//Storyboard Layer 3 (Foreground)
//Storyboard Sound Samples
//Background Colour Transformations
3,100,163,162,255

[TimingPoints]
560,810.810810810811,4,2,1,45,1,0
3762,800,4,2,1,45,1,0
8569,800,4,2,1,45,1,0
21360,800,4,2,1,45,1,0
34148,-100,4,2,1,55,0,0
47226,-100,4,2,1,25,0,0
47493,-100,4,2,1,15,0,0
47760,-100,4,2,1,25,0,0
48026,-100,4,2,1,35,0,0
48293,-100,4,2,1,45,0,0
48560,-100,4,2,1,55,0,0
49360,-100,4,2,1,55,0,0
50160,-100,4,2,2,45,0,1
50360,-100,4,2,2,65,0,1
62760,-100,4,2,1,65,0,0
62960,-100,4,2,2,45,0,1
63160,-100,4,2,2,65,0,1
82160,-100,4,2,2,55,0,0
86160,-100,4,2,1,75,0,0
90160,-100,4,2,2,25,0,0

[Colours]
Combo1 : 255,128,192
Combo2 : 0,255,255

[HitObjects]
160,40,560,1,0,1:2:0:0:
124,112,965,1,0,1:0:0:0:
108,192,1370,1,2,0:0:0:0:
124,272,1776,1,0,0:0:0:0:
160,344,2181,1,0,0:2:0:0:
460,112,3762,5,0,1:0:0:0:
432,84,3962,1,0,0:0:0:0:
396,64,4162,1,0,1:0:0:0:
360,56,4362,1,0,0:0:0:0:
320,56,4562,2,0,P|272:56|224:80,1,80,2|0,0:0|0:0,0:0:0:0:
184,120,5362,6,0,B|208:208|128:264|128:264|224:256|272:344,1,320,0|2,0:0|0:0,0:0:0:0:
440,64,8569,6,0,P|508:108|516:192,1,160,0|2,1:0|0:0,0:0:0:0:
256,120,9769,1,0,0:0:0:0:
232,64,9969,1,0,0:0:0:0:
192,24,10169,2,0,P|104:32|32:80,1,160,0|2,1:2|0:0,0:0:0:0:
72,304,11769,6,0,P|104:328|152:344,1,80,0|0,1:2|1:0,0:0:0:0:
200,320,12369,1,2,0:0:0:0:
312,320,12769,1,0,0:0:0:0:
370,341,12969,2,0,P|408:328|440:304,1,80,0|0,1:2|1:0,0:0:0:0:
424,168,13769,1,0,1:0:0:0:
408,112,13969,2,0,P|384:64|320:40,1,120,2|0,0:0|0:0,0:0:0:0:
280,152,14969,5,0,1:2:0:0:
168,192,15369,1,0,1:0:0:0:
56,152,15769,1,2,0:0:0:0:
112,48,16169,2,0,P|160:120|168:200,1,160,0|0,0:0|1:0,0:0:0:0:
128,304,17369,5,2,0:0:0:0:
172,328,17569,1,0,0:0:0:0:
220,352,17769,1,0,0:0:0:0:
280,248,18169,6,0,L|336:208,1,53.3333333333333,0|0,1:0|0:0,0:0:0:0:
384,160,18702,1,0,0:0:0:0:
456,128,18969,2,0,L|504:128,2,40,2|0|0,0:0|0:0|1:0,0:0:0:0:
368,48,19769,6,0,L|184:48,1,160,0|2,1:0|0:0,0:0:0:0:
112,112,20969,1,0,0:0:0:0:
48,216,21360,6,0,L|48:376,1,160,0|2,1:0|0:0,0:0:0:0:
136,296,22560,2,0,L|136:232,1,40
136,200,22960,1,0,1:0:0:0:
184,88,23360,5,0,0:0:0:0:
244,176,23760,1,2,0:0:0:0:
304,260,24160,1,0,0:0:0:0:
380,188,24560,5,0,1:0:0:0:
440,104,24960,2,0,L|464:136,1,40
496,192,25360,1,2,0:0:0:0:
448,296,25760,1,0,0:0:0:0:
72,104,26160,6,0,L|48:136,1,40,0|0,1:0|0:0,0:0:0:0:
16,192,26560,1,0,0:0:0:0:
60,288,26960,1,2,0:0:0:0:
152,352,27360,1,0,0:0:0:0:
256,384,27760,5,0,1:0:0:0:
408,328,28160,1,0,0:0:0:0:
496,192,28560,1,2,0:0:0:0:
408,56,28960,1,0,0:0:0:0:
256,16,29360,1,0,1:0:0:0:
104,56,29760,1,0,0:0:0:0:
8,192,30160,1,2,0:0:0:0:
128,192,30560,1,0,0:0:0:0:
240,232,30960,6,0,L|296:232,1,40,0|0,1:0|0:0,0:0:0:0:
280,136,31360,2,0,L|240:136,1,40,0|0,1:0|0:0,0:0:0:0:
342,182,31760,1,2,0:0:0:0:
344,276,31960,6,0,L|382:295,1,40,0|0,1:0|1:0,0:0:0:0:
376,68,32360,2,0,L|332:99,1,40,0|0,0:0|1:0,0:0:0:0:
342,181,32760,1,0,0:0:0:0:
385,182,32960,1,0,0:0:0:0:
488,128,33360,5,2,0:0:0:0:
488,248,33760,1,0,0:0:0:0:
385,183,34160,2,0,L|225:183,1,160,8|2,0:0|0:0,0:0:0:0:
256,304,35360,5,0,1:0:0:0:
312,288,35560,1,0,1:0:0:0:
360,252,35760,2,0,P|392:180|358:111,1,160,8|2,0:0|0:0,0:0:0:0:
256,192,36960,5,0,1:0:0:0:
160,264,37360,2,0,P|112:224|96:192,1,80,8|0,0:0|0:0,0:0:0:0:
48,104,38160,2,0,L|112:72,1,53.3333333333333,2|0,0:0|0:0,0:0:0:0:
160,52,38693,1,0,0:0:0:0:
228,36,38960,2,0,P|280:88|224:136,1,160,8|2,0:0|0:0,0:0:0:0:
256,240,40160,5,0,1:0:0:0:
232,296,40360,1,0,1:0:0:0:
256,352,40560,2,0,P|340:360|416:352,1,160,8|2,0:0|0:0,0:0:0:0:
416,232,41760,1,0,1:0:0:0:
400,176,41960,1,0,1:0:0:0:
384,120,42160,6,0,P|304:112|224:120,1,160,8|2,0:0|0:0,0:0:0:0:
112,88,43360,1,0,1:0:0:0:
56,108,43560,1,0,1:0:0:0:
16,152,43760,2,0,P|-16:220|40:320,1,160,8|2,0:0|0:0,0:0:0:0:
108,228,44960,1,0,1:0:0:0:
256,192,45360,12,8,46960,0:0:0:0:
48,176,47226,6,0,L|96:128,1,53.3333333333333,0|0,1:0|1:0,0:0:0:0:
144,88,47760,2,0,L|196:144,1,53.3333333333333,2|0,0:0|1:0,0:0:0:0:
232,192,48293,1,0,1:0:0:0:
216,272,48560,2,0,P|288:256|304:160,1,160,8|2,0:0|0:0,0:0:0:0:
312,100,49626,5,0,0:0:0:0:
392,100,49893,1,0,0:0:0:0:
392,180,50160,2,0,P|408:252|483:276,1,160,2|4,0:0|0:0,0:0:0:0:
470,116,51493,5,4,0:0:0:0:
391,100,51760,2,0,P|344:120|320:224,1,160,2|4,0:0|0:0,0:0:0:0:
256,272,52826,2,0,L|200:224,1,53.3333333333333,4|0,0:0|0:0,0:0:0:0:
120,80,53360,6,0,P|144:160|216:144,1,160,2|4,0:0|0:0,0:0:0:0:
256,88,54426,2,0,L|304:120,1,53.3333333333333,0|4,0:0|0:0,0:0:0:0:
376,88,54960,2,0,P|416:160|372:212,1,160,2|4,0:0|0:0,0:0:0:0:
300,248,56026,5,4,0:0:0:0:
216,248,56293,1,0,0:0:0:0:
144,208,56560,2,0,P|96:161|128:97,1,106.666666666667,2|0,0:0|0:0,0:0:0:0:
144,56,57360,1,4,0:0:0:0:
200,112,57626,1,0,0:0:0:0:
256,56,57893,1,4,0:0:0:0:
312,112,58160,6,0,L|472:112,1,160,2|4,0:0|0:0,0:0:0:0:
448,40,59226,2,0,L|384:40,1,53.3333333333333,4|0,0:0|0:0,0:0:0:0:
320,184,59760,2,0,L|480:184,1,160,2|4,0:0|0:0,0:0:0:0:
464,112,60826,2,0,L|400:112,1,53.3333333333333,0|4,0:0|0:0,0:0:0:0:
336,256,61360,2,0,L|496:256,1,160,2|4,0:0|0:0,0:0:0:0:
448,328,62426,5,4,0:0:0:0:
368,176,62693,1,4,0:0:0:0:
256,48,62960,6,0,P|184:64|128:128,1,160,2|12,0:0|0:0,0:0:0:0:
256,224,64293,1,0,0:0:0:0:
312,280,64560,2,0,P|384:264|439:201,1,160,2|12,0:0|0:0,0:0:0:0:
400,128,65626,6,0,L|352:88,1,53.3333333333333,4|0,0:0|0:0,0:0:0:0:
280,64,66160,2,0,P|224:72|184:144,1,106.666666666667,2|0,0:0|0:0,0:0:0:0:
136,176,66960,2,0,P|105:178|80:184,1,53.3333333333333,12|0,0:0|0:0,0:0:0:0:
64,264,67493,1,4,0:0:0:0:
40,340,67760,2,0,P|128:312|140:240,1,160,2|12,0:0|0:0,0:0:0:0:
136,176,68826,5,12,0:0:0:0:
184,112,69093,1,4,0:0:0:0:
248,64,69360,2,0,P|304:48|368:64,1,106.666666666667,2|0,0:0|0:0,0:0:0:0:
416,96,70160,1,12,0:0:0:0:
472,152,70426,2,0,P|474:180|472:208,1,53.3333333333333,0|4,0:0|0:0,0:0:0:0:
464,288,70960,2,0,P|392:320|312:288,1,160,2|12,0:0|0:0,0:0:0:0:
304,216,72026,5,12,0:0:0:0:
240,272,72293,1,4,0:0:0:0:
224,192,72560,2,0,L|112:72,1,160,2|12,0:0|0:0,0:0:0:0:
192,48,73626,2,0,L|235:94,1,53.3333333333333,0|4,0:0|0:0,0:0:0:0:
160,264,74160,2,0,L|48:144,1,160,2|12,0:0|0:0,0:0:0:0:
32,256,75226,1,12,0:0:0:0:
88,312,75493,5,4,0:0:0:0:
144,368,75760,2,0,P|216:352|264:272,1,160,2|12,0:0|0:0,0:0:0:0:
360,64,77360,2,0,P|432:96|464:192,1,160,2|12,0:0|0:0,0:0:0:0:
224,160,78960,6,0,P|152:128|112:40,1,160,2|12,0:0|0:0,0:0:0:0:
72,216,80293,1,0,0:0:0:0:
72,216,80560,2,0,P|160:264|192:336,1,160,2|12,0:0|0:0,0:0:0:0:
256,352,81626,1,12,0:0:0:0:
256,88,82160,6,0,L|376:88,1,106.666666666667,0|0,1:0|0:0,0:0:0:0:
442,88,82960,1,2,0:0:0:0:
304,168,83493,1,0,0:0:0:0:
224,168,83760,2,0,L|112:168,1,106.666666666667,0|0,1:0|0:0,0:0:0:0:
37,168,84560,1,2,0:0:0:0:
72,240,84826,6,0,L|96:288,1,53.3333333333333,2|0,0:0|0:0,0:0:0:0:
132,360,85360,1,4,1:0:0:0:
256,192,85560,12,14,90160,0:0:0:0:
