osu file format v12

[General]
AudioFilename: Koi ni Ochita Santa.mp3
AudioLeadIn: 0
PreviewTime: 7953
Countdown: 0
SampleSet: Soft
StackLeniency: 0.5
Mode: 0
LetterboxInBreaks: 1
WidescreenStoryboard: 0

[Editor]
DistanceSpacing: 1.25
BeatDivisor: 3
GridSize: 4

[Metadata]
Title:Koi ni Ochita Santa
TitleUnicode:恋に落ちたサンタ
Artist:Touyama Nao
ArtistUnicode:東山 奈央
Creator:DJPop
Version:Normal
Source:Kami Nomi zo Shiru Sekai
Tags:The World God Only Knows Nakagawa Kanon Christmas Xmas
BeatmapID:331707
BeatmapSetID:131770

[Difficulty]
HPDrainRate:3
CircleSize:3
OverallDifficulty:3
ApproachRate:4
SliderMultiplier:0.64
SliderTickRate:1

[Events]
//Background and Video events
0,0,"BG.jpg",0,0
//Break Periods
2,87879,99048
//Storyboard Layer 0 (Background)
//Storyboard Layer 1 (Fail)
//Storyboard Layer 2 (Pass)
//Storyboard Layer 3 (Foreground)
//Storyboard Sound Samples
//Background Colour Transformations
3,100,254,115,173

[TimingPoints]
2199,410.958904109589,4,2,2,75,1,0
4939,-100,4,2,3,75,0,0
5761,-100,4,1,2,75,0,0
6035,-100,4,2,3,75,0,0
8638,-100,4,2,2,75,0,0
9049,-100,4,1,2,75,0,0
9460,-100,4,2,2,5,0,0
9871,-100,4,2,2,75,0,0
13158,-100,4,1,2,75,0,0
13432,-100,4,2,2,75,0,0
13980,-100,4,1,2,75,0,0
14254,-100,4,2,2,75,0,0
15624,-100,4,1,2,75,0,0
16035,-100,4,2,2,5,0,0
16446,-100,4,2,2,75,0,0
19323,-100,4,2,2,5,0,0
19597,-100,4,2,2,75,0,0
20145,-100,4,2,2,5,0,0
20419,-100,4,2,2,75,0,0
22199,-100,4,1,2,75,0,0
22473,-100,4,2,2,75,0,0
23432,-100,4,2,2,5,0,0
23706,-100,4,2,2,75,0,0
24254,-100,4,2,2,5,0,0
24528,-100,4,2,2,75,0,0
25487,-100,4,1,2,75,0,0
25898,-100,4,2,2,5,0,0
26309,-100,4,2,2,75,0,0
28775,-100,4,1,2,75,0,0
29049,-100,4,2,2,75,0,0
32063,-100,4,1,1,75,0,0
32884,-100,4,2,2,5,0,0
33158,-100,4,2,1,75,0,0
35350,-100,4,1,1,75,0,0
35761,-100,4,2,1,75,0,0
36172,-100,4,1,1,75,0,0
36583,-100,4,2,1,75,0,0
38638,-100,4,1,1,75,0,0
39049,-100,4,2,1,75,0,0
39460,-100,4,1,1,75,0,0
39871,-100,4,2,1,75,0,0
41925,-100,4,1,1,75,0,0
42199,-100,4,2,1,75,0,0
43569,-100,4,1,1,75,0,0
43843,-100,4,2,1,75,0,0
45213,-100,4,1,1,75,0,0
46035,-100,4,1,3,75,0,0
46446,-100,4,2,5,75,0,0
46857,-100,4,2,1,75,0,0
47268,-100,4,2,4,75,0,0
47679,-100,4,2,5,75,0,0
48501,-100,4,2,1,75,0,0
50556,-100,4,2,1,5,0,0
50829,-100,4,2,1,75,0,0
53843,-100,4,2,1,5,0,0
54117,-100,4,2,1,75,0,0
58363,-100,4,1,5,75,0,0
58774,-100,4,1,4,75,0,0
59185,-100,4,2,1,75,0,0
60145,-100,4,2,1,75,0,1
62062,-100,4,2,1,5,0,1
62336,-100,4,2,1,75,0,1
63706,-100,4,2,1,5,0,1
63980,-100,4,2,1,75,0,1
64938,-100,4,1,1,75,0,1
65349,-100,4,2,1,75,0,1
65760,-100,4,1,1,75,0,1
66171,-100,4,2,1,75,0,1
66582,-100,4,1,1,75,0,1
66993,-100,4,2,1,75,0,1
68637,-100,4,2,1,5,0,1
68911,-100,4,2,1,75,0,1
70281,-100,4,2,1,5,0,1
70555,-100,4,2,1,75,0,1
71514,-100,4,1,1,75,0,1
71925,-100,4,2,1,75,0,1
72746,-100,4,2,1,5,0,1
73020,-100,4,2,1,75,0,1
73980,-100,4,2,4,75,0,1
74391,-100,4,2,1,75,0,1
74802,-100,4,1,1,75,0,1
75076,-100,4,2,1,75,0,1
76035,-100,4,2,1,5,0,1
76309,-100,4,2,1,75,0,1
76857,-100,4,2,1,5,0,1
77131,-100,4,2,1,75,0,1
78090,-100,4,1,1,75,0,1
78501,-100,4,2,1,5,0,1
78912,-100,4,2,1,75,0,1
83843,-100,4,1,1,75,0,1
84117,-100,4,2,1,75,0,1
87678,-100,4,2,1,75,0,0
101103,-100,4,1,1,75,0,0
101377,-100,4,2,1,75,0,0
102747,-100,4,1,1,75,0,0
103021,-100,4,2,1,75,0,0
104801,-100,4,2,1,5,0,0
105075,-100,4,2,1,75,0,0
106309,-100,4,1,1,50,0,0
106720,-100,4,2,1,75,0,0
108090,-100,4,2,1,5,0,0
108364,-100,4,2,1,75,0,0
109734,-100,4,2,1,5,0,0
110145,-100,4,1,1,75,0,0
110419,-100,4,2,1,75,0,0
111240,-100,4,1,1,75,0,0
111652,-100,4,2,5,75,0,0
112063,-100,4,2,1,75,0,0
113021,-100,4,2,4,75,0,0
113432,-100,4,2,5,75,0,0
113843,-100,4,2,1,75,0,0
114254,-100,4,1,1,75,0,0
114528,-100,4,2,1,75,0,0
115076,-100,4,1,1,75,0,0
115350,-100,4,2,1,75,0,0
117542,-100,4,1,1,75,0,0
117816,-100,4,2,1,75,0,0
118364,-100,4,1,1,75,0,0
118638,-100,4,2,1,75,0,0
120829,-100,4,1,1,75,0,0
121103,-100,4,2,1,75,0,0
122473,-100,4,1,1,75,0,0
122747,-100,4,2,1,75,0,0
124117,-100,4,1,1,75,0,0
124939,-100,4,1,4,75,0,0
125350,-100,4,2,5,75,0,0
125761,-100,4,2,1,75,0,0
126172,-100,4,2,4,75,0,0
126583,-100,4,2,5,75,0,0
127405,-100,4,2,1,75,0,0
129460,-100,4,2,1,5,0,0
129734,-100,4,2,1,75,0,0
132747,-100,4,2,1,5,0,0
133021,-100,4,2,1,75,0,0
137267,-100,4,1,5,75,0,0
137678,-100,4,1,4,75,0,0
138089,-100,4,2,1,75,0,0
138501,-100,4,2,1,75,0,0
139049,-100,4,2,1,75,0,1
140966,-100,4,2,1,5,0,1
141240,-100,4,2,1,75,0,1
141788,-100,4,2,1,5,0,1
142062,-100,4,2,1,75,0,1
143021,-100,4,1,1,75,0,1
143295,-100,4,2,1,75,0,1
144117,-100,4,2,1,5,0,1
144323,-100,4,2,1,75,0,1
145487,-100,4,1,1,75,0,1
145761,-100,4,2,1,5,0,1
146309,-100,4,2,1,75,0,1
147542,-100,4,2,1,5,0,1
147816,-100,4,2,1,75,0,1
149186,-100,4,2,1,5,0,1
149460,-100,4,2,1,75,0,1
150692,-100,4,2,1,5,0,1
150898,-100,4,2,1,75,0,1
153295,-100,4,2,1,75,0,1
153706,-100,4,1,1,75,0,1
153980,-100,4,2,1,75,0,1
154939,-100,4,2,1,5,0,1
155213,-100,4,2,1,75,0,1
155761,-100,4,2,1,5,0,1
156035,-100,4,2,1,75,0,1
156994,-100,4,1,1,75,0,1
157405,-100,4,2,1,5,0,1
157816,-100,4,2,1,75,0,1
162747,-100,4,1,1,75,0,1
163021,-100,4,2,1,75,0,1
165212,-100,4,2,1,5,0,1
165486,-100,4,2,1,75,0,1
166446,-100,4,2,1,75,0,1
168500,-100,4,1,1,75,0,1
168912,-100,4,1,3,75,0,1
169323,-100,4,2,5,75,0,1
169734,-100,4,2,1,75,0,1
170145,-100,4,2,1,5,0,1
170966,-100,4,2,1,75,0,1
176583,-100,4,2,4,75,0,1
176994,-100,4,2,1,75,0,1
177267,-100,4,2,1,75,0,0

[Colours]
Combo1 : 255,255,255
Combo2 : 32,192,32
Combo3 : 64,255,255
Combo4 : 255,32,32
SliderBorder : 0,0,0

[HitObjects]
416,192,2610,5,8,0:0:0:0:
336,52,3432,1,8,0:0:0:0:
176,52,4254,1,8,0:0:0:0:
96,192,5076,1,10,0:0:0:0:
144,256,5487,6,0,P|191:295|252:284,1,128,12|12,0:0|0:0,0:0:0:0:
376,232,6994,1,12,0:0:0:0:
48,144,8775,6,0,P|108:72|200:56,1,192,4|8,0:0|0:0,0:0:0:0:
348,120,10829,1,8,0:0:0:0:
200,180,11651,1,8,0:0:0:0:
348,240,12473,5,8,0:0:0:0:
408,188,12884,2,0,P|448:140|456:78,2,128
272,272,15350,6,0,P|186:308|100:272,1,192,0|8,0:0|0:0,0:0:0:0:
48,120,17405,1,8,0:0:0:0:
200,168,18227,1,8,0:0:0:0:
336,84,19049,6,0,P|389:51|451:52,2,128,8|8|8,0:0|0:0|0:0,0:0:0:0:
432,212,21514,1,8,0:0:0:0:
372,264,21925,6,0,P|318:296|256:295,1,128
180,268,23157,2,0,P|116:265|63:298,2,128,8|8|8,0:0|0:0|0:0,0:0:0:0:
240,216,25213,6,0,P|223:123|152:63,1,192,0|8,0:0|0:0,0:0:0:0:
120,136,26857,2,0,L|104:176,3,42.6666666666667,2|2|2|2,0:0|0:0|0:0|0:0,0:0:0:0:
196,308,28501,6,0,P|256:326|316:308,1,128
384,265,29734,1,8,0:0:0:0:
416,192,30145,1,0,0:0:0:0:
256,192,30966,1,4,0:0:0:0:
144,80,31788,6,0,P|256:51|368:80,1,234.666666666667,4|12,0:0|0:0,0:0:0:0:
332,332,35076,6,0,P|394:333|447:300,2,128,4|0|0,0:0|0:0|0:0,0:0:0:0:
256,192,37542,1,0,0:0:0:0:
222,264,37953,1,8,0:0:0:0:
180,332,38363,6,0,P|117:333|64:300,2,128
324,260,40829,1,0,0:0:0:0:
348,184,41240,1,8,0:0:0:0:
424,160,41652,6,0,P|456:106|455:44,1,128
296,44,43294,2,0,P|263:97|264:159,1,128
288,240,44528,1,8,0:0:0:0:
224,288,44939,6,0,P|105:301|57:192,1,256,0|8,0:0|0:0,0:0:0:0:
84,116,46994,2,0,P|93:84|93:54,2,64,12|8|8,0:0|0:0|0:0,0:0:0:0:
224,192,48638,5,14,0:0:0:0:
288,336,49460,1,8,0:0:0:0:
420,248,50282,2,0,P|446:192|420:136,1,128,8|8,0:0|0:0,0:0:0:0:
288,48,51925,5,8,0:0:0:0:
128,48,52747,1,8,0:0:0:0:
56,192,53569,2,0,P|61:253|111:288,1,128,8|8,0:0|0:0,0:0:0:0:
212,164,55213,5,12,0:0:0:0:
280,308,56035,1,8,0:0:0:0:
348,164,56857,1,12,0:0:0:0:
416,308,57679,1,8,0:0:0:0:
456,240,58089,6,0,P|459:146|401:72,1,192,0|10,0:0|0:0,0:0:0:0:
324,48,59734,1,10,0:0:0:0:
48,248,61378,5,4,0:0:0:0:
104,191,61788,2,2,P|160:165|215:190,1,128,8|8,0:0|0:0,0:0:0:0:
272,248,63021,1,0,0:0:0:0:
327,303,63431,2,0,P|383:329|439:303,1,128,8|8,0:0|0:0,0:0:0:0:
384,244,64664,2,0,P|405:186|463:164,3,128
442,87,67541,1,12,0:0:0:0:
372,48,67953,5,4,0:0:0:0:
308,96,68363,2,2,P|245:88|197:47,1,128,8|8,0:0|0:0,0:0:0:0:
116,48,69597,1,0,0:0:0:0:
152,120,70008,2,0,P|137:180|91:223,1,128,8|8,0:0|0:0,0:0:0:0:
144,284,71240,2,0,P|197:317|260:315,1,128
332,280,72472,2,0,P|374:248|404:205,1,106.666666666667,8|8,0:0|0:0,0:0:0:0:
344,116,73705,1,8,0:0:0:0:
266,96,74117,1,8,0:0:0:0:
188,76,74528,6,0,P|125:77|73:113,1,128,4|0,0:0|0:0,0:0:0:0:
48,192,75761,2,0,L|176:192,2,128,8|8|8,0:0|0:0|0:0,0:0:0:0:
74,269,77816,6,0,P|150:322|244:314,1,192,0|8,0:0|0:0,0:0:0:0:
314,273,79460,1,0,0:0:0:0:
408,144,80282,5,0,0:0:0:0:
416,64,80692,1,8,0:0:0:0:
336,48,81103,1,4,0:0:0:0:
176,48,81925,1,0,0:0:0:0:
96,64,82336,1,8,0:0:0:0:
104,144,82747,1,4,0:0:0:0:
196,276,83569,6,0,P|256:294|316:276,1,128,0|4,0:0|0:0,0:0:0:0:
256,192,84528,12,4,87679,0:0:0:0:
316,72,100829,6,0,P|256:54|196:72,1,128,4|0,0:0|0:0,0:0:0:0:
136,124,102062,1,8,0:0:0:0:
122,200,102472,2,0,P|136:261|182:303,1,128
257,329,103705,1,8,0:0:0:0:
333,316,104117,5,0,0:0:0:0:
376,252,104527,2,0,P|394:192|376:132,1,128,8|8,0:0|0:0,0:0:0:0:
256,64,106035,2,0,L|256:192,1,128,0|14,0:0|0:0,0:0:0:0:
256,300,107405,5,6,0:0:0:0:
186,336,107816,2,0,P|125:346|77:307,1,128,8|8,0:0|0:0,0:0:0:0:
48,232,109049,1,0,0:0:0:0:
80,160,109460,2,0,P|135:96|216:80,1,170.666666666667,8|10,0:0|0:0,0:0:0:0:
296,80,110966,6,0,P|364:92|409:127,1,128,2|14,0:0|0:0,0:0:0:0:
456,192,112199,1,14,0:0:0:0:
336,336,113158,1,8,0:0:0:0:
256,336,113569,1,8,0:0:0:0:
176,336,113980,6,0,P|115:321|72:276,2,128,4|0|0,0:0|0:0|0:0,0:0:0:0:
176,176,116445,1,0,0:0:0:0:
256,176,116856,1,8,0:0:0:0:
336,176,117267,6,0,P|396:190|439:236,2,128,0|0|0,0:0|0:0|0:0,0:0:0:0:
240,48,119734,1,0,0:0:0:0:
164,72,120145,1,8,0:0:0:0:
108,128,120556,6,0,P|75:181|76:243,1,128
208,336,122199,2,0,P|240:282|239:220,1,128
212,144,123432,1,8,0:0:0:0:
272,92,123843,6,0,P|390:78|438:187,1,256,0|8,0:0|0:0,0:0:0:0:
412,264,125897,2,0,P|403:296|403:326,2,64,12|8|8,0:0|0:0|0:0,0:0:0:0:
256,192,127542,5,12,0:0:0:0:
152,312,128364,1,8,0:0:0:0:
48,192,129186,2,0,P|72:134|125:100,1,128,8|8,0:0|0:0,0:0:0:0:
256,192,130829,5,8,0:0:0:0:
360,312,131651,1,8,0:0:0:0:
464,192,132473,2,0,P|439:134|386:100,1,128,8|8,0:0|0:0,0:0:0:0:
232,48,134117,5,12,0:0:0:0:
104,144,134939,1,8,0:0:0:0:
256,192,135761,1,12,0:0:0:0:
128,288,136583,1,8,0:0:0:0:
204,312,136993,6,0,P|298:327|392:312,1,192,0|10,0:0|0:0,0:0:0:0:
470,288,138638,1,10,0:0:0:0:
192,48,140282,5,4,0:0:0:0:
152,116,140692,2,0,P|89:99|58:47,2,128,8|8|8,0:0|0:0|0:0,0:0:0:0:
232,108,142747,2,0,P|282:118|312:160,1,106.666666666667
328,240,143843,2,0,P|318:280|288:309,1,85.3333333333333
212,336,144802,1,8,0:0:0:0:
152,284,145213,2,0,P|106:298|73:331,2,96,0|0|12,0:0|0:0|0:0,0:0:0:0:
228,256,146857,5,4,0:0:0:0:
252,180,147268,2,0,P|278:122|324:79,1,128,8|8,0:0|0:0,0:0:0:0:
400,48,148501,1,0,0:0:0:0:
448,112,148911,2,0,P|421:169|375:212,1,128,8|8,0:0|0:0,0:0:0:0:
256,272,150419,6,0,P|216:284|176:272,1,85.3333333333333
112,224,151377,1,8,0:0:0:0:
92,92,152062,2,0,P|75:68|48:48,2,64,8|0|12,0:0|0:0|0:0,0:0:0:0:
194,60,153431,6,0,P|256:48|318:60,1,128,4|0,0:0|0:0,0:0:0:0:
356,132,154664,2,0,P|413:110|435:52,2,128,8|8|8,0:0|0:0|0:0,0:0:0:0:
276,140,156720,6,0,P|187:170|139:250,1,192,0|8,0:0|0:0,0:0:0:0:
116,328,158364,1,0,0:0:0:0:
280,328,159186,5,0,0:0:0:0:
353,297,159597,1,8,0:0:0:0:
400,232,160008,1,4,0:0:0:0:
341,83,160829,1,0,0:0:0:0:
269,49,161240,1,8,0:0:0:0:
189,58,161651,1,4,0:0:0:0:
80,176,162473,6,0,P|62:236|80:296,1,128,0|4,0:0|0:0,0:0:0:0:
228,236,164117,1,4,0:0:0:0:
364,320,164938,2,0,P|416:326|467:314,1,106.666666666667,4|4,0:0|0:0,0:0:0:0:
468,128,166583,6,0,P|450:100|428:80,1,64,4|8,0:0|0:0,0:0:0:0:
356,44,167405,1,0,0:0:0:0:
280,68,167816,1,8,0:0:0:0:
216,116,168226,6,0,P|167:192|216:268,1,192,4|8,0:0|0:0,0:0:0:0:
296,268,169870,2,0,P|345:192|296:115,1,192,4|8,0:0|0:0,0:0:0:0:
256,192,171514,1,4,0:0:0:0:
256,192,171651,12,4,174802,0:0:0:0:
256,272,176309,5,12,0:0:0:0:
256,192,176720,1,8,0:0:0:0:
256,112,177131,1,12,0:0:0:0:
