osu file format v12

[General]
AudioFilename: Koi ni Ochita Santa.mp3
AudioLeadIn: 0
PreviewTime: 7953
Countdown: 0
SampleSet: Soft
StackLeniency: 0.5
Mode: 0
LetterboxInBreaks: 1
WidescreenStoryboard: 0

[Editor]
DistanceSpacing: 1.25
BeatDivisor: 3
GridSize: 4

[Metadata]
Title:Koi ni Ochita Santa
TitleUnicode:恋に落ちたサンタ
Artist:Touyama Nao
ArtistUnicode:東山 奈央
Creator:DJPop
Version:Insane
Source:Kami Nomi zo Shiru Sekai
Tags:The World God Only Knows Nakagawa Kanon Christmas Xmas
BeatmapID:331706
BeatmapSetID:131770

[Difficulty]
HPDrainRate:7
CircleSize:4
OverallDifficulty:7
ApproachRate:8
SliderMultiplier:1.92
SliderTickRate:1

[Events]
//Background and Video events
0,0,"BG.jpg",0,0
//Break Periods
2,87879,99048
//Storyboard Layer 0 (Background)
//Storyboard Layer 1 (Fail)
//Storyboard Layer 2 (Pass)
//Storyboard Layer 3 (Foreground)
//Storyboard Sound Samples
//Background Colour Transformations
3,100,254,115,173

[TimingPoints]
2199,410.958904109589,4,2,2,75,1,0
4802,-100,4,2,5,75,0,0
5008,-100,4,2,3,75,0,0
6857,-149.253731343284,4,2,3,75,0,0
7336,-149.253731343284,4,2,3,5,0,0
7473,-149.253731343284,4,2,2,75,0,0
7816,-100,4,2,2,75,0,0
8090,-100,4,2,1,75,0,0
8638,-100,4,2,2,75,0,0
32063,-100,4,2,3,75,0,0
32268,-100,4,2,1,25,0,0
32405,-100,4,2,1,50,0,0
32542,-100,4,2,1,75,0,0
32747,-100,4,2,3,75,0,0
33569,-149.253731343284,4,2,4,75,0,0
33775,-149.253731343284,4,2,5,75,0,0
34117,-149.253731343284,4,2,1,5,0,0
34391,-100,4,2,1,75,0,0
45282,-100,4,2,1,25,0,0
45419,-100,4,2,1,50,0,0
45556,-100,4,2,1,75,0,0
45898,-100,4,2,4,75,0,0
46104,-100,4,2,5,75,0,0
46857,-100,4,2,1,75,0,0
47131,-100,4,2,4,75,0,0
47336,-100,4,2,5,75,0,0
48090,-100,4,2,1,75,0,0
50076,-100,4,2,1,5,0,0
50213,-100,4,2,1,75,0,0
58638,-100,4,2,5,75,0,0
59049,-100,4,2,4,75,0,0
59254,-100,4,2,1,75,0,0
59597,-200,4,2,1,75,0,0
60076,-100,4,2,1,5,0,0
60145,-100,4,2,1,5,0,1
60419,-100,4,2,1,75,0,1
74049,-100,4,2,4,75,0,1
74186,-100,4,2,5,75,0,1
74460,-100,4,2,1,75,0,1
84871,-100,4,2,1,25,0,1
85008,-100,4,2,1,50,0,1
85145,-100,4,2,1,75,0,1
86789,-100,4,2,4,75,0,1
87200,-100,4,2,5,75,0,1
87610,-100,4,2,1,75,0,1
87678,-100,4,2,1,75,0,0
106241,-100,4,2,1,25,0,0
106378,-100,4,2,1,50,0,0
106515,-100,4,2,5,75,0,0
106720,-100,4,2,1,75,0,0
107200,-100,4,2,1,5,0,0
107336,-100,4,2,1,75,0,0
111446,-100,4,2,4,75,0,0
111652,-100,4,2,5,75,0,0
112063,-100,4,2,1,75,0,0
113090,-100,4,2,4,75,0,0
113501,-100,4,2,5,75,0,0
113912,-100,4,2,1,75,0,0
124186,-100,4,2,1,25,0,0
124323,-100,4,2,1,50,0,0
124460,-100,4,2,1,75,0,0
124802,-100,4,2,4,75,0,0
125008,-100,4,2,5,75,0,0
125761,-100,4,2,1,75,0,0
126035,-100,4,2,4,75,0,0
126241,-100,4,2,5,75,0,0
126994,-100,4,2,1,75,0,0
137542,-100,4,2,5,75,0,0
137953,-100,4,2,4,75,0,0
138158,-100,4,2,1,75,0,0
138501,-158.730158730159,4,2,1,75,0,0
138774,-158.730158730159,4,2,1,5,0,0
139049,-100,4,2,1,25,0,1
139323,-100,4,2,1,75,0,1
152953,-100,4,2,4,75,0,1
153090,-100,4,2,5,75,0,1
153364,-100,4,2,1,75,0,1
163158,-107.52688172043,4,2,1,75,0,1
163638,-107.52688172043,4,2,1,25,0,1
163775,-107.52688172043,4,2,1,50,0,1
163912,-107.52688172043,4,2,1,75,0,1
164460,-107.52688172043,4,2,1,25,0,1
164597,-107.52688172043,4,2,1,50,0,1
164734,-107.52688172043,4,2,1,75,0,1
165487,-100,4,2,1,75,0,1
166104,-100,4,2,4,75,0,1
166241,-100,4,2,5,75,0,1
166515,-100,4,2,1,75,0,1
168980,-100,4,2,4,75,0,1
169391,-100,4,2,5,75,0,1
169802,-200,4,2,1,75,0,1
170145,-200,4,2,1,5,0,1
170830,-100,4,2,1,75,0,1
175282,-100,4,2,1,25,0,1
175419,-100,4,2,1,50,0,1
175556,-100,4,2,1,75,0,1
176583,-100,4,2,4,75,0,1
176789,-100,4,2,5,75,0,1
176994,-100,4,2,1,75,0,1
177267,-100,4,2,1,75,0,0

[Colours]
Combo1 : 255,255,255
Combo2 : 32,192,32
Combo3 : 64,255,255
Combo4 : 255,32,32
SliderBorder : 0,0,0

[HitObjects]
312,208,2200,6,0,P|256:182|200:208,1,128
256,264,2610,1,8,0:0:0:0:
388,32,3021,1,0,0:0:0:0:
124,32,3432,1,8,0:0:0:0:
392,272,3843,5,0,0:0:0:0:
472,160,4117,2,0,P|466:193|448:216,1,64,0|8,0:0|0:0,0:0:0:0:
256,336,4528,2,0,P|157:328|88:272,1,192,0|8,0:0|0:0,0:0:0:0:
48,208,5076,1,10,0:0:0:0:
48,136,5213,1,8,0:0:0:0:
88,72,5350,1,8,0:0:0:0:
152,32,5487,5,12,0:0:0:0:
360,352,5898,1,10,0:0:0:0:
152,32,6309,1,12,0:0:0:0:
48,208,6583,1,10,0:0:0:0:
360,32,6994,6,0,L|424:144,1,128.639993915039,12|0,0:0|0:0,0:0:0:0:
464,208,7542,1,2,0:0:0:0:
152,352,7953,6,0,L|88:240,1,128,0|8,0:0|0:0,0:0:0:0:
48,176,8364,1,8,0:0:0:0:
256,352,8775,5,4,0:0:0:0:
256,32,9186,1,8,0:0:0:0:
256,160,9460,2,0,L|256:224,1,64
440,104,10008,2,0,P|472:192|440:280,1,192,8|0,0:0|0:0,0:0:0:0:
72,104,10829,6,0,P|40:192|72:280,1,192,8|0,0:0|0:0,0:0:0:0:
383,222,11514,2,0,P|393:192|384:162,1,64,0|8,0:0|0:0,0:0:0:0:
128,162,11926,2,0,P|119:193|128:222,1,64
464,352,12473,5,8,0:0:0:0:
256,32,12884,1,2,0:0:0:0:
32,352,13295,1,10,0:0:0:0:
420,32,13706,6,0,P|386:85|334:120,1,128,2|2,0:0|0:0,0:0:0:0:
255,138,14117,2,0,P|191:130|137:98,1,128,8|2,0:0|0:0,0:0:0:0:
92,32,14528,1,0,0:0:0:0:
62,192,14802,1,0,0:0:0:0:
62,192,14939,1,8,0:0:0:0:
460,348,15350,6,0,P|367:331|307:260,1,192,0|8,0:0|0:0,0:0:0:0:
450,192,16035,1,0,0:0:0:0:
450,192,16172,1,0,0:0:0:0:
156,32,16583,1,8,0:0:0:0:
52,348,16994,6,0,P|144:331|204:260,1,192,0|8,0:0|0:0,0:0:0:0:
356,32,17816,1,0,0:0:0:0:
200,120,18090,2,0,L|256:152,1,64,0|8,0:0|0:0,0:0:0:0:
424,216,18501,2,0,L|368:248,1,64
188,88,19049,6,0,L|156:32,2,64,8|0|2,0:0|0:0|0:0,0:0:0:0:
128,128,19460,2,0,L|72:95,2,64
92,192,19870,2,0,L|28:192,2,64,8|0|0,0:0|0:0|0:0,0:0:0:0:
128,256,20282,2,0,L|72:288,2,64,0|0|2,0:0|0:0|0:0,0:0:0:0:
188,296,20692,2,0,L|156:351,2,64,8|0|2,0:0|0:0|0:0,0:0:0:0:
256,272,21104,5,0,0:0:0:0:
256,112,21378,1,0,0:0:0:0:
256,112,21515,1,8,0:0:0:0:
384,352,21926,6,0,P|455:291|471:199,2,192,0|8|0,0:0|0:0|0:0,0:0:0:0:
117,270,23158,6,0,P|159:315|220:330,1,128,8|0,0:0|0:0,0:0:0:0:
187,232,23569,2,0,P|168:172|187:111,1,128
256,192,23980,2,0,P|298:237|359:252,1,128,8|0,0:0|0:0,0:0:0:0:
326,152,24391,2,0,P|308:92|325:32,1,128
395,112,24802,1,8,0:0:0:0:
128,32,25213,6,0,P|56:92|40:184,2,192,0|8|0,0:0|0:0|0:0,0:0:0:0:
384,352,26446,1,8,0:0:0:0:
120,192,26856,5,2,0:0:0:0:
328,100,27130,1,2,0:0:0:0:
256,72,27268,1,8,0:0:0:0:
184,100,27404,1,2,0:0:0:0:
392,192,27678,1,2,0:0:0:0:
164,328,28090,2,0,P|256:351|348:328,1,192,8|0,0:0|0:0,0:0:0:0:
368,120,28775,5,2,0:0:0:0:
316,56,28912,2,0,P|256:74|196:56,1,128,10|2,0:0|0:0,0:0:0:0:
144,120,29323,1,0,0:0:0:0:
432,352,29734,1,8,0:0:0:0:
64,352,30145,5,0,0:0:0:0:
225,316,30419,2,0,P|256:309|283:293,1,64,2|8,0:0|0:0,0:0:0:0:
112,288,30829,1,2,0:0:0:0:
59,226,30967,2,0,P|41:134|86:52,1,192,4|8,0:0|0:0,0:0:0:0:
464,192,31789,5,4,0:0:0:0:
152,192,32200,1,8,0:0:0:0:
179,120,32336,1,8,0:0:0:0:
241,75,32473,1,8,0:0:0:0:
318,66,32610,2,0,P|378:80|421:126,1,128,8|8,0:0|0:0,0:0:0:0:
308,352,33295,1,12,0:0:0:0:
72,192,33706,5,8,0:0:0:0:
72,192,33843,2,0,L|40:68,1,128.639993915039,10|0,0:0|0:0,0:0:0:0:
39,316,34527,1,8,0:0:0:0:
39,316,34664,1,8,0:0:0:0:
384,40,35076,6,0,P|458:96|479:187,1,192,4|8,0:0|0:0,0:0:0:0:
32,104,35898,1,0,0:0:0:0:
138,230,36172,2,0,L|164:171,1,64,0|8,0:0|0:0,0:0:0:0:
249,27,36583,2,0,L|285:79,1,64
72,344,37131,5,8,0:0:0:0:
384,344,37542,2,0,P|458:287|479:196,2,192,0|8|0,0:0|0:0|0:0,0:0:0:0:
304,156,38775,5,10,0:0:0:0:
304,227,38912,1,2,0:0:0:0:
237,249,39049,1,2,0:0:0:0:
196,192,39186,6,0,P|170:136|196:80,1,128,2|2,0:0|0:0,0:0:0:0:
304,156,39597,2,0,P|358:186|370:247,1,128,10|2,0:0|0:0,0:0:0:0:
237,249,40008,2,0,P|176:256|130:214,1,128,2|2,0:0|0:0,0:0:0:0:
237,134,40419,2,0,P|282:92|343:100,1,128,10|2,0:0|0:0,0:0:0:0:
304,227,40829,2,0,P|269:308|179:299,1,192,2|8,0:0|0:0,0:0:0:0:
128,40,41651,6,0,P|54:97|33:188,1,192,0|8,0:0|0:0,0:0:0:0:
368,256,42473,2,0,P|362:317|312:352,1,128
368,256,42884,2,0,P|415:215|476:226,1,128,8|0,0:0|0:0,0:0:0:0:
368,256,43295,2,0,P|294:199|273:108,1,192,0|8,0:0|0:0,0:0:0:0:
40,344,44117,5,0,0:0:0:0:
256,32,44528,1,8,0:0:0:0:
472,344,44939,6,0,P|408:339|352:312,1,128,0|8,0:0|0:0,0:0:0:0:
296,256,45350,1,8,0:0:0:0:
256,192,45487,1,8,0:0:0:0:
216,128,45624,1,8,0:0:0:0:
152,88,45761,1,8,0:0:0:0:
200,264,46035,1,8,0:0:0:0:
200,264,46172,1,8,0:0:0:0:
32,192,46446,1,8,0:0:0:0:
32,192,46583,1,8,0:0:0:0:
480,32,46994,6,0,L|368:96,1,128,14|8,0:0|0:0,0:0:0:0:
264,144,47405,2,0,L|376:208,1,128,10|8,0:0|0:0,0:0:0:0:
480,256,47816,2,0,P|427:332|335:340,1,192,10|0,0:0|0:0,0:0:0:0:
32,32,48638,5,14,0:0:0:0:
408,88,49049,1,0,0:0:0:0:
256,32,49323,2,0,L|228:90,1,64,0|8,0:0|0:0,0:0:0:0:
168,232,49734,2,0,P|256:264|344:232,1,192
392,168,50282,1,8,0:0:0:0:
348,319,50556,6,0,P|256:342|164:320,1,192,2|2,0:0|0:0,0:0:0:0:
96,272,51104,1,10,0:0:0:0:
256,32,51378,1,2,0:0:0:0:
336,72,51515,2,0,P|256:117|176:72,1,192,2|8,0:0|0:0,0:0:0:0:
352,272,52336,5,0,0:0:0:0:
216,352,52610,1,0,0:0:0:0:
296,352,52747,1,8,0:0:0:0:
160,272,53021,1,0,0:0:0:0:
416,160,53432,6,0,L|461:114,1,64,2|10,0:0|0:0,0:0:0:0:
312,96,53843,2,0,L|328:34,1,64,2|2,0:0|0:0,0:0:0:0:
200,96,54254,2,0,L|183:34,1,64,2|10,0:0|0:0,0:0:0:0:
112,160,54665,2,0,L|66:114,1,64,2|0,0:0|0:0,0:0:0:0:
480,352,55213,5,12,0:0:0:0:
32,352,55624,2,0,P|128:315|192:256,1,192,0|8,0:0|0:0,0:0:0:0:
358,33,56446,5,0,0:0:0:0:
256,344,56857,1,12,0:0:0:0:
154,32,57268,1,0,0:0:0:0:
424,216,57679,1,8,0:0:0:0:
88,216,58090,5,0,0:0:0:0:
287,264,58364,2,0,P|256:259|225:264,1,64,2|12,0:0|0:0,0:0:0:0:
424,216,58774,1,10,0:0:0:0:
424,216,58911,1,10,0:0:0:0:
256,344,59186,1,8,0:0:0:0:
256,344,59323,1,10,0:0:0:0:
256,40,59734,6,0,L|256:136,1,96,10|0,0:0|0:0,0:0:0:0:
256,344,60556,1,0,0:0:0:0:
256,205,60830,1,8,0:0:0:0:
256,275,60967,1,8,0:0:0:0:
256,40,61378,5,4,0:0:0:0:
37,249,61788,2,0,P|86:327|178:340,1,192,10|0,0:0|0:0,0:0:0:0:
176,192,62473,1,2,0:0:0:0:
132,256,62610,1,8,0:0:0:0:
480,344,63021,5,0,0:0:0:0:
475,135,63294,1,2,0:0:0:0:
475,135,63432,2,0,P|425:56|333:43,1,192,8|2,0:0|0:0,0:0:0:0:
358,209,64117,2,0,P|328:200|308:176,1,64,2|8,0:0|0:0,0:0:0:0:
161,108,64528,1,0,0:0:0:0:
235,140,64665,1,0,0:0:0:0:
88,72,64939,2,0,P|67:47|37:38,1,64,2|8,0:0|0:0,0:0:0:0:
80,224,65350,5,2,0:0:0:0:
80,224,65487,2,0,L|144:336,1,128,2|2,0:0|0:0,0:0:0:0:
256,272,65898,2,0,L|144:336,1,128,10|2,0:0|0:0,0:0:0:0:
256,272,66309,2,0,L|368:336,1,128,2|2,0:0|0:0,0:0:0:0:
432,224,66720,2,0,L|368:336,1,128,10|2,0:0|0:0,0:0:0:0:
340,236,67131,5,0,0:0:0:0:
172,236,67405,1,8,0:0:0:0:
172,236,67542,1,12,0:0:0:0:
272,32,67953,5,4,0:0:0:0:
304,272,68364,2,0,P|397:268|448:192,1,192,10|0,0:0|0:0,0:0:0:0:
480,32,69049,1,2,0:0:0:0:
464,112,69186,2,0,P|371:116|320:192,1,192,10|0,0:0|0:0,0:0:0:0:
288,352,69871,1,2,0:0:0:0:
304,272,70008,1,8,0:0:0:0:
240,48,70419,2,0,P|175:54|120:82,1,128,2|2,0:0|0:0,0:0:0:0:
65,141,70829,2,0,P|42:199|44:264,1,128,8|0,0:0|0:0,0:0:0:0:
72,338,71241,1,0,0:0:0:0:
184,192,71515,6,0,L|148:244,1,64,2|8,0:0|0:0,0:0:0:0:
308,300,71925,2,0,L|256:264,1,64,2|2,0:0|0:0,0:0:0:0:
328,192,72336,2,0,L|364:140,1,64,2|10,0:0|0:0,0:0:0:0:
204,84,72747,2,0,L|256:120,1,64,2|2,0:0|0:0,0:0:0:0:
440,48,73158,1,10,0:0:0:0:
440,336,73569,6,0,L|408:276,1,64,2|8,0:0|0:0,0:0:0:0:
332,104,73980,1,4,0:0:0:0:
296,32,74117,1,8,0:0:0:0:
216,32,74254,1,8,0:0:0:0:
180,104,74391,1,8,0:0:0:0:
256,132,74528,6,0,B|280:156|288:188|256:220|224:252|232:284|256:308,2,192,4|8|0,0:0|0:0|0:0,0:0:0:0:
96,352,75761,5,8,0:0:0:0:
416,352,76172,1,0,0:0:0:0:
32,32,76583,1,8,0:0:0:0:
256,256,76994,1,0,0:0:0:0:
480,32,77405,1,8,0:0:0:0:
208,192,77816,6,0,B|184:216|152:224|120:192|88:160|56:168|32:192,2,192,0|8|0,0:0|0:0|0:0,0:0:0:0:
480,32,79049,1,8,0:0:0:0:
480,352,79460,1,0,0:0:0:0:
200,80,79871,6,0,L|312:140,1,128,10|2,0:0|0:0,0:0:0:0:
412,192,80282,2,0,L|300:252,1,128,0|8,0:0|0:0,0:0:0:0:
200,304,80693,1,8,0:0:0:0:
200,80,81104,5,4,0:0:0:0:
104,312,81378,1,2,0:0:0:0:
48,252,81515,2,0,P|30:192|48:132,1,128,10|2,0:0|0:0,0:0:0:0:
104,72,81926,1,0,0:0:0:0:
408,192,82336,1,8,0:0:0:0:
104,312,82747,5,4,0:0:0:0:
240,192,83021,2,0,L|284:144,1,64,2|8,0:0|0:0,0:0:0:0:
356,312,83432,2,0,L|400:360,1,64,2|0,0:0|0:0,0:0:0:0:
472,192,83843,1,8,0:0:0:0:
472,192,83980,1,8,0:0:0:0:
208,32,84391,6,0,P|114:65|62:137,1,192,4|8,0:0|0:0,0:0:0:0:
40,209,84939,1,8,0:0:0:0:
58,279,85076,1,8,0:0:0:0:
114,330,85213,1,8,0:0:0:0:
256,352,85487,1,8,0:0:0:0:
480,192,85898,1,12,0:0:0:0:
256,192,86309,1,8,0:0:0:0:
184,192,86446,6,0,L|120:192,2,64,8|8|8,0:0|0:0|0:0,0:0:0:0:
292,129,86857,2,0,L|324:74,2,64,8|8|8,0:0|0:0|0:0,0:0:0:0:
292,254,87268,2,0,L|324:309,2,64,8|8|8,0:0|0:0|0:0,0:0:0:0:
256,192,87679,1,4,0:0:0:0:
256,192,100830,5,4,0:0:0:0:
32,192,101104,2,0,L|96:192,1,64,0|8,0:0|0:0,0:0:0:0:
320,240,101515,1,0,0:0:0:0:
256,272,101652,1,0,0:0:0:0:
480,192,101926,2,0,L|416:192,1,64,0|8,0:0|0:0,0:0:0:0:
192,144,102336,1,0,0:0:0:0:
256,112,102473,1,0,0:0:0:0:
180,323,102747,5,0,0:0:0:0:
110,283,102884,1,8,0:0:0:0:
387,268,103158,1,0,0:0:0:0:
348,336,103295,1,0,0:0:0:0:
332,60,103569,1,0,0:0:0:0:
401,100,103706,1,8,0:0:0:0:
124,116,103980,1,0,0:0:0:0:
163,47,104117,1,0,0:0:0:0:
264,280,104528,6,0,P|285:222|343:200,1,128,8|0,0:0|0:0,0:0:0:0:
248,104,104939,2,0,P|226:161|168:183,1,128
88,48,105350,1,8,0:0:0:0:
352,32,105624,2,0,P|436:71|476:156,1,192
472,236,106172,5,8,0:0:0:0:
428,300,106309,1,8,0:0:0:0:
365,344,106446,1,8,0:0:0:0:
288,352,106583,1,8,0:0:0:0:
35,157,106857,2,0,P|74:71|160:32,1,192,14|0,0:0|0:0,0:0:0:0:
192,192,107405,5,6,0:0:0:0:
96,352,107679,2,0,L|40:320,1,64,0|8,0:0|0:0,0:0:0:0:
216,268,108090,1,0,0:0:0:0:
296,268,108227,1,0,0:0:0:0:
472,320,108501,2,0,L|416:352,1,64,0|8,0:0|0:0,0:0:0:0:
320,192,108912,1,0,0:0:0:0:
256,144,109049,1,0,0:0:0:0:
96,336,109460,6,0,P|50:293|36:232,1,128,8|0,0:0|0:0,0:0:0:0:
96,336,109871,2,0,P|156:353|216:335,1,128
152,240,110282,1,8,0:0:0:0:
256,32,110556,1,10,0:0:0:0:
368,272,110967,5,2,0:0:0:0:
336,352,111104,1,14,0:0:0:0:
432,112,111378,1,10,0:0:0:0:
464,32,111515,1,10,0:0:0:0:
400,192,111789,1,14,0:0:0:0:
184,32,112200,2,0,P|118:99|112:192,1,192,14|10,0:0|0:0,0:0:0:0:
128,269,112747,6,0,L|141:331,2,64,8|8|8,0:0|0:0|0:0,0:0:0:0:
184,224,113158,2,0,L|242:250,2,64,8|8|8,0:0|0:0|0:0,0:0:0:0:
180,151,113569,2,0,L|235:119,2,64,8|8|8,0:0|0:0|0:0,0:0:0:0:
109,191,113980,6,0,P|43:258|36:352,1,192,4|8,0:0|0:0,0:0:0:0:
256,352,114665,1,0,0:0:0:0:
256,352,114802,1,0,0:0:0:0:
394,272,115076,2,0,L|449:239,1,64,0|8,0:0|0:0,0:0:0:0:
286,149,115487,2,0,L|230:181,1,64
496,32,116035,5,8,0:0:0:0:
109,193,116446,2,0,P|43:126|36:32,1,192,0|8,0:0|0:0,0:0:0:0:
192,240,117268,6,0,P|284:254|365:204,1,192,0|10,0:0|0:0,0:0:0:0:
416,148,117816,1,2,0:0:0:0:
416,72,117953,1,2,0:0:0:0:
480,32,118090,1,2,0:0:0:0:
480,192,118364,6,0,L|480:256,1,64,2|10,0:0|0:0,0:0:0:0:
352,112,118775,2,0,L|296:80,1,64,2|2,0:0|0:0,0:0:0:0:
240,264,119186,2,0,L|296:232,1,64,2|10,0:0|0:0,0:0:0:0:
160,96,119597,2,0,L|128:152,1,64,2|2,0:0|0:0,0:0:0:0:
480,192,120145,1,8,0:0:0:0:
179,339,120556,6,0,P|86:327|37:249,1,192,0|8,0:0|0:0,0:0:0:0:
384,128,121377,2,0,P|445:122|480:72,1,128
384,128,121788,2,0,P|343:175|354:236,1,128,8|0,0:0|0:0,0:0:0:0:
384,128,122199,2,0,P|327:54|236:33,1,192,0|8,0:0|0:0,0:0:0:0:
256,352,123021,5,0,0:0:0:0:
32,32,123432,1,8,0:0:0:0:
32,336,123843,6,0,P|91:352|142:318,1,128,0|8,0:0|0:0,0:0:0:0:
184,252,124254,1,8,0:0:0:0:
256,224,124391,1,8,0:0:0:0:
328,252,124528,1,8,0:0:0:0:
369,317,124665,2,0,P|420:352|480:336,1,128,12|8,0:0|0:0,0:0:0:0:
436,272,125076,2,0,P|401:220|417:161,1,128,8|8,0:0|0:0,0:0:0:0:
480,208,125487,1,8,0:0:0:0:
32,208,125898,5,14,0:0:0:0:
208,120,126172,1,8,0:0:0:0:
144,152,126309,1,10,0:0:0:0:
368,32,126583,1,8,0:0:0:0:
304,64,126720,1,10,0:0:0:0:
348,327,127131,6,0,P|256:350|164:328,1,192,0|12,0:0|0:0,0:0:0:0:
368,144,127953,1,0,0:0:0:0:
444,280,128227,1,0,0:0:0:0:
444,280,128364,1,8,0:0:0:0:
480,128,128638,2,0,P|411:62|321:35,1,192
216,104,129186,5,8,0:0:0:0:
32,127,129460,2,0,P|100:61|191:35,1,192,2|2,0:0|0:0,0:0:0:0:
296,104,130008,1,10,0:0:0:0:
144,144,130282,1,2,0:0:0:0:
164,220,130419,6,0,P|256:197|348:219,1,192,2|8,0:0|0:0,0:0:0:0:
32,352,131241,1,0,0:0:0:0:
32,192,131514,2,0,P|44:223|60:248,1,64,0|8,0:0|0:0,0:0:0:0:
184,352,131925,1,0,0:0:0:0:
304,32,132336,5,2,0:0:0:0:
376,64,132473,1,10,0:0:0:0:
208,96,132747,1,2,0:0:0:0:
136,128,132884,1,2,0:0:0:0:
296,192,133158,1,2,0:0:0:0:
368,224,133295,1,10,0:0:0:0:
208,288,133569,1,2,0:0:0:0:
136,320,133706,6,0,P|47:295|22:206,1,192,0|12,0:0|0:0,0:0:0:0:
376,64,134528,2,0,P|464:88|489:177,1,192,0|8,0:0|0:0,0:0:0:0:
152,350,135350,5,0,0:0:0:0:
256,32,135761,1,12,0:0:0:0:
359,350,136172,1,0,0:0:0:0:
88,153,136583,1,8,0:0:0:0:
423,153,136994,5,0,0:0:0:0:
286,240,137268,2,0,P|256:249|226:240,1,64,2|12,0:0|0:0,0:0:0:0:
128,80,137679,1,10,0:0:0:0:
168,152,137816,1,10,0:0:0:0:
384,80,138090,1,8,0:0:0:0:
344,152,138227,1,10,0:0:0:0:
256,352,138638,6,0,L|256:272,1,80.6399975390626,10|0,0:0|0:0,0:0:0:0:
256,272,139048,21,2,0:0:0:0:
256,32,139460,21,0,0:0:0:0:
256,192,139734,1,8,0:0:0:0:
256,112,139871,1,8,0:0:0:0:
255,353,140282,5,4,0:0:0:0:
185,84,140693,2,0,P|128:157|141:250,1,192,10|0,0:0|0:0,0:0:0:0:
310,206,141378,1,2,0:0:0:0:
384,184,141514,2,0,P|349:98|263:63,1,192,8|0,0:0|0:0,0:0:0:0:
216,231,142200,1,2,0:0:0:0:
197,306,142336,2,0,P|290:319|363:262,1,192,8|2,0:0|0:0,0:0:0:0:
448,104,143021,6,0,L|480:48,1,64,2|8,0:0|0:0,0:0:0:0:
432,240,143432,1,0,0:0:0:0:
432,240,143569,1,0,0:0:0:0:
328,96,143843,2,0,L|292:44,1,64,2|8,0:0|0:0,0:0:0:0:
32,80,144254,5,2,0:0:0:0:
96,32,144391,1,2,0:0:0:0:
256,168,144665,1,2,0:0:0:0:
192,120,144802,1,10,0:0:0:0:
32,256,145076,1,2,0:0:0:0:
96,208,145213,1,2,0:0:0:0:
256,344,145487,6,0,L|192:296,1,64,2|8,0:0|0:0,0:0:0:0:
400,312,145898,2,0,L|344:344,1,64,2|0,0:0|0:0,0:0:0:0:
448,192,146309,1,8,0:0:0:0:
480,264,146446,1,12,0:0:0:0:
32,120,146857,5,4,0:0:0:0:
480,32,147268,2,0,P|387:48|327:120,1,192,10|0,0:0|0:0,0:0:0:0:
256,352,147953,1,2,0:0:0:0:
256,352,148090,1,8,0:0:0:0:
184,120,148501,6,0,P|177:192|152:240,1,128,0|2,0:0|0:0,0:0:0:0:
96,296,148912,1,8,0:0:0:0:
328,120,149323,2,0,P|335:192|360:240,1,128,2|2,0:0|0:0,0:0:0:0:
416,296,149734,1,8,0:0:0:0:
204,272,150008,2,0,P|174:262|152:240,1,64
308,272,150419,2,0,P|338:262|360:240,1,64,2|8,0:0|0:0,0:0:0:0:
448,48,150830,5,2,0:0:0:0:
384,96,150967,1,2,0:0:0:0:
256,32,151241,1,2,0:0:0:0:
256,112,151378,1,10,0:0:0:0:
64,48,151652,1,2,0:0:0:0:
128,96,151789,1,2,0:0:0:0:
256,192,152063,1,10,0:0:0:0:
32,296,152473,6,0,L|64:352,1,64,2|8,0:0|0:0,0:0:0:0:
256,296,152884,1,12,0:0:0:0:
312,352,153021,1,8,0:0:0:0:
392,352,153158,1,8,0:0:0:0:
448,296,153295,1,8,0:0:0:0:
448,216,153432,6,0,B|420:151|464:127|508:103|480:39,2,192,4|8|0,0:0|0:0|0:0,0:0:0:0:
120,32,154665,1,8,0:0:0:0:
392,32,155076,5,0,0:0:0:0:
32,352,155487,1,8,0:0:0:0:
256,128,155898,1,0,0:0:0:0:
480,352,156309,1,8,0:0:0:0:
64,216,156720,6,0,B|92:151|48:127|4:103|32:39,2,192,0|8|0,0:0|0:0|0:0,0:0:0:0:
392,352,157953,1,8,0:0:0:0:
120,352,158364,1,0,0:0:0:0:
480,32,158775,6,0,P|417:30|364:63,1,128,10|2,0:0|0:0,0:0:0:0:
280,144,159186,2,0,P|342:142|395:175,1,128,0|8,0:0|0:0,0:0:0:0:
472,264,159597,2,0,P|379:271|326:347,1,192,8|4,0:0|0:0,0:0:0:0:
176,160,160282,5,2,0:0:0:0:
124,84,160419,1,10,0:0:0:0:
92,260,160693,1,2,0:0:0:0:
40,336,160829,2,0,P|132:328|185:252,1,192,0|8,0:0|0:0,0:0:0:0:
40,48,161651,5,4,0:0:0:0:
208,48,161926,2,0,L|256:92,1,64,2|8,0:0|0:0,0:0:0:0:
416,48,162336,2,0,L|368:92,1,64,2|0,0:0|0:0,0:0:0:0:
220,212,162747,1,8,0:0:0:0:
292,212,162884,1,8,0:0:0:0:
32,352,163295,5,4,0:0:0:0:
144,152,163569,1,8,0:0:0:0:
180,80,163706,1,8,0:0:0:0:
256,56,163843,1,8,0:0:0:0:
332,80,163980,1,8,0:0:0:0:
368,152,164117,1,4,0:0:0:0:
144,232,164391,1,8,0:0:0:0:
180,304,164528,1,8,0:0:0:0:
256,328,164665,1,8,0:0:0:0:
332,304,164802,1,8,0:0:0:0:
368,232,164939,6,0,L|256:192,1,119.040003723633,4|8,0:0|0:0,0:0:0:0:
256,192,165624,2,0,L|256:128,1,64,4|0,0:0|0:0,0:0:0:0:
416,56,166035,1,8,0:0:0:0:
464,116,166172,1,8,0:0:0:0:
480,192,166309,1,8,0:0:0:0:
464,268,166446,1,8,0:0:0:0:
416,328,166583,1,4,0:0:0:0:
220,276,166857,5,2,0:0:0:0:
156,324,166994,1,10,0:0:0:0:
288,232,167268,1,2,0:0:0:0:
352,280,167405,1,0,0:0:0:0:
96,56,167816,1,8,0:0:0:0:
32,352,168227,2,0,P|49:289|80:236,1,128,4|8,0:0|0:0,0:0:0:0:
128,168,168638,5,8,0:0:0:0:
200,136,168775,1,8,0:0:0:0:
232,64,168912,1,8,0:0:0:0:
340,93,169049,5,8,0:0:0:0:
332,171,169186,1,8,0:0:0:0:
378,235,169323,1,8,0:0:0:0:
299,314,169460,5,8,0:0:0:0:
235,268,169597,1,8,0:0:0:0:
157,276,169734,1,8,0:0:0:0:
256,192,169871,5,4,0:0:0:0:
256,192,169939,12,8,171103,0:0:0:0:
167,64,171515,6,0,P|256:34|345:64,1,192,4|8,0:0|0:0,0:0:0:0:
480,200,172200,1,2,0:0:0:0:
448,272,172336,1,0,0:0:0:0:
280,208,172610,1,2,0:0:0:0:
312,136,172747,1,14,0:0:0:0:
168,352,173158,6,0,P|107:337|64:292,1,128,2|0,0:0|0:0,0:0:0:0:
32,216,173569,1,8,0:0:0:0:
192,64,173842,2,0,P|278:67|282:154,1,192,2|2,0:0|0:0,0:0:0:0:
230,228,174390,2,0,P|232:316|320:320,1,192,14|6,0:0|0:0,0:0:0:0:
468,160,175213,5,8,0:0:0:0:
432,92,175350,1,8,0:0:0:0:
372,44,175487,1,8,0:0:0:0:
296,32,175624,1,8,0:0:0:0:
80,92,175898,1,8,0:0:0:0:
256,352,176309,1,12,0:0:0:0:
140,44,176720,5,8,0:0:0:0:
216,32,176857,1,8,0:0:0:0:
44,160,177131,1,12,0:0:0:0:
