osu file format v12

[General]
AudioFilename: Koi ni Ochita Santa.mp3
AudioLeadIn: 0
PreviewTime: 7953
Countdown: 0
SampleSet: Soft
StackLeniency: 0.5
Mode: 0
LetterboxInBreaks: 1
WidescreenStoryboard: 0

[Editor]
DistanceSpacing: 1
BeatDivisor: 6
GridSize: 8

[Metadata]
Title:Koi ni Ochita Santa
TitleUnicode:恋に落ちたサンタ
Artist:Touyama Nao
ArtistUnicode:東山 奈央
Creator:DJPop
Version:Hard
Source:Kami Nomi zo Shiru Sekai
Tags:The World God Only Knows Nakagawa Kanon Christmas Xmas
BeatmapID:331705
BeatmapSetID:131770

[Difficulty]
HPDrainRate:5
CircleSize:4
OverallDifficulty:5
ApproachRate:6
SliderMultiplier:1.28
SliderTickRate:1

[Events]
//Background and Video events
0,0,"BG.jpg",0,0
//Break Periods
2,87879,99048
//Storyboard Layer 0 (Background)
//Storyboard Layer 1 (Fail)
//Storyboard Layer 2 (Pass)
//Storyboard Layer 3 (Foreground)
//Storyboard Sound Samples
//Background Colour Transformations
3,100,254,115,173

[TimingPoints]
2199,410.958904109589,4,2,2,75,1,0
4871,-100,4,2,5,75,0,0
5008,-100,4,2,3,75,0,0
7336,-100,4,2,3,5,0,0
7473,-100,4,2,2,75,0,0
12268,-100,4,2,2,5,0,0
12405,-100,4,2,2,75,0,0
32063,-100,4,2,3,75,0,0
32268,-100,4,2,1,25,0,0
32405,-100,4,2,1,50,0,0
32542,-100,4,2,1,75,0,0
32747,-100,4,2,3,75,0,0
33569,-200,4,2,4,75,0,0
33775,-200,4,2,5,75,0,0
34939,-100,4,2,1,75,0,0
46035,-100,4,2,4,75,0,0
46446,-100,4,2,5,75,0,0
46857,-100,4,2,1,75,0,0
47268,-100,4,2,4,75,0,0
47679,-100,4,2,5,75,0,0
48090,-100,4,2,1,75,0,0
58775,-100,4,2,5,75,0,0
59186,-100,4,2,1,75,0,0
60145,-100,4,2,1,75,0,1
74049,-100,4,2,4,75,0,1
74391,-100,4,2,1,75,0,1
86789,-100,4,2,4,75,0,1
87200,-100,4,2,5,75,0,1
87610,-100,4,2,1,75,0,1
87678,-100,4,2,1,75,0,0
106377,-100,4,2,1,50,0,0
106515,-100,4,2,5,75,0,0
106720,-100,4,2,1,75,0,0
107200,-100,4,2,1,5,0,0
107336,-100,4,2,1,75,0,0
111446,-100,4,2,4,75,0,0
111652,-100,4,2,5,75,0,0
112063,-100,4,2,1,75,0,0
113021,-100,4,2,4,75,0,0
113432,-100,4,2,5,75,0,0
113843,-100,4,2,1,75,0,0
124460,-100,4,2,1,75,0,0
124939,-100,4,2,4,75,0,0
125350,-100,4,2,5,75,0,0
125761,-100,4,2,1,75,0,0
126172,-100,4,2,4,75,0,0
126583,-100,4,2,5,75,0,0
126994,-100,4,2,1,75,0,0
128980,-100,4,2,1,5,0,0
129117,-100,4,2,1,75,0,0
137542,-100,4,2,5,75,0,0
137953,-100,4,2,4,75,0,0
138158,-100,4,2,1,75,0,0
138501,-200,4,2,1,75,0,0
139049,-100,4,2,1,75,0,1
152953,-100,4,2,4,75,0,1
153295,-100,4,2,1,75,0,1
163638,-100,4,2,1,25,0,1
163775,-100,4,2,1,50,0,1
163912,-100,4,2,1,75,0,1
164460,-100,4,2,1,25,0,1
164597,-100,4,2,1,50,0,1
164734,-100,4,2,1,75,0,1
166104,-100,4,2,4,75,0,1
166241,-100,4,2,5,75,0,1
166515,-100,4,2,1,75,0,1
168912,-100,4,2,4,75,0,1
169323,-100,4,2,5,75,0,1
169734,-100,4,2,1,75,0,1
176583,-100,4,2,4,75,0,1
176789,-100,4,2,5,75,0,1
176994,-100,4,2,1,75,0,1
177267,-100,4,2,1,75,0,0

[Colours]
Combo1 : 255,255,255
Combo2 : 32,192,32
Combo3 : 64,255,255
Combo4 : 255,32,32
SliderBorder : 0,0,0

[HitObjects]
85,167,2199,6,0,L|149:56,1,128,0|8,0:0|0:0,0:0:0:0:
362,56,3021,2,0,L|426:167,1,128,0|8,0:0|0:0,0:0:0:0:
320,352,3843,2,0,L|192:352,1,128,0|8,0:0|0:0,0:0:0:0:
200,236,4528,2,0,P|256:262|312:236,1,128,0|8,0:0|0:0,0:0:0:0:
256,192,5076,1,10,0:0:0:0:
352,32,5487,5,12,0:0:0:0:
160,32,5898,1,10,0:0:0:0:
320,128,6309,1,12,0:0:0:0:
192,128,6583,1,10,0:0:0:0:
336,256,6994,2,0,P|256:281|176:256,1,170.666666666667,12|2,0:0|0:0,0:0:0:0:
448,160,8775,6,0,P|466:100|448:40,2,128,4|8|0,0:0|0:0|0:0,0:0:0:0:
384,288,10008,1,8,0:0:0:0:
256,352,10419,1,0,0:0:0:0:
128,288,10829,1,8,0:0:0:0:
64,160,11240,2,0,P|48:121|48:79,1,85.3333333333333
208,149,11926,6,0,P|189:231|128:288,1,170.666666666667,0|8,0:0|0:0,0:0:0:0:
256,352,12884,1,2,0:0:0:0:
384,288,13295,1,10,0:0:0:0:
303,149,13705,6,0,P|305:191|320:231,1,85.3333333333333,2|2,0:0|0:0,0:0:0:0:
476,168,14391,2,0,P|461:107|416:64,1,128,2|0,0:0|0:0,0:0:0:0:
352,32,14939,1,8,0:0:0:0:
160,32,15350,6,0,P|102:58|56:101,2,128,0|8|0,0:0|0:0|0:0,0:0:0:0:
176,192,16583,1,8,0:0:0:0:
336,192,16994,1,0,0:0:0:0:
352,32,17405,1,8,0:0:0:0:
496,96,17816,2,0,P|486:137|456:165,1,85.3333333333333
312,104,18501,6,0,P|256:78|200:104,1,128
199,175,19048,2,0,P|255:201|312:176,1,128,8|0,0:0|0:0,0:0:0:0:
440,272,19871,2,0,P|397:317|336:332,1,128,8|0,0:0|0:0,0:0:0:0:
176,331,20692,2,0,P|115:317|72:272,2,128,8|0|8,0:0|0:0|0:0,0:0:0:0:
256,192,21925,6,0,P|298:146|359:132,2,128,0|8|0,0:0|0:0|0:0,0:0:0:0:
335,331,23157,1,8,0:0:0:0:
472,248,23568,1,0,0:0:0:0:
400,104,23980,1,8,0:0:0:0:
256,32,24391,1,0,0:0:0:0:
112,104,24802,1,8,0:0:0:0:
40,248,25213,6,0,P|54:308|99:351,2,128,0|8|0,0:0|0:0|0:0,0:0:0:0:
200,264,26446,1,8,0:0:0:0:
256,116,26857,2,0,L|256:28,3,85.3333333333333,2|2|2|2,0:0|0:0|0:0|0:0,0:0:0:0:
256,192,28090,1,8,0:0:0:0:
400,256,28501,6,0,P|370:311|315:340,1,128,0|8,0:0|0:0,0:0:0:0:
160,352,29323,1,0,0:0:0:0:
56,240,29734,1,8,0:0:0:0:
112,96,30144,6,0,P|159:54|219:34,1,128,0|8,0:0|0:0,0:0:0:0:
400,96,30966,2,0,P|352:54|292:34,1,128,4|8,0:0|0:0,0:0:0:0:
160,176,31789,5,4,0:0:0:0:
352,176,32200,1,8,0:0:0:0:
192,288,32610,1,8,0:0:0:0:
320,288,32884,1,8,0:0:0:0:
312,96,33294,2,0,P|256:122|200:96,1,128,12|8,0:0|0:0,0:0:0:0:
256,52,33842,1,10,0:0:0:0:
480,352,35076,6,0,P|417:353|364:320,1,128,4|8,0:0|0:0,0:0:0:0:
296,176,35898,2,0,P|256:164|216:176,1,85.3333333333333
148,320,36582,2,0,P|95:353|32:352,1,128
64,288,37130,2,0,P|117:254|180:256,1,128,8|0,0:0|0:0,0:0:0:0:
320,332,37953,1,8,0:0:0:0:
296,176,38364,6,0,P|260:124|258:61,3,128,0|8|0|8,0:0|0:0|0:0|0:0,0:0:0:0:
416,44,40007,1,0,0:0:0:0:
480,192,40419,1,8,0:0:0:0:
416,340,40829,1,0,0:0:0:0:
256,352,41240,1,8,0:0:0:0:
106,292,41651,6,0,P|57:252|40:192,1,128,0|8,0:0|0:0,0:0:0:0:
184,120,42473,1,0,0:0:0:0:
124,208,42746,1,0,0:0:0:0:
201,35,43157,6,0,P|249:74|267:135,1,128
256,204,43706,1,8,0:0:0:0:
392,116,44117,1,0,0:0:0:0:
460,264,44528,1,8,0:0:0:0:
316,336,44939,6,0,P|256:354|196:336,1,128,0|8,0:0|0:0,0:0:0:0:
176,176,45760,2,0,P|125:213|104:273,2,128,8|8|8,0:0|0:0|0:0,0:0:0:0:
337,176,46993,2,0,P|386:213|407:273,2,128,12|8|8,0:0|0:0|0:0,0:0:0:0:
176,80,48226,6,0,P|119:52|56:47,1,128,0|12,0:0|0:0,0:0:0:0:
72,208,49049,2,0,L|100:128,1,85.3333333333333
152,280,49734,2,0,P|194:325|255:340,1,128
324,320,50282,1,8,0:0:0:0:
344,216,50555,2,0,P|301:170|240:156,1,128,2|2,0:0|0:0,0:0:0:0:
172,176,51103,1,10,0:0:0:0:
266,52,51515,6,0,P|326:34|386:52,1,128,0|8,0:0|0:0,0:0:0:0:
480,176,52336,1,0,0:0:0:0:
420,264,52610,2,0,P|377:309|316:324,1,128
208,204,53432,1,2,0:0:0:0:
140,204,53568,2,0,P|78:218|35:263,2,128,10|2|10,0:0|0:0|0:0,0:0:0:0:
288,312,54802,5,0,0:0:0:0:
468,336,55213,1,12,0:0:0:0:
360,192,55624,1,0,0:0:0:0:
468,48,56035,1,8,0:0:0:0:
288,72,56446,1,0,0:0:0:0:
112,32,56857,1,12,0:0:0:0:
32,192,57268,1,0,0:0:0:0:
112,352,57679,1,8,0:0:0:0:
196,192,58090,6,0,P|256:174|316:192,2,128,0|12|10,0:0|0:0|0:0,0:0:0:0:
256,352,59323,1,10,0:0:0:0:
256,32,59734,1,10,0:0:0:0:
480,192,61378,5,4,0:0:0:0:
352,72,61788,2,0,P|256:33|160:72,1,213.333333333333,10|2,0:0|0:0,0:0:0:0:
108,120,62610,1,8,0:0:0:0:
168,272,63021,2,0,L|140:352,1,85.3333333333333,0|2,0:0|0:0,0:0:0:0:
344,272,63842,2,0,L|372:352,1,85.3333333333333,2|2,0:0|0:0,0:0:0:0:
256,240,64528,5,0,0:0:0:0:
400,168,64939,2,0,P|439:120|428:59,1,128,2|2,0:0|0:0,0:0:0:0:
357,40,65486,2,0,P|317:87|328:148,1,128,2|10,0:0|0:0,0:0:0:0:
432,272,66309,2,0,L|344:272,1,85.3333333333333,2|2,0:0|0:0,0:0:0:0:
204,344,66994,2,0,P|141:349|86:319,1,128,2|8,0:0|0:0,0:0:0:0:
32,272,67542,1,12,0:0:0:0:
168,192,67953,5,4,0:0:0:0:
271,313,68363,2,2,P|337:233|336:129,1,213.333333333333,10|2,0:0|0:0,0:0:0:0:
308,64,69185,1,8,0:0:0:0:
152,32,69597,1,0,0:0:0:0:
216,116,69871,1,2,0:0:0:0:
32,224,70419,1,2,0:0:0:0:
96,308,70692,2,0,P|149:340|211:339,1,128,2|0,0:0|0:0,0:0:0:0:
312,216,71514,6,0,P|375:213|429:246,1,128,2|2,0:0|0:0,0:0:0:0:
480,296,72062,1,2,0:0:0:0:
332,352,72473,1,10,0:0:0:0:
224,232,72884,2,0,P|212:192|224:152,1,85.3333333333333,2|10,0:0|0:0,0:0:0:0:
332,32,73569,2,0,P|392:46|435:92,1,128,2|4,0:0|0:0,0:0:0:0:
480,148,74117,1,8,0:0:0:0:
316,120,74528,6,0,P|256:102|196:120,2,128,4|8|0,0:0|0:0|0:0,0:0:0:0:
432,224,75761,1,8,0:0:0:0:
336,352,76172,1,0,0:0:0:0:
176,352,76583,1,8,0:0:0:0:
80,224,76994,1,0,0:0:0:0:
176,96,77405,1,8,0:0:0:0:
336,96,77816,6,0,P|396:81|439:35,2,128,0|8|0,0:0|0:0|0:0,0:0:0:0:
308,252,79049,1,8,0:0:0:0:
204,132,79460,1,0,0:0:0:0:
176,288,79870,2,0,P|115:302|72:348,2,128,8|0|8,0:0|0:0|0:0,0:0:0:0:
320,352,81103,5,4,0:0:0:0:
460,272,81514,1,8,0:0:0:0:
460,112,81925,1,0,0:0:0:0:
320,32,82336,1,8,0:0:0:0:
160,32,82747,2,0,P|103:58|70:112,1,128,4|8,0:0|0:0,0:0:0:0:
70,270,83568,2,0,P|103:324|160:352,1,128,0|8,0:0|0:0,0:0:0:0:
336,288,84391,5,4,0:0:0:0:
336,96,84802,1,8,0:0:0:0:
432,256,85213,1,8,0:0:0:0:
432,128,85487,1,8,0:0:0:0:
336,288,85898,2,0,P|274:279|242:227,1,128,4|8,0:0|0:0,0:0:0:0:
241,157,86445,2,0,P|274:104|336:96,2,128,8|8|8,0:0|0:0|0:0,0:0:0:0:
32,192,87679,1,4,0:0:0:0:
480,192,100830,5,4,0:0:0:0:
444,76,101103,2,0,P|386:97|364:155,1,128
364,228,101651,2,0,P|384:286|443:307,1,128,0|8,0:0|0:0,0:0:0:0:
280,228,102472,2,0,P|259:286|200:307,1,128,0|8,0:0|0:0,0:0:0:0:
280,156,103294,2,0,P|259:97|200:76,1,128,0|8,0:0|0:0,0:0:0:0:
64,192,104117,5,0,0:0:0:0:
196,296,104528,2,0,P|256:314|316:296,1,128,8|0,0:0|0:0,0:0:0:0:
448,192,105350,1,8,0:0:0:0:
348,138,105624,2,0,P|390:92|451:77,2,128,0|0|8,0:0|0:0|0:0,0:0:0:0:
316,200,106583,1,8,0:0:0:0:
219,122,106857,2,0,P|144:82|60:80,1,170.666666666667,14|6,0:0|0:0,0:0:0:0:
32,192,107679,6,0,P|46:252|92:295,1,128
160,316,108226,2,0,P|220:301|263:256,1,128,0|8,0:0|0:0,0:0:0:0:
336,88,109049,1,0,0:0:0:0:
400,256,109460,2,0,L|368:336,1,85.3333333333333,8|0,0:0|0:0,0:0:0:0:
440,344,109871,2,0,L|472:264,1,85.3333333333333
408,96,110556,1,10,0:0:0:0:
256,32,110967,5,2,0:0:0:0:
232,96,111103,2,0,P|222:136|236:175,1,85.3333333333333,14|10,0:0|0:0,0:0:0:0:
275,231,111514,2,0,P|289:271|280:312,1,85.3333333333333,10|14,0:0|0:0,0:0:0:0:
96,352,112200,2,0,P|54:304|34:244,1,128,14|0,0:0|0:0,0:0:0:0:
32,32,113158,1,8,0:0:0:0:
144,144,113569,1,8,0:0:0:0:
256,32,113980,6,0,P|318:30|371:63,1,128,4|8,0:0|0:0,0:0:0:0:
480,184,114802,1,0,0:0:0:0:
376,184,115076,1,0,0:0:0:0:
456,320,115486,2,0,P|402:353|339:351,1,128
272,336,116035,1,8,0:0:0:0:
224,184,116446,1,0,0:0:0:0:
128,312,116857,1,8,0:0:0:0:
80,160,117268,6,0,P|71:97|98:41,3,128,0|8|0|8,0:0|0:0|0:0|0:0,0:0:0:0:
236,124,118912,1,0,0:0:0:0:
368,32,119323,1,8,0:0:0:0:
296,176,119734,1,0,0:0:0:0:
440,248,120145,1,8,0:0:0:0:
280,248,120556,6,0,P|219:233|170:192,1,128,0|8,0:0|0:0,0:0:0:0:
36,292,121377,1,0,0:0:0:0:
96,200,121651,1,0,0:0:0:0:
196,332,122062,2,0,P|256:350|316:332,1,128
376,296,122610,1,8,0:0:0:0:
480,176,123021,1,0,0:0:0:0:
376,56,123432,1,8,0:0:0:0:
272,176,123842,6,0,P|250:118|192:96,1,128,0|8,0:0|0:0,0:0:0:0:
72,208,124664,2,0,P|92:266|151:287,2,128,12|8|8,0:0|0:0|0:0,0:0:0:0:
32,32,125898,1,12,0:0:0:0:
152,168,126309,1,8,0:0:0:0:
272,304,126720,1,8,0:0:0:0:
456,256,127131,6,0,P|474:196|456:136,1,128,0|12,0:0|0:0,0:0:0:0:
272,80,127953,1,0,0:0:0:0:
368,32,128227,1,0,0:0:0:0:
332,220,128638,2,0,P|252:245|172:220,1,170.666666666667,0|8,0:0|0:0,0:0:0:0:
55,255,129459,2,0,P|38:195|56:135,1,128,2|2,0:0|0:0,0:0:0:0:
100,80,130008,1,10,0:0:0:0:
172,220,130418,6,0,P|189:280|171:340,1,128,2|8,0:0|0:0,0:0:0:0:
284,228,131241,1,0,0:0:0:0:
284,332,131514,1,0,0:0:0:0:
444,340,131925,2,0,P|425:279|443:219,1,128,0|2,0:0|0:0,0:0:0:0:
472,156,132472,2,0,P|489:95|471:35,2,128,10|2|10,0:0|0:0|0:0,0:0:0:0:
316,96,133706,6,0,P|256:78|196:96,1,128,0|12,0:0|0:0,0:0:0:0:
196,288,134527,2,0,P|256:306|316:288,1,128,0|8,0:0|0:0,0:0:0:0:
196,192,135350,1,0,0:0:0:0:
196,32,135761,1,12,0:0:0:0:
56,112,136172,1,0,0:0:0:0:
56,272,136583,1,8,0:0:0:0:
196,192,136993,6,0,P|256:174|316:192,2,128,0|12|10,0:0|0:0|0:0,0:0:0:0:
256,352,138226,1,10,0:0:0:0:
256,32,138637,1,10,0:0:0:0:
480,192,140281,5,4,0:0:0:0:
352,312,140692,2,0,P|256:351|160:312,1,213.333333333333,10|2,0:0|0:0,0:0:0:0:
108,264,141513,1,8,0:0:0:0:
256,200,141925,2,0,L|336:168,1,85.3333333333333,0|2,0:0|0:0,0:0:0:0:
176,32,142747,2,0,L|256:64,1,85.3333333333333,2|2,0:0|0:0,0:0:0:0:
120,150,143432,1,0,0:0:0:0:
104,308,143843,6,0,P|157:341|219:352,1,128,2|2,0:0|0:0,0:0:0:0:
291,352,144390,2,0,P|353:341|408:308,1,128,2|10,0:0|0:0,0:0:0:0:
472,160,145213,1,2,0:0:0:0:
380,208,145487,1,2,0:0:0:0:
316,60,145898,2,0,P|256:42|196:60,1,128,2|8,0:0|0:0,0:0:0:0:
140,104,146446,1,12,0:0:0:0:
256,208,146857,5,4,0:0:0:0:
170,342,147268,2,0,P|99:266|101:162,1,213.333333333333,10|2,0:0|0:0,0:0:0:0:
140,104,148090,1,8,0:0:0:0:
256,208,148501,1,0,0:0:0:0:
304,304,148775,1,2,0:0:0:0:
352,96,149323,1,2,0:0:0:0:
440,36,149597,2,0,P|458:96|440:156,1,128,2|0,0:0|0:0,0:0:0:0:
256,208,150418,6,0,P|238:148|256:88,1,128,2|2,0:0|0:0,0:0:0:0:
300,32,150967,1,2,0:0:0:0:
348,184,151378,1,10,0:0:0:0:
296,336,151788,2,0,P|256:348|216:336,1,85.3333333333333,2|10,0:0|0:0,0:0:0:0:
96,224,152473,2,0,P|63:170|64:108,1,128,2|12,0:0|0:0,0:0:0:0:
84,40,153021,1,8,0:0:0:0:
224,112,153431,6,0,P|256:165|255:227,2,128,4|8|0,0:0|0:0|0:0,0:0:0:0:
360,32,154665,1,8,0:0:0:0:
480,136,155076,1,0,0:0:0:0:
332,192,155487,1,8,0:0:0:0:
480,248,155898,1,0,0:0:0:0:
360,352,156309,1,8,0:0:0:0:
200,352,156720,6,0,P|139:337|96:292,2,128,0|8|0,0:0|0:0|0:0,0:0:0:0:
256,200,157953,1,8,0:0:0:0:
312,352,158364,1,0,0:0:0:0:
416,232,158774,2,0,L|472:168,1,85.3333333333333,10|2,0:0|0:0,0:0:0:0:
412,132,159186,2,0,L|340:84,1,85.3333333333333,0|8,0:0|0:0,0:0:0:0:
388,32,159597,1,8,0:0:0:0:
200,32,160007,6,0,P|139:46|96:92,1,128,4|8,0:0|0:0,0:0:0:0:
32,240,160829,1,0,0:0:0:0:
168,160,161240,1,8,0:0:0:0:
280,272,161651,2,0,P|335:297|392:272,1,128,4|8,0:0|0:0,0:0:0:0:
392,112,162472,2,0,P|336:86|279:112,1,128,0|8,0:0|0:0,0:0:0:0:
168,224,163295,5,4,0:0:0:0:
64,248,163569,2,0,P|85:305|143:327,1,128,10|8,0:0|0:0,0:0:0:0:
208,304,164116,1,6,0:0:0:0:
328,264,164390,2,0,P|349:321|407:343,1,128,10|8,0:0|0:0,0:0:0:0:
472,320,164937,1,6,0:0:0:0:
428,220,165213,1,2,0:0:0:0:
480,68,165624,2,0,P|426:35|364:36,1,128,6|8,0:0|0:0,0:0:0:0:
300,68,166172,1,8,0:0:0:0:
144,96,166583,6,0,L|80:152,1,85.3333333333333,4|2,0:0|0:0,0:0:0:0:
128,200,166994,2,0,L|192:256,1,85.3333333333333,10|2,0:0|0:0,0:0:0:0:
144,304,167405,1,0,0:0:0:0:
256,192,167816,1,8,0:0:0:0:
368,304,168227,2,0,P|408:256|416:194,3,128,4|8|8|8,0:0|0:0|0:0|0:0,0:0:0:0:
256,192,169871,1,4,0:0:0:0:
256,192,169939,12,8,171103,0:0:0:0:
196,52,171514,6,0,P|256:34|316:52,3,128,4|8|0|12,0:0|0:0|0:0|0:0,0:0:0:0:
316,216,173157,2,0,P|255:234|195:216,1,128,0|8,0:0|0:0,0:0:0:0:
116,292,173843,2,0,P|159:337|221:352,1,128,2|2,0:0|0:0,0:0:0:0:
291,352,174390,2,0,P|352:337|395:292,1,128,14|6,0:0|0:0,0:0:0:0:
480,152,175213,5,8,0:0:0:0:
364,32,175624,1,8,0:0:0:0:
344,136,175898,1,8,0:0:0:0:
208,56,176309,2,0,P|147:45|99:84,1,128,12|8,0:0|0:0,0:0:0:0:
64,144,176857,1,8,0:0:0:0:
32,256,177131,1,12,0:0:0:0:
