osu file format v13

[General]
AudioFilename: 03 100% (OVA Edit).mp3
AudioLeadIn: 0
PreviewTime: 50475
Countdown: 1
SampleSet: Soft
StackLeniency: 0.7
Mode: 0
LetterboxInBreaks: 1
WidescreenStoryboard: 1

[Editor]
Bookmarks: 51682
DistanceSpacing: 0.5
BeatDivisor: 4
GridSize: 32
TimelineZoom: 1

[Metadata]
Title:Kanon100% (OVA Edit)
TitleUnicode:Kanon100% (OVA Edit)
Artist:Touyama Nao
ArtistUnicode:Touyama Nao
Creator:Awaken
Version:Insane
Source:マジカル☆スター かのん100%
Tags:ova opening Kawaiwkyik
BeatmapID:603347
BeatmapSetID:264739

[Difficulty]
HPDrainRate:7
CircleSize:4
OverallDifficulty:8
ApproachRate:9
SliderMultiplier:1.8
SliderTickRate:1

[Events]
//Background and Video events
0,0,"bg.jpg",0,0
//Break Periods
//Storyboard Layer 0 (Background)
//Storyboard Layer 1 (Fail)
//Storyboard Layer 2 (Pass)
//Storyboard Layer 3 (Foreground)
//Storyboard Sound Samples

[TimingPoints]
820,344.827586206897,4,2,1,60,1,0
13578,-200,4,2,1,60,0,0
14268,-100,4,2,1,60,0,0
14613,-200,4,2,1,60,0,0
14957,-200,4,2,1,60,0,0
15302,-200,4,2,1,60,0,0
15820,-100,4,2,1,60,0,0
20130,-200,4,2,1,60,0,0
20475,-200,4,2,1,60,0,0
20820,-200,4,2,1,60,0,0
21337,-100,4,2,1,60,0,0
36337,-100,4,2,1,30,0,0
36682,-166.666666666667,4,2,1,60,0,0
41854,-100,4,2,1,60,0,0
49957,-66.6666666666667,4,2,1,60,0,0
50475,-100,4,2,1,60,0,1
58751,-100,4,2,1,60,0,0
59095,-100,4,2,1,60,0,1
59613,-90.9090909090909,4,2,1,65,0,1
60130,-83.3333333333333,4,2,1,70,0,1
60647,-50,4,2,1,75,0,1
60820,-100,4,2,1,75,0,1
61423,-100,4,2,1,60,0,0
61509,-100,4,2,1,60,0,1
68147,-76.9230769230769,4,2,1,60,0,0
68233,-100,4,2,1,60,0,1
68578,-100,4,2,1,70,0,1
69785,-125,4,2,1,70,0,1
70130,-76.9230769230769,4,2,1,70,0,1
70906,-76.9230769230769,4,2,1,60,0,0
70992,-100,4,2,1,60,0,1
71337,-100,4,2,1,70,0,1
72544,-125,4,2,1,60,0,1
72888,-83.3333333333333,4,2,1,65,0,1
73233,-66.6666666666667,4,2,1,65,0,1
75302,-100,4,2,1,40,0,0
77371,-100,4,2,1,5,0,0
77544,-100,4,2,1,60,0,0
87888,-200,4,2,1,60,0,0
89095,-100,4,2,1,60,0,0
89957,-133.333333333333,4,2,1,5,0,0

[Colours]
Combo1 : 255,0,0
Combo2 : 255,128,192
Combo3 : 255,128,64
Combo4 : 255,0,128

[HitObjects]
125,104,647,5,4,0:0:0:0:
125,104,733,1,4,0:0:0:0:
125,104,820,6,0,L|133:199,1,90,4|0,0:0|0:0,0:0:0:0:
249,219,1164,2,0,L|245:314,1,90,0|0,0:0|0:0,0:0:0:0:
382,216,1509,1,0,0:0:0:0:
298,83,1682,1,0,0:0:0:0:
161,255,1854,1,0,0:0:0:0:
316,161,2026,5,8,0:0:0:0:
151,11,2199,1,4,0:0:0:0:
71,245,2371,1,8,0:0:0:0:
309,285,2544,1,8,0:0:0:0:
195,76,2716,6,0,P|160:106|196:181,1,135,8|0,0:0|0:0,0:0:0:0:
205,248,3061,2,0,L|161:255,1,45,8|0,0:0|0:0,0:0:0:0:
221,323,3233,2,0,P|280:317|337:373,1,135,8|0,0:0|0:0,0:0:0:0:
333,364,3578,5,4,0:0:0:0:
268,184,3751,1,0,0:0:0:0:
420,226,3923,2,0,P|431:273|421:316,1,90,8|0,0:0|0:0,0:0:0:0:
176,163,4268,6,0,P|212:115|335:122,1,180,0|8,0:0|0:0,0:0:0:0:
280,273,4785,1,0,0:0:0:0:
280,273,4871,1,0,0:0:0:0:
280,273,4957,2,0,L|268:184,1,90,4|0,0:0|0:0,0:0:0:0:
425,45,5302,2,0,L|413:134,1,90,8|0,0:0|0:0,0:0:0:0:
182,247,5647,1,0,0:0:0:0:
300,120,5820,1,0,0:0:0:0:
348,319,5992,1,8,0:0:0:0:
260,195,6164,5,0,0:0:0:0:
260,195,6251,1,0,0:0:0:0:
260,195,6337,2,0,L|364:200,1,90,0|0,0:0|0:0,0:0:0:0:
273,352,6682,2,0,L|183:347,1,90,8|0,0:0|0:0,0:0:0:0:
254,51,7026,6,0,P|310:36|384:137,1,180,0|8,0:0|0:0,0:0:0:0:
139,174,7544,1,0,0:0:0:0:
141,151,7630,1,0,0:0:0:0:
143,128,7716,1,4,0:0:0:0:
260,195,7888,1,0,0:0:0:0:
97,337,8061,1,8,0:0:0:0:
168,257,8233,5,0,0:0:0:0:
168,257,8320,1,0,0:0:0:0:
168,257,8406,2,0,L|176:307,1,45,0|0,0:0|0:0,0:0:0:0:
291,291,8578,2,0,L|281:347,1,45,0|0,0:0|0:0,0:0:0:0:
414,289,8751,2,0,L|409:235,1,45,8|0,0:0|0:0,0:0:0:0:
348,121,8923,2,0,L|352:165,1,45,0|0,0:0|0:0,0:0:0:0:
373,364,9095,6,0,P|441:370|493:267,2,180,4|8|0,0:0|0:0|0:0,0:0:0:0:
348,121,9957,1,0,0:0:0:0:
414,289,10130,1,8,0:0:0:0:
457,195,10302,2,0,L|461:151,1,45,0|0,0:0|0:0,0:0:0:0:
449,72,10475,5,0,0:0:0:0:
261,168,10647,1,0,0:0:0:0:
457,195,10820,1,8,0:0:0:0:
267,247,10992,2,0,P|211:233|208:109,1,180,0|0,0:0|0:0,0:0:0:0:
376,195,11509,1,8,0:0:0:0:
223,331,11682,1,0,0:0:0:0:
223,331,11768,1,0,0:0:0:0:
223,331,11854,6,0,L|330:324,1,90,0|0,0:0|0:0,0:0:0:0:
102,282,12199,2,0,L|12:287,1,90,8|0,0:0|0:0,0:0:0:0:
393,283,12544,1,0,0:0:0:0:
221,179,12716,1,0,0:0:0:0:
316,329,12888,2,0,L|313:266,1,45,8|0,0:0|0:0,0:0:0:0:
397,117,13061,1,0,0:0:0:0:
401,101,13578,6,0,L|396:48,1,45,0|0,0:0|0:0,0:0:0:0:
309,17,13923,1,2,0:0:0:0:
221,179,14095,2,0,L|226:215,1,22.5,8|0,0:0|0:0,0:0:0:0:
283,123,14268,6,0,P|248:102|149:134,1,135,8|0,0:0|0:0,0:0:0:0:
138,148,14613,6,0,L|133:226,1,67.5,8|0,0:0|0:0,0:0:0:0:
61,228,14957,6,0,L|70:306,1,67.5,8|0,0:0|0:0,0:0:0:0:
19,349,15302,6,0,P|77:372|126:347,1,112.5,8|0,0:0|0:0,0:0:0:0:
160,280,15820,6,0,P|241:239|323:286,1,180,4|8,0:0|0:0,0:0:0:0:
244,342,16337,1,8,0:0:0:0:
230,150,16509,1,0,0:0:0:0:
315,275,16682,1,0,0:0:0:0:
131,187,16854,1,8,0:0:0:0:
338,28,17026,5,8,0:0:0:0:
157,21,17199,1,0,0:0:0:0:
157,21,17285,1,0,0:0:0:0:
157,21,17371,2,0,P|147:66|167:122,1,90,0|0,0:0|0:0,0:0:0:0:
369,219,17716,2,0,P|379:174|359:118,1,90,8|0,0:0|0:0,0:0:0:0:
181,253,18061,5,0,0:0:0:0:
305,178,18233,1,0,0:0:0:0:
150,98,18406,1,8,0:0:0:0:
221,178,18578,1,0,0:0:0:0:
221,178,18664,1,0,0:0:0:0:
221,178,18751,5,0,0:0:0:0:
302,15,18923,1,0,0:0:0:0:
433,156,19095,1,0,0:0:0:0:
264,249,19268,1,0,0:0:0:0:
360,69,19440,2,0,L|361:120,1,45,0|0,0:0|0:0,0:0:0:0:
417,284,19613,2,0,L|416:239,1,45,0|0,0:0|0:0,0:0:0:0:
301,337,19785,6,0,P|248:349|183:294,1,135,8|0,0:0|0:0,0:0:0:0:
181,275,20130,6,0,L|188:198,1,67.5,8|0,0:0|0:0,0:0:0:0:
134,153,20475,6,0,L|134:69,1,67.5,8|0,0:0|0:0,0:0:0:0:
192,38,20820,6,0,P|146:12|78:33,1,112.5,8|0,0:0|0:0,0:0:0:0:
45,85,21337,6,0,L|52:268,1,180,4|0,0:0|0:0,0:0:0:0:
281,235,21854,1,0,0:0:0:0:
211,115,22026,1,8,0:0:0:0:
181,340,22199,1,8,0:0:0:0:
363,230,22371,5,8,0:0:0:0:
127,179,22544,1,8,0:0:0:0:
375,148,22716,2,0,L|430:156,1,45,0|0,0:0|0:0,0:0:0:0:
498,164,22888,5,4,0:0:0:0:
255,379,23578,1,8,0:0:0:0:
133,265,23751,1,8,0:0:0:0:
260,129,23923,1,8,0:3:0:0:
164,338,24095,2,0,P|103:343|57:241,1,180,0|8,0:0|0:0,0:0:0:0:
350,220,24613,1,8,0:0:0:0:
255,379,24785,1,8,0:0:0:0:
171,133,24957,5,8,0:0:0:0:
344,300,25130,1,0,0:0:0:0:
378,22,25302,1,8,0:3:0:0:
241,226,25475,1,0,0:0:0:0:
241,226,25561,1,0,0:0:0:0:
241,226,25647,6,0,P|198:192|116:209,1,135,4|0,0:0|0:0,0:0:0:0:
68,252,25992,2,0,P|92:198|60:133,1,135,8|0,0:0|0:0,0:0:0:0:
1,90,26337,6,0,B|58:113|100:74|100:74|175:100,1,180,0|8,0:0|0:0,0:0:0:0:
289,296,26854,2,0,P|325:243|266:146,1,180,0|0,0:0|0:0,0:0:0:0:
145,243,27371,1,8,0:0:0:0:
221,383,27544,1,0,0:0:0:0:
241,225,27716,1,0,0:0:0:0:
130,339,27888,5,8,0:0:0:0:
348,234,28061,1,8,0:0:0:0:
65,195,28233,1,0,0:0:0:0:
65,195,28320,1,0,0:0:0:0:
65,195,28406,6,0,P|51:241|66:288,1,90,0|0,0:0|0:0,0:0:0:0:
253,143,28751,2,0,L|246:43,1,90,8|0,0:0|0:0,0:0:0:0:
148,149,29095,1,0,0:0:0:0:
258,315,29268,1,0,0:0:0:0:
352,133,29440,1,8,0:0:0:0:
241,225,29613,1,0,0:0:0:0:
395,330,29785,5,0,0:0:0:0:
320,210,29957,1,0,0:0:0:0:
407,314,30130,1,0,0:0:0:0:
258,315,30302,1,0,0:0:0:0:
421,302,30475,1,0,0:0:0:0:
178,276,30647,1,0,0:0:0:0:
432,291,30820,1,8,0:0:0:0:
325,62,30992,1,0,0:0:0:0:
169,119,31164,6,0,P|174:169|248:214,1,135,8|0,0:0|0:0,0:0:0:0:
320,210,31509,2,0,L|461:180,1,135,8|0,0:0|0:0,0:0:0:0:
512,247,31854,2,0,P|519:337|416:370,1,180,0|8,0:0|0:0,0:0:0:0:
252,294,32371,6,0,P|342:288|432:291,1,180,0|0,0:0|0:0,0:0:0:0:
167,358,32888,1,8,0:0:0:0:
106,159,33061,1,0,0:0:0:0:
223,214,33233,1,0,0:0:0:0:
34,260,33406,5,8,0:0:0:0:
313,226,33578,1,8,0:0:0:0:
106,159,33751,1,4,0:3:0:0:
106,159,33837,1,0,0:0:0:0:
106,159,33923,6,0,P|94:117|98:53,1,90,4|0,0:0|0:0,0:0:0:0:
377,185,34268,2,0,P|392:245|295:299,1,180,0|8,0:0|0:0,0:0:0:0:
223,214,34785,1,0,0:0:0:0:
342,108,34957,1,8,0:3:0:0:
204,20,35130,5,4,0:3:0:0:
198,3,35475,5,8,0:0:0:0:
287,166,35647,1,8,0:0:0:0:
72,299,35820,1,8,0:0:0:0:
261,367,35992,1,8,0:0:0:0:
166,149,36164,1,0,0:0:0:0:
166,149,36251,1,0,0:0:0:0:
166,149,36337,1,8,0:0:0:0:
321,300,36509,1,8,0:0:0:0:
72,299,36682,6,0,P|59:248|78:173,1,107.999996704102,4|0,0:0|0:0,0:0:0:0:
235,88,37199,1,8,0:0:0:0:
285,186,37371,1,8,0:0:0:0:
284,207,37716,6,0,L|216:213,1,53.9999983520508,8|2,0:0|0:0,0:0:0:0:
217,359,38061,1,8,0:0:0:0:
320,300,38233,2,0,L|373:307,1,53.9999983520508,0|0,0:0|0:0,0:0:0:0:
459,234,38578,1,8,0:0:0:0:
363,125,38751,1,8,0:0:0:0:
354,104,39095,6,0,L|359:45,1,53.9999983520508,8|2,0:0|0:0,0:0:0:0:
227,84,39440,2,0,L|237:197,1,107.999996704102,8|0,0:0|0:0,0:0:0:0:
181,273,39957,1,8,0:0:0:0:
314,346,40130,1,8,0:0:0:0:
327,353,40475,6,0,L|389:341,1,53.9999983520508,8|2,0:0|0:0,0:0:0:0:
120,329,40820,2,0,P|100:283|131:211,1,107.999996704102,8|0,0:0|0:0,0:0:0:0:
280,228,41337,1,8,0:0:0:0:
239,335,41509,1,8,0:0:0:0:
181,273,41682,1,0,0:0:0:0:
376,281,41854,6,0,P|388:234|365:178,1,90,8|2,0:0|0:0,0:0:0:0:
167,63,42199,6,0,P|107:90|86:200,1,180,8|0,0:0|0:0,0:0:0:0:
463,195,42716,2,0,P|454:108|379:63,1,180,8|0,0:0|0:0,0:0:0:0:
172,156,43233,1,8,0:0:0:0:
368,202,43406,2,0,L|376:143,1,45,0|0,0:0|0:0,0:0:0:0:
271,39,43578,1,0,0:0:0:0:
271,39,43923,6,0,B|263:78|263:78|272:111|272:111|244:165|274:228,1,180,12|0,0:0|0:0,0:0:0:0:
363,88,44440,1,0,0:0:0:0:
177,20,44613,1,8,0:3:0:0:
371,108,44785,1,4,0:3:0:0:
141,148,44957,6,0,P|133:194|148:250,1,90,0|8,0:0|0:0,0:0:0:0:
248,364,45302,1,8,0:0:0:0:
35,264,45475,6,0,P|61:302|112:331,1,90,8|0,0:0|0:0,0:0:0:0:
323,314,45820,1,8,0:3:0:0:
97,326,45992,6,0,L|191:304,1,90,0|0,0:0|0:0,0:0:0:0:
393,366,46337,1,8,0:0:0:0:
141,149,46509,2,0,L|238:163,1,90,0|0,0:0|0:0,0:0:0:0:
362,200,46854,1,0,0:0:0:0:
352,56,47026,6,0,P|396:99|352:206,1,180,12|8,0:0|0:0,0:0:0:0:
204,254,47544,1,4,0:0:0:0:
146,61,47716,5,0,0:0:0:0:
314,132,47888,1,8,0:0:0:0:
120,70,48061,5,8,0:0:0:0:
327,211,48233,1,8,0:0:0:0:
95,79,48406,5,8,0:0:0:0:
290,286,48578,1,0,0:0:0:0:
70,88,48751,5,8,0:0:0:0:
223,332,48923,1,8,0:0:0:0:
380,86,49095,5,8,0:0:0:0:
172,271,49268,1,8,0:0:0:0:
460,199,49440,1,8,0:0:0:0:
74,182,49613,1,8,0:0:0:0:
74,182,49957,6,0,P|67:218|71:261,1,67.5000025749208,8|0,0:0|0:0,0:0:0:0:
211,256,50130,2,0,P|184:231|145:213,1,67.5000025749208,8|0,0:0|0:0,0:0:0:0:
72,336,50302,2,0,P|107:324|142:299,1,67.5000025749208,0|0,0:0|0:0,0:0:0:0:
226,165,50475,6,0,P|197:94|263:3,1,180,4|8,0:0|0:0,0:0:0:0:
426,111,50992,1,0,0:0:0:0:
334,260,51164,1,0,0:0:0:0:
288,93,51337,5,0,0:0:0:0:
407,218,51509,1,8,0:0:0:0:
236,323,51682,2,0,B|175:316|175:316|141:327|141:327|52:311,1,180,0|0,0:0|0:0,0:0:0:0:
119,147,52199,1,8,0:0:0:0:
254,242,52371,1,0,0:0:0:0:
261,13,52544,5,0,0:0:0:0:
213,160,52716,1,8,0:0:0:0:
334,271,52888,1,8,0:0:0:0:
157,373,53061,2,0,L|150:322,1,45,2|0,0:0|0:0,0:0:0:0:
176,251,53233,6,0,P|125:251|78:335,1,135,4|0,0:0|0:0,0:0:0:0:
59,384,53578,2,0,L|43:247,1,135,8|0,0:0|0:0,0:0:0:0:
0,183,53923,6,0,B|61:153|107:207|107:207|160:171,1,180,0|8,0:0|0:0,0:0:0:0:
134,0,54440,2,0,L|130:52,1,45,2|0,0:0|0:0,0:0:0:0:
96,111,54613,5,2,0:0:0:0:
281,160,54785,1,0,0:0:0:0:
245,3,54957,1,8,0:0:0:0:
206,205,55130,1,0,0:0:0:0:
288,78,55302,5,0,0:0:0:0:
116,230,55475,1,8,0:0:0:0:
306,337,55647,1,8,0:0:0:0:
206,205,55820,1,0,0:0:0:0:
206,205,55906,1,0,0:0:0:0:
206,205,55992,6,0,P|197:282|241:335,1,135,4|0,0:0|0:0,0:0:0:0:
306,337,56337,2,0,L|453:321,1,135,8|0,0:0|0:0,0:0:0:0:
502,369,56682,2,0,P|516:308|425:244,1,180,0|8,0:0|0:0,0:0:0:0:
451,99,57199,1,2,0:0:0:0:
457,120,57285,1,2,0:0:0:0:
464,141,57371,1,2,0:0:0:0:
327,251,57544,5,0,0:0:0:0:
247,55,57716,1,8,0:0:0:0:
378,171,57888,1,0,0:0:0:0:
191,202,58061,5,0,0:0:0:0:
367,87,58233,1,8,0:0:0:0:
126,14,58406,5,8,0:0:0:0:
111,56,58492,1,8,0:0:0:0:
106,100,58578,1,8,0:0:0:0:
118,143,58664,1,8,0:0:0:0:
147,177,58751,1,12,0:3:0:0:
191,202,59095,6,0,P|141:191|71:236,1,135,12|0,0:0|0:0,0:0:0:0:
121,300,59440,2,0,L|176:290,1,45,8|0,0:0|0:0,0:0:0:0:
16,180,59613,6,0,P|-6:240|48:310,1,148.50000453186,12|0,0:0|0:0,0:0:0:0:
170,369,59957,2,0,L|227:356,1,49.5000015106202,8|0,0:0|0:0,0:0:0:0:
270,195,60130,6,0,P|245:139|152:133,1,161.999995056153,12|0,0:0|0:0,0:0:0:0:
194,246,60475,2,0,L|191:202,1,45,8|0,0:0|0:0,0:0:0:0:
346,145,60647,6,0,B|355:183|355:183|346:245,1,90,12|0,0:0|0:0,0:0:0:0:
261,312,60820,5,8,0:3:0:0:
305,303,60906,1,0,0:0:0:0:
349,308,60992,1,0,0:0:0:0:
387,331,61078,1,0,0:0:0:0:
410,369,61164,5,8,0:0:0:0:
426,326,61251,1,0,0:0:0:0:
442,284,61337,1,8,0:0:0:0:
458,242,61423,1,0,0:0:0:0:
474,200,61509,6,0,L|462:103,1,90,4|0,0:0|0:0,0:0:0:0:
335,56,61854,2,0,L|346:145,1,90,8|0,0:0|0:0,0:0:0:0:
201,249,62199,1,0,0:0:0:0:
242,89,62371,1,0,0:0:0:0:
188,263,62544,1,8,0:0:0:0:
232,105,62716,1,0,0:0:0:0:
285,297,62888,6,0,L|378:283,1,90,0|0,0:0|0:0,0:0:0:0:
182,357,63233,2,0,L|87:348,1,90,8|0,0:0|0:0,0:0:0:0:
321,179,63578,1,0,0:0:0:0:
325,384,63751,1,8,0:0:0:0:
188,263,63923,1,8,0:0:0:0:
363,258,64095,1,0,0:0:0:0:
227,182,64268,6,0,P|174:174|101:278,2,180,4|8|0,0:0|0:0|0:0,0:0:0:0:
325,384,65130,2,0,L|316:331,1,45,0|0,0:0|0:0,0:0:0:0:
188,263,65302,1,8,0:0:0:0:
363,258,65475,6,0,B|308:251|308:251|256:272|256:272|182:262,1,180,4|0,0:0|0:0,0:0:0:0:
309,133,65992,1,8,0:0:0:0:
396,333,66164,1,0,0:0:0:0:
259,305,66337,5,0,0:0:0:0:
381,178,66509,1,8,0:0:0:0:
230,62,66682,1,8,0:0:0:0:
450,136,66854,1,8,0:3:0:0:
450,136,66940,1,0,0:0:0:0:
450,136,67026,6,0,P|461:181|447:230,1,90,4|0,0:3|0:0,0:0:0:0:
231,148,67371,2,0,P|220:103|234:54,1,90,12|0,0:0|0:0,0:0:0:0:
387,66,67716,1,0,0:0:0:0:
302,198,67888,1,0,0:0:0:0:
291,0,68061,1,8,0:0:0:0:
260,263,68233,6,0,P|326:274|378:178,1,180,12|8,0:0|0:0,0:0:0:0:
148,144,68751,1,8,0:0:0:0:
302,198,68923,1,8,0:0:0:0:
309,88,69095,5,0,0:0:0:0:
202,208,69268,1,8,0:0:0:0:
209,32,69440,1,8,0:0:0:0:
302,198,69613,1,0,0:0:0:0:
81,200,69785,6,0,P|46:157|43:86,1,108,4|0,0:3|0:0,0:0:0:0:
80,24,70130,6,0,L|80:200,1,175.499991966248,12|0,0:0|0:0,0:0:0:0:
80,200,70475,1,0,0:0:0:0:
181,112,70647,1,0,0:0:0:0:
270,273,70820,1,8,0:0:0:0:
35,306,70992,6,0,P|86:237|172:247,1,180,12|12,0:0|0:0,0:0:0:0:
278,353,71509,1,8,0:0:0:0:
119,314,71682,1,12,0:0:0:0:
355,271,71854,1,0,0:0:0:0:
166,238,72026,1,8,0:0:0:0:
351,159,72199,1,8,0:0:0:0:
168,150,72371,1,4,0:3:0:0:
411,93,72544,5,8,0:0:0:0:
201,314,72888,1,8,0:0:0:0:
112,33,73233,1,8,0:0:0:0:
512,172,73578,2,0,P|517:210|508:247,1,67.5000025749208,8|0,0:3|0:0,0:0:0:0:
457,291,73751,6,0,B|408:262|341:284|341:284|273:342|192:310,1,270.000010299683,8|8,0:0|0:0,0:0:0:0:
112,33,74268,1,8,0:0:0:0:
256,192,75302,12,0,77716,0:0:0:0:
167,133,78061,6,0,L|177:231,1,90,4|0,0:0|0:0,0:0:0:0:
349,150,78406,2,0,L|357:49,1,90,8|0,0:0|0:0,0:0:0:0:
236,73,78751,1,0,0:0:0:0:
329,263,78923,1,0,0:0:0:0:
205,337,79095,1,8,0:0:0:0:
259,182,79268,1,0,0:0:0:0:
401,214,79440,6,0,P|415:256|407:300,1,90,4|0,0:0|0:0,0:0:0:0:
136,283,79785,2,0,L|125:178,1,90,8|0,0:0|0:0,0:0:0:0:
294,339,80130,1,0,0:0:0:0:
74,351,80302,1,0,0:0:0:0:
294,339,80475,1,8,0:0:0:0:
53,270,80647,1,2,0:0:0:0:
53,270,80733,1,0,0:0:0:0:
53,270,80820,6,0,P|40:222|41:168,1,90,2|0,0:0|0:0,0:0:0:0:
225,272,81164,2,0,P|249:228|288:191,1,90,8|0,0:0|0:0,0:0:0:0:
491,297,81509,1,0,0:0:0:0:
375,370,81682,1,0,0:0:0:0:
394,200,81854,1,8,0:0:0:0:
489,321,82026,1,0,0:0:0:0:
326,252,82199,6,0,P|311:213|325:157,1,90,4|0,0:0|0:0,0:0:0:0:
498,70,82544,2,0,P|513:109|499:165,1,90,8|0,0:0|0:0,0:0:0:0:
211,184,82888,1,0,0:0:0:0:
386,67,83061,1,0,0:0:0:0:
409,283,83233,1,8,0:0:0:0:
386,67,83406,1,0,0:0:0:0:
474,342,83578,6,0,P|394:365|328:292,2,180,4|8|0,0:0|0:0|0:0,0:0:0:0:
377,87,84440,1,0,0:0:0:0:
409,283,84613,1,8,0:0:0:0:
495,205,84785,1,0,0:0:0:0:
329,197,84957,5,0,0:0:0:0:
466,116,85130,1,0,0:0:0:0:
351,4,85302,1,8,0:0:0:0:
466,98,85475,1,0,0:0:0:0:
282,68,85647,5,0,0:0:0:0:
446,16,85820,1,0,0:0:0:0:
273,47,85992,1,8,0:0:0:0:
466,116,86164,1,0,0:0:0:0:
261,154,86337,6,0,P|250:203|267:253,1,90,2|0,0:0|0:0,0:0:0:0:
459,243,86682,2,0,P|427:186|363:179,1,135,8|0,0:0|0:0,0:0:0:0:
337,200,87026,5,0,0:0:0:0:
364,83,87199,1,0,0:0:0:0:
379,279,87371,1,8,0:0:0:0:
341,0,87544,1,8,0:0:0:0:
324,14,88061,6,0,L|273:9,1,45,0|0,0:0|0:0,0:0:0:0:
211,78,88406,2,0,L|166:81,1,45,2|8,0:0|0:0,0:0:0:0:
83,139,88751,1,8,0:0:0:0:
66,156,89095,6,0,B|111:178|166:151|166:151|238:179|238:179|313:152|313:152|354:193|421:174,1,360,12|0,0:0|0:0,0:0:0:0:
