osu file format v9

[General]
AudioFilename: 04. ALL 4 YOU.mp3
AudioLeadIn: 0
PreviewTime: 155596
Countdown: 1
SampleSet: Normal
StackLeniency: 0.7
Mode: 0
LetterboxInBreaks: 1

[Editor]
Bookmarks: 40428
DistanceSpacing: 1
BeatDivisor: 4
GridSize: 8

[Metadata]
Title:ALL 4 YOU
Artist:Touyama Nao
Creator:thinkinglf2
Version:Hard
Source:Kami nomi zo Shiru Sekai
Tags:

[Difficulty]
HPDrainRate:5
CircleSize:4
OverallDifficulty:5
ApproachRate:5
SliderMultiplier:1.6
SliderTickRate:1

[Events]
//Background and Video events
0,0,"bg.jpg"
//Break Periods
2,78086,88995
2,142702,155148
//Storyboard Layer 0 (Background)
//Storyboard Layer 1 (Fail)
//Storyboard Layer 2 (Pass)
//Storyboard Layer 3 (Foreground)
//Storyboard Sound Samples
//Background Colour Transformations
3,100,163,162,255

[TimingPoints]
964,384.615384615385,4,1,0,100,1,0
117812,-100,4,2,0,100,0,0
125579,-100,4,1,0,100,0,0
129425,-100,4,1,0,100,0,0
156275,-100,4,1,0,100,0,1
180980,-100,4,2,0,100,0,0
182230,-100,4,1,0,100,0,0
182422,-100,4,1,0,100,0,0
193198,-100,4,1,0,100,0,1
217813,-100,4,1,0,100,0,0

[Colours]
Combo1 : 3,185,194
Combo2 : 251,151,15
Combo3 : 245,56,174
Combo4 : 240,5,5

[HitObjects]
152,112,13271,2,0,B|208:136|224:184,1,80
272,112,13656,1,0
352,112,13848,2,0,B|408:144|408:184,1,80
432,240,14233,1,0
416,320,14425,1,0
352,272,14617,1,0
296,328,14810,2,0,B|200:328|120:264,1,160
80,232,15387,1,0
160,208,15579,2,0,B|248:272|328:256,1,160
368,112,16348,6,0,B|360:160|296:184,1,80
256,112,16733,1,0
160,112,16925,2,0,B|136:160|96:176,1,80
80,240,17310,1,0
96,320,17502,1,0
160,272,17694,1,0
216,328,17887,2,0,B|312:328|392:264,1,160
432,232,18464,1,0
352,208,18656,2,0,B|264:272|184:256,1,160
160,192,19233,1,0
96,136,19425,6,0,B|152:64|272:88,1,160
400,72,20194,1,0
424,144,20387,1,0
392,216,20579,1,0
272,320,20964,2,0,B|176:352|88:304,1,160
88,160,21734,1,0
144,104,21925,1,0
200,160,22117,1,0
328,64,22503,5,0
328,192,22694,1,0
328,312,22888,1,8
72,96,23271,5,0
128,152,23465,1,0
200,176,23656,1,0
256,72,24040,5,0
336,64,24233,1,0
400,112,24425,1,0
408,192,24617,1,8
256,144,25003,2,0,B|216:152|232:192,2,40
256,304,25580,6,0,B|184:312|176:240,2,80
256,304,26157,2,0,B|328:312|336:240,2,80
232,232,26734,1,0
200,160,26926,1,0
224,80,27118,2,0,B|312:80|408:32,1,160
379,45,27695,1,0
392,128,27888,2,0,B|320:144|248:240,1,160
264,219,28465,1,0
256,304,28657,6,0,B|328:312|336:240,2,80
256,304,29234,2,0,B|184:312|176:240,2,80
280,232,29811,1,0
312,160,30003,1,0
288,80,30195,2,0,B|200:80|104:32,1,160
133,45,30772,1,0
128,128,30965,2,0,B|200:144|280:240,1,160
258,215,31541,1,0
256,296,31733,6,0,B|288:336|328:288,3,80,0|0|0|0
352,216,32503,2,0,B|392:256|440:200,3,80
424,128,33272,1,0
344,128,33464,1,0
184,136,33849,2,0,B|64:136|64:136|64:160|64:160|64:272,1,240
128,304,34618,1,0
208,304,34810,2,0,B|312:280|296:192,1,160
224,200,35387,1,0
144,192,35579,2,0,B|104:232|56:176,3,80
72,112,36348,6,0,B|112:72|160:128,1,80
224,112,36733,2,0,B|384:112|384:112|384:288,1,320
256,296,37887,6,0,B|232:256|288:208|256:136,3,160
257,139,39233,1,0
257,139,39329,1,0
257,139,39425,1,0
120,64,39810,6,0,B|120:168,1,80
184,96,40194,1,0
256,56,40387,1,0
328,96,40579,1,8
328,176,40771,1,0
256,216,40964,1,0
120,296,41348,5,2
120,296,41733,1,2
320,64,42502,6,0,B|320:160,1,80
240,136,42886,1,8
280,208,43079,1,0
360,208,43271,1,0
440,208,43463,1,0
400,136,43656,1,8
400,136,43848,1,0
400,136,44040,1,0
400,304,44425,5,2
400,304,44810,1,2
192,64,45579,6,0,B|192:160,1,80
272,144,45964,1,8
232,216,46156,1,0
152,216,46348,1,0
72,216,46540,1,0
112,144,46733,1,8
112,144,46925,1,0
112,144,47117,1,0
112,304,47502,5,2
112,304,47887,1,2
328,80,48656,6,0,B|288:104|392:128|288:160,3,80
184,80,49617,2,0,B|224:104|120:128|224:160,2,80
256,128,50194,6,0,B|256:296,1,160
256,288,50771,1,0
256,288,50964,2,0,B|424:288,1,160
416,288,51540,1,0
416,288,51734,2,0,B|416:112,1,160
416,128,52311,1,0
416,128,52502,2,0,B|248:128,1,160
96,72,53272,6,0,B|96:240,1,160
136,160,53849,1,0
176,88,54041,2,0,B|176:256,1,160
216,176,54618,1,0
256,112,54810,2,0,B|256:288,3,160
408,328,56348,6,0,B|408:160,1,160
368,240,56926,1,0
336,312,57118,2,0,B|336:144,1,160
296,216,57695,1,0
256,288,57887,2,0,B|256:112,3,160
96,104,59426,6,0,B|96:200,1,80
96,264,59810,1,0
96,264,60002,1,0
96,264,60195,1,0
256,88,60772,5,0
312,144,60964,2,0,B|376:80,1,80
424,144,61348,1,0
424,144,61541,1,0
424,144,61733,2,0,B|400:240|288:264,1,160
264,320,62310,6,0,B|216:336|160:304,1,80
112,280,62694,1,0
56,224,62887,1,0
88,152,63079,1,0
160,128,63271,1,0
240,112,63464,1,0
304,64,63656,1,0
256,192,64041,12,0,65195
187,45,65579,6,0,B|179:149|267:181,1,160
96,176,66348,2,0,B|88:280|176:312,1,160
256,176,67117,2,0,B|320:256|184:240|272:320,2,160
184,80,68271,1,0
325,45,68657,6,0,B|333:149|245:181,1,160
416,176,69426,2,0,B|424:280|336:312,1,160
256,176,70195,2,0,B|192:256|328:240|240:320,2,160
256,176,71156,1,0
256,176,71349,1,0
192,128,71541,1,0
128,176,71733,1,0
104,304,72118,5,0
104,304,72310,1,0
104,304,72502,1,0
104,144,72887,1,0
104,144,73271,2,0,B|184:80|248:208|272:112,1,160
416,80,74041,2,0,B|416:216,2,120
256,192,74906,12,0,77886
104,264,90195,6,0,B|176:312|272:256,1,160
256,192,90771,1,0
255,264,90964,2,0,B|336:312|432:248,1,160
392,184,91541,1,0
392,104,91733,2,0,B|312:96|312:96|320:120|320:120|232:112,2,160
256,192,92887,1,0
408,264,93272,6,0,B|336:312|240:256,1,160
256,192,93848,1,0
256,264,94041,2,0,B|176:312|80:248,1,160
120,184,94618,1,0
120,104,94810,2,0,B|200:96|200:96|192:120|192:120|280:112,2,160
256,192,95964,1,0
136,304,96348,6,0,B|120:264|136:216,2,80
200,264,96925,2,0,B|328:304|456:256,1,240
424,104,97886,6,0,B|440:144|424:192,2,80
360,152,98463,2,0,B|232:112|104:160,1,240
120,304,99425,6,0,B|288:304,1,160
440,304,100194,5,0
336,176,100578,1,0
256,312,100963,5,0
176,304,101155,1,0
112,264,101347,1,0
72,192,101540,1,0
232,192,101924,2,0,B|336:192,1,80
424,72,102501,5,0
424,72,102694,1,0
264,64,103078,1,0
264,64,103270,1,0
144,168,103655,1,0
104,240,103847,1,0
112,320,104040,2,0,B|216:320|248:232,1,160
328,112,104810,2,0,B|232:112|336:192|184:192,1,160
136,88,105580,5,0
136,88,105772,1,0
296,88,106157,1,0
296,88,106349,1,0
376,168,106734,1,0
400,200,106830,1,0
416,240,106926,1,0
424,320,107118,2,0,B|224:336|112:216,1,320
128,232,108272,1,0
112,72,108657,6,0,B|184:144,1,80
248,128,109041,2,0,B|320:64,1,80
384,96,109426,2,0,B|432:144|360:176,3,80
352,240,110195,2,0,B|336:280|288:288,1,80
136,320,110772,2,0,B|232:264|216:176,1,160
296,184,111349,1,0
352,240,111541,1,0
400,152,111733,6,0,B|400:64,1,80
328,112,112118,2,0,B|248:112,1,80
168,112,112502,2,0,B|144:160|176:192,3,80
184,264,113272,2,0,B|216:320|264:320,1,80
320,312,113656,2,0,B|480:280|480:280|392:248|384:136,1,320
328,104,114618,1,0
256,88,114810,6,0,B|232:128|288:176|256:248,3,160
257,244,116156,1,0
257,244,116252,1,0
257,244,116348,1,0
96,240,116733,5,0
96,240,116925,1,0
96,240,117117,1,0
88,160,117310,1,0
96,80,117502,1,0
168,48,117694,1,0
240,80,117887,6,0,B|344:96|352:184,1,160
432,320,118657,2,0,B|320:336|248:312,1,160
128,312,119426,1,0
72,256,119618,1,0
128,200,119811,1,0
184,256,120003,2,0,B|304:296|392:168,1,240
256,80,120964,2,0,B|152:96|144:184,1,160
64,320,121733,6,0,B|176:336|248:312,1,160
384,312,122503,1,0
440,256,122695,1,0
384,200,122887,1,0
328,256,123080,2,0,B|208:296|120:168,1,240
56,128,123849,1,0
128,104,124041,1,8
200,136,124233,1,0
216,56,124426,6,0,B|288:96|376:72,1,160,8|8
432,128,125003,1,0
456,208,125195,1,0
416,280,125387,1,0
328,304,125579,6,0,B|288:280|392:256|288:224,3,80
184,304,126541,2,0,B|224:280|120:256|224:224,2,80
256,256,127118,2,0,B|256:168,1,80,0|0
176,160,127502,6,4,B|128:120|200:80,1,80,0|0
256,96,127887,2,0,B|368:96,1,80,0|0
416,96,128271,5,0
416,96,128464,1,0
416,96,128656,2,0,B|416:200,1,80
416,256,129041,6,0,B|440:280|400:304,2,40,8|0|8
336,272,129425,2,0,B|168:272,1,160
176,272,130003,1,0
96,312,130195,6,0,B|96:144,1,160
136,224,130772,1,0
176,296,130965,2,0,B|176:128,1,160
224,200,131541,1,0
256,272,131734,2,2,B|256:96,3,160
408,56,133272,6,0,B|408:224,1,160
376,144,133849,1,0
336,72,134041,2,0,B|336:240,1,160
296,160,134618,1,0
256,96,134810,2,2,B|256:272,3,160,0|2|0|2
328,216,136157,1,0
400,256,136349,1,0
400,96,136733,5,0
400,96,136830,1,0
400,96,136926,1,0
320,104,137118,2,0,B|256:56|160:112,2,160
256,192,138656,12,0,142502
160,64,156348,6,0,B|176:120|232:136,1,80
256,64,156733,1,0
312,120,156925,2,0,B|368:104|360:40,2,80
368,176,157502,1,0
392,248,157694,1,0
328,304,157887,2,0,B|208:304|176:240,1,160
120,208,158463,2,0,B|80:176|40:216,2,80
184,160,159040,1,0
160,320,159426,6,0,B|176:264|232:248,1,80
256,320,159810,1,0
312,264,160003,2,0,B|368:280|360:344,2,80
368,208,160580,1,0
392,136,160771,1,0
328,80,160964,2,0,B|208:80|176:144,1,160
104,120,161541,1,0
72,192,161733,1,0
96,272,161926,1,0
160,320,162118,1,0
320,320,162503,6,0,B|416:304|424:208,1,160
424,56,163272,2,0,B|320:96|312:192,1,160
200,56,164041,1,0
120,72,164233,1,0
72,136,164426,1,0
72,216,164618,1,0
112,288,164810,1,0
176,328,165002,1,0
256,336,165195,1,0
256,176,165579,5,0
256,176,165675,1,0
256,176,165772,1,0
440,328,166348,5,0
408,256,166541,1,0
376,184,166733,1,0
256,80,167117,5,0
184,120,167311,1,0
144,184,167503,1,0
160,264,167695,1,0
304,216,168080,1,0
304,216,168272,1,0
456,272,168657,5,8
384,232,168849,1,8
456,192,169041,1,0
384,152,169234,1,8
456,112,169426,1,8
296,80,169810,2,0,B|248:64|216:88,1,80
160,144,170194,2,0,B|192:168|248:160,1,80
320,160,170579,2,0,B|360:248|272:328,1,160
216,280,171156,2,0,B|208:336|152:352,2,80
136,256,171733,5,8
64,216,171925,1,8
136,176,172117,1,0
64,136,172310,1,8
136,96,172502,1,8
216,80,172887,2,0,B|264:64|296:88,1,80
352,144,173271,2,0,B|320:168|264:160,1,80
192,160,173656,2,0,B|176:248|232:344,1,160
288,274,174233,1,0
288,274,174425,1,0
368,280,174618,1,0
448,280,174810,6,0,B|448:264|448:264|448:224|360:160|288:224|288:272|288:272|288:288|288:288,1,240
216,312,175579,2,0,B|216:152,1,160
216,72,176156,1,0
136,72,176349,1,0
136,152,176541,1,0
256,192,176733,12,0,177502
120,320,177887,6,0,B|120:136,1,160
184,112,178464,1,0
256,80,178656,2,0,B|256:256,1,160
256,320,179233,1,2
336,320,179425,1,2
256,192,179618,12,0,180580
104,88,180964,6,0,B|160:128|264:120,1,160
392,216,181733,2,0,B|304:288|224:280,1,160
168,280,182310,1,0
256,144,182694,6,0,B|288:136|320:152,2,40
176,144,183079,1,0
96,168,183271,1,0
176,168,183464,1,0
96,192,183657,1,0
176,192,183849,1,0
96,216,184041,2,8,B|168:296|256:264,1,160
416,272,184810,5,0
416,232,184907,1,0
416,192,185003,1,0
416,112,185195,1,0
336,112,185387,1,0
256,112,185580,2,8,B|240:192|256:272,1,160,2|2
336,272,186157,2,0,B|336:104,1,160
256,112,186733,6,0,B|160:112,1,80
96,112,187118,2,0,B|96:208,1,80,0|8
96,272,187503,2,0,B|256:272,1,160,8|0
256,192,188079,1,0
336,192,188272,1,0
416,192,188464,1,0
328,72,188849,5,0
248,72,189041,1,0
168,72,189233,2,0,B|40:176|192:296,1,240,2|0
167,274,190002,1,8
167,274,190195,1,8
256,136,190579,5,2
256,136,190964,1,2
256,216,191156,1,0
256,296,191348,1,0
256,216,191541,1,2
120,304,191925,2,0,B|64:232|128:136,1,160,2|2
256,72,192696,5,0
256,112,192791,1,0
256,152,192887,1,0
160,280,193271,5,8
208,344,193464,1,8
256,280,193656,1,0
304,344,193848,1,8
352,280,194041,1,8
464,168,194425,1,0
384,136,194617,1,0
328,80,194810,2,0,B|208:80|176:144,1,160
128,184,195387,1,0
96,264,195579,1,0
176,240,195771,1,0
248,200,195963,1,0
160,64,196348,5,8
208,128,196540,1,8
256,64,196733,1,0
304,128,196925,1,8
352,64,197117,1,8
440,192,197502,1,0
384,248,197694,1,0
328,304,197886,2,0,B|208:304|176:240,1,160
128,200,198463,1,0
96,120,198656,1,0
176,144,198848,1,0
248,184,199040,1,0
280,272,199232,5,0
352,320,199425,2,0,B|352:160,3,160
296,104,200771,1,0
264,80,200867,1,0
232,56,200965,2,0,B|232:240,3,160
168,264,202311,1,0
112,208,202503,2,0,B|80:200|48:256,2,80,0|0|0
96,64,203271,5,0
160,104,203465,1,0
200,176,203657,1,0
256,312,204040,5,0
328,280,204234,1,0
392,224,204426,1,0
432,152,204617,1,0
272,176,205003,1,0
232,176,205099,1,0
200,160,205194,1,0
56,96,205580,5,8
120,144,205772,1,8
56,192,205965,1,0
120,240,206157,1,8
56,288,206349,1,8
224,264,206734,1,0
224,264,206830,1,0
224,264,206926,1,0
224,264,207118,2,0,B|224:104,3,160
304,104,208464,1,0
384,104,208657,5,8
448,144,208849,1,8
384,192,209041,1,0
448,232,209234,1,8
384,280,209426,1,8
224,264,209811,1,0
224,264,209907,1,0
224,264,210003,1,0
224,264,210195,2,0,B|224:104,3,160
144,104,211541,1,0
64,104,211733,6,0,B|64:120|64:120|64:160|152:224|224:160|224:112|224:112|224:96|224:96,1,240
296,72,212503,2,0,B|296:232,1,160
296,312,213080,1,0
376,312,213272,1,0
376,232,213464,1,0
256,192,213656,12,0,214425
392,64,214810,6,0,B|392:248,1,160
328,272,215387,1,0
256,304,215579,2,0,B|256:128,1,160
256,64,216156,1,2
216,64,216252,1,0
176,64,216348,1,2
256,192,216541,12,4,217503
96,112,217887,5,0
176,112,218079,1,0
256,112,218271,1,0
256,192,218464,1,0
256,272,218656,1,0
176,272,218848,1,0
96,264,219041,1,0
96,192,219233,1,0
256,192,219617,5,0
336,192,219810,1,0
416,192,220002,1,0
416,112,220194,1,0
416,32,220387,1,0
336,32,220579,1,0
256,32,220771,1,0
256,72,220867,1,0
256,112,220964,1,0
256,272,221348,1,0
96,272,221733,5,0
96,232,221829,1,0
96,192,221925,1,0
96,112,222117,1,0
176,112,222310,1,0
256,112,222502,1,2
256,192,222694,1,0
256,272,222886,1,10
176,272,223079,2,0,B|176:104,1,160,0|2
256,112,223656,6,0,B|352:112,1,80
416,112,224040,2,0,B|416:208,1,80,0|8
416,272,224425,2,0,B|256:272,1,160,2|2
96,272,225194,1,2
96,192,225386,1,2
104,112,225579,1,0
184,72,225771,5,2
264,72,225963,1,2
344,72,226155,2,0,B|472:176|320:296,1,240
346,274,226925,1,0
346,274,227117,1,0
256,136,227501,5,2
256,136,227694,1,0
256,136,227886,1,2
256,296,228271,1,0
256,216,228463,1,0
256,296,228655,1,0
256,192,229232,12,0,230193
