osu file format v12

[General]
AudioFilename: RingoRibbon.mp3
AudioLeadIn: 1500
PreviewTime: 131419
Countdown: 0
SampleSet: Soft
StackLeniency: 0.7
Mode: 0
LetterboxInBreaks: 0
WidescreenStoryboard: 1

[Editor]
DistanceSpacing: 2
BeatDivisor: 4
GridSize: 4

[Metadata]
Title:Ringo Ribbon
TitleUnicode:リンゴリボン
Artist:Touyama Nao & Yamazaki Haruka
ArtistUnicode:東山奈央 & 山崎はるか
Creator:Fycho
Version:Insane
Source:
Tags:神のみぞ知るセカイ Kami Nomi zo Shiru Sekai ハヤテのごとく! Hayate no Gotoku nakagawa kanon suirenji ruka 中川かのん 水蓮寺ルカ
BeatmapID:296435
BeatmapSetID:114490

[Difficulty]
HPDrainRate:7
CircleSize:4
OverallDifficulty:7
ApproachRate:9
SliderMultiplier:1.8
SliderTickRate:1

[Events]
//Background and Video events
0,0,"bg.jpg",0,0
//Break Periods
2,84404,90423
2,101961,104741
2,162132,169173
//Storyboard Layer 0 (Background)
//Storyboard Layer 1 (Fail)
//Storyboard Layer 2 (Pass)
//Storyboard Layer 3 (Foreground)
//Storyboard Sound Samples
//Background Colour Transformations
3,100,163,162,255

[TimingPoints]
-341,340.909090909091,4,2,3,50,1,0
1022,-100,4,2,1,60,0,0
17386,-100,4,2,2,60,0,0
19772,-66.6666666666667,4,2,2,60,0,0
19943,-100,4,2,1,50,0,0
28295,-100,4,2,1,60,0,0
31022,-100,4,2,1,50,0,0
39204,-100,4,2,1,70,0,0
41932,-133.333333333333,4,2,2,60,0,0
49772,-133.333333333333,4,2,2,40,0,0
50113,-100,4,2,1,70,0,0
55568,-100,4,2,1,80,0,1
84204,-100,4,2,1,60,0,0
91534,-200,4,2,1,60,0,0
92045,-100,4,2,1,60,0,0
92898,-200,4,2,1,60,0,0
93409,-100,4,2,1,60,0,0
93749,-100,4,2,2,60,0,0
96477,-100,4,2,1,50,0,0
115568,-100,4,2,1,70,0,0
118295,-133.333333333333,4,2,2,60,0,0
126136,-133.333333333333,4,2,2,40,0,0
126477,-100,4,2,1,70,0,0
131932,-100,4,2,1,80,0,1
159204,-100,4,2,1,80,0,0
161931,-100,4,2,1,60,0,0
181022,-133.333333333333,4,2,2,60,0,0
188863,-133.333333333333,4,2,2,40,0,0
189204,-100,4,2,1,70,0,0
194680,340.909090909091,4,2,1,60,1,1
194850,-133.333333333333,4,2,1,50,0,0
205077,-133.333333333333,4,2,1,40,0,0
205589,-111.111111111111,4,2,1,70,0,0
205930,-100,4,2,1,90,0,1
221952,-100,4,2,1,90,0,0
222123,-100,4,2,1,60,0,0
232861,-100,4,2,2,60,0,0
239680,-100,4,2,2,50,0,0
241043,-100,4,2,2,40,0,0
242407,-100,4,2,2,30,0,0
243770,-100,4,2,2,20,0,0
244964,-100,4,2,2,10,0,0

[Colours]
Combo1 : 255,23,23
Combo2 : 0,172,255
Combo3 : 255,113,255
Combo4 : 255,182,60

[HitObjects]
256,296,682,2,0,L|256:264,7,22.5,2|0|0|0|0|0|0|0,0:0|0:0|0:0|0:0|0:0|0:0|0:0|0:0,0:0:0:0:
256,236,1023,6,0,L|256:140,1,90,8|8,0:0|0:0,0:0:0:0:
256,236,2216,6,0,L|256:52,1,180,8|8,0:0|0:0,0:0:0:0:
256,56,3750,6,0,L|256:156,1,90,8|8,0:0|0:0,0:0:0:0:
256,56,4943,6,0,L|256:252,1,180,8|8,0:0|0:0,0:0:0:0:
256,236,5369,1,0,0:0:0:0:
256,236,5454,1,8,0:0:0:0:
308,320,5625,1,8,0:0:0:0:
308,320,5710,1,0,0:0:0:0:
308,320,5795,1,8,0:0:0:0:
440,80,6136,1,8,0:0:0:0:
440,80,6477,6,0,P|392:76|341:89,1,90,2|0,0:0|0:0,0:0:0:0:
184,184,6818,2,0,P|231:184|279:172,1,90,12|0,0:0|0:0,0:0:0:0:
336,96,7159,1,2,0:0:0:0:
378,207,7329,1,2,0:0:0:0:
280,196,7500,1,8,0:0:0:0:
320,300,7670,1,0,0:0:0:0:
264,232,7841,6,0,P|258:183|267:130,1,90,2|2,0:0|0:0,0:0:0:0:
320,300,8182,2,0,P|271:317|232:315,1,90,8|0,0:0|0:0,0:0:0:0:
96,248,8523,1,2,0:0:0:0:
88,362,8693,1,2,0:0:0:0:
96,248,8863,2,0,P|145:231|184:233,1,90,8|0,0:0|0:0,0:0:0:0:
382,287,9204,6,0,P|397:243|397:191,1,90,2|2,0:0|0:0,0:0:0:0:
332,80,9545,1,8,0:0:0:0:
440,120,9716,1,0,0:0:0:0:
310,212,9886,2,0,P|255:226|217:221,1,90,2|2,0:0|0:0,0:0:0:0:
112,172,10227,1,8,0:0:0:0:
184,288,10398,1,2,0:0:0:0:
112,172,10568,6,0,P|100:124|104:76,1,90,2|2,0:0|0:0,0:0:0:0:
188,196,10909,2,0,P|200:244|196:292,1,90,8|0,0:0|0:0,0:0:0:0:
132,356,11250,1,2,0:0:0:0:
296,316,11420,1,2,0:0:0:0:
184,288,11591,1,8,0:0:0:0:
348,248,11761,1,2,0:0:0:0:
348,116,11932,6,0,P|268:80|192:120,1,180,4|8,0:0|0:0,0:0:0:0:
216,256,12443,1,0,0:0:0:0:
124,194,12613,2,0,L|24:194,1,90,2|2,0:0|0:0,0:0:0:0:
124,80,12954,1,8,0:0:0:0:
124,194,13125,1,0,0:0:0:0:
124,80,13295,6,0,L|224:80,1,90,2|2,0:0|0:0,0:0:0:0:
220,160,13636,1,8,0:0:0:0:
304,40,13807,1,0,0:0:0:0:
220,160,13977,1,2,0:0:0:0:
360,132,14148,1,2,0:0:0:0:
276,248,14318,2,0,L|268:340,1,90,8|0,0:0|0:0,0:0:0:0:
353,346,14659,5,4,0:0:0:0:
276,248,14829,1,2,0:0:0:0:
204,352,15000,1,8,0:0:0:0:
368,224,15170,1,4,0:0:0:0:
368,224,15511,5,2,0:0:0:0:
248,80,15682,2,0,L|260:172,1,90,8|0,0:0|0:0,0:0:0:0:
368,224,16023,5,4,0:0:0:0:
472,120,16193,1,2,0:0:0:0:
316,120,16363,1,8,0:0:0:0:
403,0,16534,1,4,0:0:0:0:
403,0,16875,5,2,0:0:0:0:
316,120,17045,2,0,L|308:220,1,90,8|0,0:0|0:0,0:0:0:0:
472,120,17386,5,12,0:0:0:0:
400,268,17727,1,8,0:0:0:0:
352,112,18068,1,8,0:0:0:0:
244,236,18409,1,8,0:0:0:0:
320,348,18750,5,8,0:0:0:0:
320,348,18920,1,0,0:0:0:0:
267,142,19091,1,8,0:0:0:0:
267,142,19261,1,0,0:0:0:0:
96,264,19432,1,8,0:0:0:0:
96,264,19602,1,2,0:0:0:0:
96,264,19773,6,0,L|125:126,1,135.000005149842,8|0,0:0|0:0,0:0:0:0:
228,16,20113,5,4,0:0:0:0:
276,132,20284,1,0,0:0:0:0:
312,56,20454,5,8,0:0:0:0:
236,216,20625,1,0,0:0:0:0:
320,216,20795,5,2,0:0:0:0:
156,216,20966,1,2,0:0:0:0:
196,288,21136,5,8,0:0:0:0:
115,143,21307,1,0,0:0:0:0:
36,288,21477,6,0,P|92:320|204:280,1,180,2|8,0:0|0:0,0:0:0:0:
256,136,21988,1,0,0:0:0:0:
328,232,22159,2,0,P|337:289|337:329,1,90,2|2,0:0|0:0,0:0:0:0:
230,308,22500,1,8,0:0:0:0:
328,232,22670,1,0,0:0:0:0:
115,209,22841,5,2,0:0:0:0:
244,188,23011,1,2,0:0:0:0:
127,126,23182,5,8,0:0:0:0:
208,20,23352,1,0,0:0:0:0:
127,126,23523,6,0,P|134:171|124:224,1,90,2|2,0:0|0:0,0:0:0:0:
43,120,23863,2,0,P|36:71|48:24,1,90,8|0,0:0|0:0,0:0:0:0:
128,126,24204,5,2,0:0:0:0:
96,260,24375,1,2,0:0:0:0:
240,88,24545,1,8,0:0:0:0:
160,232,24716,2,0,P|228:272|324:232,1,180,2|2,0:0|0:0,0:0:0:0:
348,96,25227,1,8,0:0:0:0:
392,192,25398,1,0,0:0:0:0:
240,88,25568,5,2,0:0:0:0:
240,88,25909,2,0,L|60:132,1,180,8|2,0:0|0:0,0:0:0:0:
16,248,26420,1,2,0:0:0:0:
156,200,26591,1,8,0:0:0:0:
67,118,26761,1,0,0:0:0:0:
104,284,26932,6,0,P|152:324|268:296,1,180,2|8,0:0|0:0,0:0:0:0:
300,168,27443,1,0,0:0:0:0:
368,283,27613,1,2,0:0:0:0:
300,168,27784,1,2,0:0:0:0:
412,192,27954,1,8,0:0:0:0:
368,59,28125,1,0,0:0:0:0:
228,208,28295,5,4,0:0:0:0:
412,116,28466,1,2,0:0:0:0:
304,8,28636,1,8,0:0:0:0:
312,240,28807,2,0,P|256:288|156:256,1,180,4|2,0:0|0:0,0:0:0:0:
144,156,29318,1,8,0:0:0:0:
112,328,29488,5,4,0:0:0:0:
112,328,29829,1,2,0:0:0:0:
100,152,30000,2,0,L|120:244,1,90,8|0,0:0|0:0,0:0:0:0:
272,344,30341,1,8,0:0:0:0:
208,240,30511,1,2,0:0:0:0:
352,152,30682,5,8,0:0:0:0:
296,256,30852,1,2,0:0:0:0:
484,248,31023,5,4,0:0:0:0:
376,244,31193,1,0,0:0:0:0:
436,132,31363,1,8,0:0:0:0:
415,312,31534,5,0,0:0:0:0:
324,256,31704,1,2,0:0:0:0:
431,188,31874,1,2,0:0:0:0:
328,332,32045,2,0,P|276:348|228:336,1,90,8|0,0:0|0:0,0:0:0:0:
204,232,32386,6,0,P|156:156|64:156,1,180,2|8,0:0|0:0,0:0:0:0:
131,310,32898,2,0,P|214:345|294:301,1,180,2|2,0:0|0:0,0:0:0:0:
279,189,33409,1,8,0:0:0:0:
365,263,33579,1,0,0:0:0:0:
312,85,33750,5,2,0:0:0:0:
279,189,33920,1,2,0:0:0:0:
181,128,34091,1,8,0:0:0:0:
339,137,34261,5,0,0:0:0:0:
195,197,34432,1,2,0:0:0:0:
226,57,34602,1,2,0:0:0:0:
280,220,34773,5,8,0:0:0:0:
338,43,34943,1,0,0:0:0:0:
436,202,35113,6,0,P|385:242|271:212,1,180,2|8,0:0|0:0,0:0:0:0:
278,86,35625,1,2,0:0:0:0:
193,197,35795,2,0,L|181:289,1,90,0|2,0:0|0:0,0:0:0:0:
108,313,36136,1,8,0:0:0:0:
254,302,36307,1,0,0:0:0:0:
63,172,36477,5,2,0:0:0:0:
63,172,36818,2,0,L|54:74,1,90,8|0,0:0|0:0,0:0:0:0:
199,318,37159,2,0,L|109:360,1,90,2|2,0:0|0:0,0:0:0:0:
154,123,37500,6,0,L|196:34,1,90,8|0,0:0|0:0,0:0:0:0:
199,318,37841,2,0,L|100:309,1,90,2|2,0:0|0:0,0:0:0:0:
251,80,38182,6,0,L|331:24,1,90,8|0,0:0|0:0,0:0:0:0:
192,271,38523,2,0,L|111:214,1,90,2|2,0:0|0:0,0:0:0:0:
348,111,38863,2,0,L|446:103,1,90,8|0,0:0|0:0,0:0:0:0:
419,236,39204,5,4,0:0:0:0:
511,142,39375,1,2,0:0:0:0:
308,180,39545,1,8,0:0:0:0:
512,234,39716,1,4,0:0:0:0:
512,234,40057,5,2,0:0:0:0:
338,346,40227,1,8,0:0:0:0:
390,133,40398,1,4,0:0:0:0:
390,133,40738,5,2,0:0:0:0:
390,133,40824,1,2,0:0:0:0:
390,133,40909,1,8,0:0:0:0:
484,228,41079,1,2,0:0:0:0:
291,210,41250,1,8,0:0:0:0:
291,210,41335,1,0,0:0:0:0:
291,210,41420,1,2,0:0:0:0:
291,210,41505,1,0,0:0:0:0:
291,210,41591,2,0,P|216:213|184:122,1,180,8|4,0:0|0:0,0:0:0:0:
182,127,42102,6,0,L|165:200,1,67.5000025749208,0|8,0:0|0:0,0:0:0:0:
308,158,42442,1,10,0:0:0:0:
182,127,42613,2,0,L|109:147,1,67.5000025749208,0|0,1:0|0:0,0:0:0:0:
219,251,42954,1,8,0:0:0:0:
183,127,43125,1,2,0:0:0:0:
152,312,43295,5,0,0:0:0:0:
104,196,43465,1,2,0:0:0:0:
197,61,43636,2,0,L|182:127,1,67.5000025749208,8|10,0:0|0:0,0:0:0:0:
260,192,43977,5,0,1:0:0:0:
184,128,44147,1,0,1:0:0:0:
344,84,44317,1,8,0:0:0:0:
244,0,44488,1,2,0:0:0:0:
260,192,44660,5,2,0:0:0:0:
344,84,44830,2,0,P|370:60|409:47,1,67.5000025749208,0|8,0:0|0:0,0:0:0:0:
328,168,45171,1,10,0:0:0:0:
420,140,45341,2,0,P|453:150|484:177,1,67.5000025749208,0|0,1:0|0:0,0:0:0:0:
328,168,45682,1,8,0:0:0:0:
408,233,45852,1,2,0:0:0:0:
236,192,46023,5,0,0:0:0:0:
292,344,46193,1,2,0:0:0:0:
408,233,46363,1,8,0:0:0:0:
304,112,46534,1,8,0:0:0:0:
288,264,46704,5,0,1:0:0:0:
176,176,46875,1,0,1:0:0:0:
208,280,47045,1,8,0:0:0:0:
32,232,47216,1,0,0:0:0:0:
176,368,47386,5,4,0:0:0:0:
320,296,47557,2,0,L|244:296,1,67.5000025749208,0|8,0:0|0:0,0:0:0:0:
176,368,47898,1,8,0:0:0:0:
276,224,48068,2,0,L|200:224,1,67.5000025749208,0|0,1:0|0:0,0:0:0:0:
176,368,48409,1,8,0:0:0:0:
276,224,48579,1,2,0:0:0:0:
144,248,48750,6,0,L|121:311,1,67.5000025749208,0|2,0:0|0:0,0:0:0:0:
276,224,49091,1,8,0:0:0:0:
104,168,49261,1,8,0:0:0:0:
196,280,49432,1,0,1:0:0:0:
184,112,49602,1,0,1:0:0:0:
96,252,49773,1,0,1:0:0:0:
96,252,49858,1,0,1:0:0:0:
96,252,49943,1,0,1:0:0:0:
96,252,50028,1,0,1:0:0:0:
96,252,50113,6,0,P|104:312|100:348,1,90,4|0,0:0|0:0,0:0:0:0:
24,196,50454,1,8,0:0:0:0:
164,160,50625,1,4,0:0:0:0:
164,160,50966,5,2,0:0:0:0:
167,265,51136,1,8,0:0:0:0:
244,94,51307,1,4,0:0:0:0:
244,94,51648,5,2,0:0:0:0:
230,207,51818,1,8,0:0:0:0:
156,35,51988,1,4,0:0:0:0:
156,35,52329,5,2,0:0:0:0:
156,35,52415,1,0,0:0:0:0:
156,35,52500,1,8,0:0:0:0:
295,164,52670,1,4,0:0:0:0:
295,164,53011,5,2,0:0:0:0:
295,164,53096,1,0,0:0:0:0:
295,164,53182,1,8,0:0:0:0:
488,116,53693,1,2,0:0:0:0:
488,116,53778,1,0,0:0:0:0:
488,116,53863,1,12,0:0:0:0:
488,116,54204,6,0,P|466:155|463:208,1,90,4|0,0:0|0:0,0:0:0:0:
444,284,54545,1,8,0:0:0:0:
408,40,54716,2,0,P|377:129|390:220,1,180,4|0,0:0|0:0,0:0:0:0:
388,336,55227,1,8,0:0:0:0:
388,336,55568,6,0,P|315:357|204:340,1,180,4|8,0:0|0:0,0:0:0:0:
128,283,56079,1,0,0:0:0:0:
225,243,56250,2,0,P|209:194|213:154,1,90,2|2,0:0|0:0,0:0:0:0:
292,79,56591,1,8,0:0:0:0:
292,79,56761,1,0,0:0:0:0:
136,172,56932,6,0,P|146:121|170:88,1,90,2|2,0:0|0:0,0:0:0:0:
295,42,57273,1,8,0:0:0:0:
295,42,57443,1,2,0:0:0:0:
93,66,57613,2,0,P|127:27|164:11,1,90,0|2,0:0|0:0,0:0:0:0:
298,9,57954,1,8,0:0:0:0:
298,9,58124,1,0,0:0:0:0:
201,138,58295,6,0,P|234:168|283:183,1,90,2|2,0:0|0:0,0:0:0:0:
383,146,58636,1,8,0:0:0:0:
312,253,58807,1,0,0:0:0:0:
301,104,58977,1,2,0:0:0:0:
416,276,59148,1,2,0:0:0:0:
304,180,59318,1,8,0:0:0:0:
456,176,59488,1,2,0:0:0:0:
312,253,59659,6,0,P|263:262|221:255,1,90,0|2,0:0|0:0,0:0:0:0:
267,154,60000,1,8,0:0:0:0:
360,323,60170,2,0,P|267:342|183:328,1,180,2|2,0:0|0:0,0:0:0:0:
92,220,60682,1,8,0:0:0:0:
92,220,61023,6,0,P|179:237|266:217,1,180,4|8,0:0|0:0,0:0:0:0:
288,104,61534,1,0,0:0:0:0:
368,200,61704,2,0,P|352:260|360:300,1,90,2|2,0:0|0:0,0:0:0:0:
432,132,62045,2,0,P|388:108|340:100,1,90,8|0,0:0|0:0,0:0:0:0:
192,132,62386,6,0,P|232:156|276:164,1,90,2|2,0:0|0:0,0:0:0:0:
132,68,62727,2,0,P|108:108|108:156,1,90,8|2,0:0|0:0,0:0:0:0:
164,236,63068,2,0,P|128:300|28:304,1,180,0|8,0:0|0:0,0:0:0:0:
96,136,63579,1,0,0:0:0:0:
240,176,63750,6,0,P|260:224|252:272,1,90,2|2,0:0|0:0,0:0:0:0:
136,296,64091,1,8,0:0:0:0:
292,348,64261,1,0,0:0:0:0:
240,176,64432,1,2,0:0:0:0:
208,344,64602,1,2,0:0:0:0:
328,192,64773,2,0,P|320:140|300:108,1,90,8|0,0:0|0:0,0:0:0:0:
204,76,65113,5,2,0:0:0:0:
260,208,65284,1,2,0:0:0:0:
328,8,65454,1,8,0:0:0:0:
312,144,65625,1,2,0:0:0:0:
312,144,65966,1,2,0:0:0:0:
312,144,66051,1,2,0:0:0:0:
312,144,66136,2,0,P|336:200|336:248,1,90,8|0,0:0|0:0,0:0:0:0:
368,88,66477,6,0,P|409:171|408:272,1,180,4|8,0:0|0:0,0:0:0:0:
312,332,66988,1,0,0:0:0:0:
324,192,67159,2,0,P|280:220|240:224,1,90,2|2,0:0|0:0,0:0:0:0:
92,208,67500,1,8,0:0:0:0:
172,284,67670,1,0,0:0:0:0:
200,168,67841,6,0,P|196:120|180:76,1,90,2|2,0:0|0:0,0:0:0:0:
96,24,68182,1,8,0:0:0:0:
260,56,68352,1,2,0:0:0:0:
128,140,68523,2,0,P|116:188|124:236,1,90,0|2,0:0|0:0,0:0:0:0:
200,336,68863,1,8,0:0:0:0:
72,348,69034,1,0,0:0:0:0:
200,336,69204,6,0,P|264:348|300:336,1,90,2|2,0:0|0:0,0:0:0:0:
320,248,69545,1,8,0:0:0:0:
192,212,69716,1,0,0:0:0:0:
356,172,69886,1,2,0:0:0:0:
288,80,70057,1,2,0:0:0:0:
244,268,70227,1,8,0:0:0:0:
356,172,70398,1,2,0:0:0:0:
208,116,70568,6,0,P|160:108|108:124,1,90,2|2,0:0|0:0,0:0:0:0:
168,200,70909,1,8,0:0:0:0:
252,44,71079,2,0,P|160:28|76:48,1,180,2|2,0:0|0:0,0:0:0:0:
4,168,71591,1,8,0:0:0:0:
4,168,71932,6,0,P|91:147|179:160,1,180,4|8,0:0|0:0,0:0:0:0:
248,260,72443,1,0,0:0:0:0:
328,204,72613,2,0,P|363:227|413:233,1,90,2|2,0:0|0:0,0:0:0:0:
424,64,72954,2,0,P|400:104|394:147,1,90,8|0,0:0|0:0,0:0:0:0:
424,64,73295,6,0,P|384:40|333:31,1,90,2|2,0:0|0:0,0:0:0:0:
232,104,73636,1,8,0:0:0:0:
232,104,73807,1,2,0:0:0:0:
348,152,73977,2,0,P|357:198|350:241,1,90,0|2,0:0|0:0,0:0:0:0:
248,332,74318,1,8,0:0:0:0:
379,318,74488,1,0,0:0:0:0:
248,332,74659,6,0,L|144:300,1,90,2|2,0:0|0:0,0:0:0:0:
100,212,75000,1,8,0:0:0:0:
100,212,75170,1,0,0:0:0:0:
200,161,75341,2,0,P|248:165|288:189,1,90,2|2,0:0|0:0,0:0:0:0:
357,295,75682,2,0,P|288:308|224:288,1,135,8|0,0:0|0:0,0:0:0:0:
192,272,76022,6,0,P|144:256|96:268,1,90,2|2,0:0|0:0,0:0:0:0:
36,152,76363,1,8,0:0:0:0:
201,162,76534,2,0,L|381:95,1,180,2|2,0:0|0:0,0:0:0:0:
369,99,76960,1,2,0:0:0:0:
369,99,77045,1,8,0:0:0:0:
100,212,77386,5,4,0:0:0:0:
172,316,77557,1,0,0:0:0:0:
272,132,77727,1,8,0:0:0:0:
204,236,77898,1,0,0:0:0:0:
124,64,78068,1,8,0:0:0:0:
184,160,78238,1,2,0:0:0:0:
320,36,78409,1,8,0:0:0:0:
320,36,78750,6,0,P|392:84|408:180,1,180,2|8,0:0|0:0,0:0:0:0:
280,300,79261,1,0,0:0:0:0:
320,184,79432,2,0,P|350:218|364:268,1,90,8|2,0:0|0:0,0:0:0:0:
240,200,79773,2,0,P|210:163|202:118,1,90,8|0,0:0|0:0,0:0:0:0:
336,12,80113,5,2,0:0:0:0:
336,12,80454,1,8,0:0:0:0:
365,124,80625,1,0,0:0:0:0:
240,132,80795,2,0,P|196:164|184:212,1,90,8|2,0:0|0:0,0:0:0:0:
328,312,81136,2,0,P|298:269|257:256,1,90,8|0,0:0|0:0,0:0:0:0:
64,334,81477,5,4,0:0:0:0:
90,327,81562,1,0,0:0:0:0:
116,320,81648,1,2,0:0:0:0:
142,314,81733,1,0,0:0:0:0:
167,306,81818,1,8,0:0:0:0:
171,314,82159,5,4,0:0:0:0:
399,296,82415,1,4,0:0:0:0:
268,108,82670,1,4,0:0:0:0:
279,261,82841,5,4,0:0:0:0:
256,192,83011,12,2,84204,0:0:0:0:
185,180,91023,6,0,L|195:270,1,90,4|2,0:0|0:0,0:0:0:0:
220,67,91363,1,8,0:0:0:0:
92,102,91534,6,0,L|108:238,1,135,4|8,0:0|0:0,0:0:0:0:
312,214,92386,6,0,L|302:124,1,90,4|2,0:0|0:0,0:0:0:0:
277,327,92726,1,8,0:0:0:0:
405,292,92898,6,0,L|389:156,1,135,4|8,0:0|0:0,0:0:0:0:
216,112,93750,6,0,L|126:122,1,90,12|0,0:0|0:0,0:0:0:0:
329,147,94090,1,8,0:0:0:0:
216,112,94261,1,0,0:0:0:0:
292,260,94432,6,0,L|382:250,1,90,8|0,0:0|0:0,0:0:0:0:
179,225,94772,1,8,0:0:0:0:
292,260,94943,1,0,0:0:0:0:
180,224,95113,6,0,L|190:314,1,90,8|0,0:0|0:0,0:0:0:0:
215,111,95453,1,8,0:0:0:0:
180,224,95624,1,0,0:0:0:0:
328,148,95795,6,0,L|318:58,1,90,8|0,0:0|0:0,0:0:0:0:
293,261,96135,1,8,0:0:0:0:
328,148,96306,1,0,0:0:0:0:
198,192,96477,5,4,0:0:0:0:
238,319,96648,1,0,0:0:0:0:
369,300,96818,1,8,0:0:0:0:
265,153,96988,5,0,0:0:0:0:
196,268,97159,1,2,0:0:0:0:
292,358,97329,1,2,0:0:0:0:
324,228,97500,1,8,0:0:0:0:
198,192,97670,1,0,0:0:0:0:
238,319,97841,6,0,P|146:347|57:317,1,180,2|8,0:0|0:0,0:0:0:0:
86,144,98352,2,0,P|110:194|114:240,1,90,0|2,0:0|0:0,0:0:0:0:
69,338,98693,1,2,0:0:0:0:
34,219,98863,1,8,0:0:0:0:
161,258,99034,1,0,0:0:0:0:
8,288,99204,5,2,0:0:0:0:
104,172,99375,1,2,0:0:0:0:
120,356,99545,1,8,0:0:0:0:
0,209,99716,5,0,0:0:0:0:
152,132,99886,1,2,0:0:0:0:
100,300,100057,1,2,0:0:0:0:
80,108,100227,2,0,P|112:84|168:68,1,90,8|0,0:0|0:0,0:0:0:0:
252,212,100568,6,0,P|148:241|84:208,1,180,2|8,0:0|0:0,0:0:0:0:
72,48,101079,2,0,P|120:54|160:78,1,90,2|0,0:0|0:0,0:0:0:0:
168,176,101420,1,2,0:0:0:0:
264,120,101591,1,8,0:0:0:0:
264,120,101761,1,0,0:0:0:0:
296,149,105341,6,0,P|307:201|305:243,1,90,2|8,0:0|0:0,0:0:0:0:
223,309,105682,1,0,0:0:0:0:
154,142,105852,6,0,L|334:103,1,180,4|2,0:0|0:0,0:0:0:0:
420,219,106363,1,8,0:0:0:0:
345,319,106534,1,2,0:0:0:0:
306,191,106704,2,0,L|329:104,1,90,8|2,0:0|0:0,0:0:0:0:
420,219,107045,1,8,0:0:0:0:
345,319,107216,1,0,0:0:0:0:
378,149,107386,5,2,0:0:0:0:
306,285,107557,1,0,0:0:0:0:
186,250,107727,1,8,0:0:0:0:
306,203,107898,5,0,0:0:0:0:
177,335,108068,1,2,0:0:0:0:
192,152,108238,1,2,0:0:0:0:
266,328,108409,1,8,0:0:0:0:
101,163,108579,1,0,0:0:0:0:
294,147,108750,6,0,P|278:221|185:250,1,180,2|8,0:0|0:0,0:0:0:0:
102,162,109261,1,0,0:0:0:0:
125,315,109432,1,2,0:0:0:0:
176,103,109602,5,2,0:0:0:0:
86,235,109773,1,8,0:0:0:0:
206,311,109943,1,0,0:0:0:0:
206,178,110113,5,2,0:0:0:0:
286,249,110284,2,0,L|375:226,1,90,2|8,0:0|0:0,0:0:0:0:
206,178,110625,1,0,0:0:0:0:
344,188,110795,1,2,0:0:0:0:
216,136,110966,1,2,0:0:0:0:
336,235,111136,1,8,0:0:0:0:
224,88,111307,1,0,0:0:0:0:
328,280,111477,6,0,P|325:352|244:323,1,180,2|8,0:0|0:0,0:0:0:0:
162,176,111988,2,0,L|168:265,1,90,2|0,0:0|0:0,0:0:0:0:
208,371,112329,1,2,0:0:0:0:
243,257,112500,1,8,0:0:0:0:
120,301,112670,1,0,0:0:0:0:
281,352,112841,6,0,P|369:371|463:347,1,180,2|8,0:0|0:0,0:0:0:0:
457,256,113352,1,0,0:0:0:0:
352,143,113523,2,0,L|366:233,1,90,2|2,0:0|0:0,0:0:0:0:
450,124,113863,6,0,L|436:35,1,90,8|0,0:0|0:0,0:0:0:0:
368,232,114204,2,0,L|397:318,1,90,2|2,0:0|0:0,0:0:0:0:
376,84,114545,6,0,L|345:-1,1,90,8|0,0:0|0:0,0:0:0:0:
208,232,114886,2,0,L|292:276,1,90,2|2,0:0|0:0,0:0:0:0:
320,68,115227,2,0,L|311:159,1,90,8|0,0:0|0:0,0:0:0:0:
280,348,115568,5,4,0:0:0:0:
380,242,115738,1,2,0:0:0:0:
182,270,115909,1,8,0:0:0:0:
403,345,116079,1,4,0:0:0:0:
403,345,116420,5,2,0:0:0:0:
292,244,116591,1,8,0:0:0:0:
367,98,116761,1,4,0:0:0:0:
367,98,117102,5,2,0:0:0:0:
367,98,117187,1,2,0:0:0:0:
367,98,117273,1,8,0:0:0:0:
344,280,117443,1,2,0:0:0:0:
256,208,117613,1,8,0:0:0:0:
256,208,117699,1,0,0:0:0:0:
256,208,117784,1,2,0:0:0:0:
256,208,117869,1,0,0:0:0:0:
256,208,117954,2,0,P|208:220|164:208,1,90,8|0,0:0|0:0,0:0:0:0:
107,135,118295,5,4,0:0:0:0:
176,61,118466,1,0,0:0:0:0:
7,24,118636,2,0,L|23:98,1,67.5000025749208,8|8,0:0|0:0,0:0:0:0:
148,175,118977,1,0,1:0:0:0:
118,79,119148,1,0,0:0:0:0:
2,207,119318,2,0,L|74:230,1,67.5000025749208,8|2,0:0|0:0,0:0:0:0:
205,158,119659,5,0,0:0:0:0:
107,136,119830,1,2,0:0:0:0:
159,300,120000,2,0,L|215:249,1,67.5000025749208,8|8,0:0|0:0,0:0:0:0:
218,100,120341,5,0,1:0:0:0:
149,174,120512,1,0,1:0:0:0:
318,211,120682,1,8,0:0:0:0:
159,300,120852,1,0,0:0:0:0:
251,141,121023,5,2,0:0:0:0:
384,196,121193,2,0,L|318:211,1,67.5000025749208,0|8,0:0|0:0,0:0:0:0:
421,110,121534,1,8,0:0:0:0:
481,200,121704,1,0,1:0:0:0:
426,333,121874,2,0,L|410:267,1,67.5000025749208,0|8,0:0|0:0,0:0:0:0:
512,370,122215,1,2,0:0:0:0:
349,350,122386,5,0,0:0:0:0:
498,257,122557,1,2,0:0:0:0:
464,370,122727,1,8,0:0:0:0:
365,244,122897,1,8,0:0:0:0:
454,167,123068,5,0,1:0:0:0:
424,318,123238,1,0,1:0:0:0:
348,185,123409,1,8,0:0:0:0:
214,254,123579,1,0,0:0:0:0:
267,101,123750,5,4,0:0:0:0:
302,258,123920,1,0,0:0:0:0:
159,189,124091,1,8,0:0:0:0:
204,34,124261,1,8,0:0:0:0:
214,254,124432,5,0,1:0:0:0:
75,222,124602,1,0,0:0:0:0:
160,106,124773,1,8,0:0:0:0:
150,301,124943,1,2,0:0:0:0:
160,106,125113,5,0,0:0:0:0:
79,254,125284,1,2,0:0:0:0:
231,159,125454,2,0,P|278:135|299:132,1,67.5000025749208,8|8,0:0|0:0,0:0:0:0:
376,260,125795,5,0,1:0:0:0:
336,136,125966,1,0,2:0:0:0:
284,262,126136,1,0,1:0:0:0:
262,284,126221,1,0,1:0:0:0:
233,298,126307,1,0,1:0:0:0:
204,306,126392,1,0,1:0:0:0:
174,308,126477,6,0,P|125:315|78:308,1,90,4|0,0:0|0:0,0:0:0:0:
0,208,126818,1,8,0:0:0:0:
163,218,126988,2,0,L|346:178,1,180,4|2,0:0|0:0,0:0:0:0:
443,82,127500,1,8,0:0:0:0:
288,106,127670,6,0,L|262:284,1,180,4|2,0:0|0:0,0:0:0:0:
348,351,128182,1,8,0:0:0:0:
396,188,128352,1,4,0:0:0:0:
396,188,128693,5,2,0:0:0:0:
396,188,128778,1,0,0:0:0:0:
396,188,128863,1,8,0:0:0:0:
312,77,129034,1,4,0:0:0:0:
312,77,129375,5,2,0:0:0:0:
312,77,129460,1,0,0:0:0:0:
312,77,129545,1,8,0:0:0:0:
280,268,130057,1,2,0:0:0:0:
280,268,130142,1,0,0:0:0:0:
280,268,130227,2,0,P|225:315|130:271,1,180,12|4,0:0|0:0,0:0:0:0:
133,278,130909,5,8,0:0:0:0:
144,88,131079,2,0,P|208:144|200:244,1,180,4|0,0:0|0:0,0:0:0:0:
60,208,131591,1,8,0:0:0:0:
60,208,131932,6,0,L|236:144,2,180,4|8|2,0:0|0:0|0:0,0:0:0:0:
108,88,132784,1,2,0:0:0:0:
200,16,132954,2,0,P|252:8|288:16,1,90,8|0,0:0|0:0,0:0:0:0:
108,88,133295,5,2,0:0:0:0:
108,88,133466,1,2,0:0:0:0:
244,88,133636,2,0,P|293:107|320:132,1,90,8|0,0:0|0:0,0:0:0:0:
108,88,133977,5,2,0:0:0:0:
108,88,134148,1,2,0:0:0:0:
252,172,134318,2,0,P|284:213|296:248,1,90,8|0,0:0|0:0,0:0:0:0:
108,88,134659,5,2,0:0:0:0:
220,256,134829,2,0,P|227:307|220:343,1,90,2|8,0:0|0:0,0:0:0:0:
120,208,135170,5,0,0:0:0:0:
252,172,135341,2,0,P|284:213|296:247,1,90,2|2,0:0|0:0,0:0:0:0:
120,208,135682,5,8,0:0:0:0:
244,88,135852,2,0,P|293:107|320:132,1,90,0|2,0:0|0:0,0:0:0:0:
120,208,136193,5,2,0:0:0:0:
200,16,136363,2,0,P|252:8|288:16,1,90,8|2,0:0|0:0,0:0:0:0:
120,208,136704,5,0,0:0:0:0:
92,80,136875,1,2,0:0:0:0:
196,160,137045,1,8,0:0:0:0:
112,296,137216,1,0,0:0:0:0:
196,160,137386,6,0,P|288:136|356:184,2,180,4|8|2,0:0|0:0|0:0,0:0:0:0:
200,328,138238,1,2,0:0:0:0:
268,244,138409,2,0,L|280:136,1,90,8|0,0:0|0:0,0:0:0:0:
200,328,138750,5,2,0:0:0:0:
200,328,138920,1,2,0:0:0:0:
344,296,139091,2,0,L|356:188,1,90,8|0,0:0|0:0,0:0:0:0:
200,328,139432,5,2,0:0:0:0:
200,328,139602,1,2,0:0:0:0:
416,348,139773,2,0,L|428:240,1,90,8|0,0:0|0:0,0:0:0:0:
200,328,140113,5,2,0:0:0:0:
324,368,140284,1,2,0:0:0:0:
364,232,140454,2,0,P|336:188|292:164,1,90,8|0,0:0|0:0,0:0:0:0:
249,292,140795,5,2,0:0:0:0:
364,232,140966,1,2,0:0:0:0:
297,108,141136,2,0,P|246:96|198:110,1,90,8|0,0:0|0:0,0:0:0:0:
258,232,141477,5,2,0:0:0:0:
150,66,141648,1,2,0:0:0:0:
298,108,141818,1,8,0:0:0:0:
186,292,141988,1,2,0:0:0:0:
186,292,142329,5,2,0:0:0:0:
215,303,142415,1,0,0:0:0:0:
245,310,142500,1,8,0:0:0:0:
276,310,142585,1,0,0:0:0:0:
307,306,142670,1,8,0:0:0:0:
336,295,142755,1,0,0:0:0:0:
366,284,142841,6,0,P|412:236|396:125,2,180,4|8|2,0:0|0:0|0:0,0:0:0:0:
281,183,143693,1,2,0:0:0:0:
186,292,143863,2,0,P|133:307|81:296,1,90,8|0,0:0|0:0,0:0:0:0:
281,183,144204,5,2,0:0:0:0:
281,183,144375,1,2,0:0:0:0:
128,228,144545,2,0,P|79:201|50:156,1,90,8|0,0:0|0:0,0:0:0:0:
281,183,144886,5,2,0:0:0:0:
281,183,145057,1,2,0:0:0:0:
134,140,145227,2,0,P|119:87|130:35,1,90,8|0,0:0|0:0,0:0:0:0:
281,183,145568,5,2,0:0:0:0:
329,53,145738,2,0,P|382:38|434:49,1,90,2|8,0:0|0:0,0:0:0:0:
253,139,146079,5,0,0:0:0:0:
383,122,146250,2,0,P|431:148|460:193,1,90,2|2,0:0|0:0,0:0:0:0:
225,98,146591,5,8,0:0:0:0:
381,214,146761,2,0,P|396:267|385:319,1,90,0|2,0:0|0:0,0:0:0:0:
198,57,147102,5,2,0:0:0:0:
315,280,147273,2,0,P|288:328|243:357,1,90,8|2,0:0|0:0,0:0:0:0:
126,280,147613,5,0,0:0:0:0:
156,144,147784,1,2,0:0:0:0:
237,259,147954,1,8,0:0:0:0:
152,359,148125,1,0,0:0:0:0:
83,202,148295,6,0,L|61:13,2,180,4|8|2,0:0|0:0|0:0,0:0:0:0:
212,285,149148,1,2,0:0:0:0:
242,137,149318,2,0,L|190:55,1,90,8|0,0:0|0:0,0:0:0:0:
212,285,149659,5,2,0:0:0:0:
212,285,149829,1,2,0:0:0:0:
124,159,150000,2,0,L|26:163,1,90,8|0,0:0|0:0,0:0:0:0:
212,285,150341,5,2,0:0:0:0:
212,285,150511,1,2,0:0:0:0:
60,262,150682,2,0,L|14:346,1,90,8|0,0:0|0:0,0:0:0:0:
212,285,151023,5,2,0:0:0:0:
212,285,151363,2,0,P|275:324|375:284,1,180,8|2,0:0|0:0,0:0:0:0:
344,199,151875,1,2,0:0:0:0:
375,103,152045,2,0,P|427:95|466:101,1,90,8|0,0:0|0:0,0:0:0:0:
269,129,152386,6,0,P|261:81|267:31,1,90,2|2,0:0|0:0,0:0:0:0:
344,199,152727,1,8,0:0:0:0:
252,262,152898,2,0,L|74:227,1,180,2|2,0:0|0:0,0:0:0:0:
75,227,153324,1,2,0:0:0:0:
75,227,153409,1,8,0:0:0:0:
166,155,153579,1,2,0:0:0:0:
166,155,153665,1,2,0:0:0:0:
166,155,153750,5,4,0:0:0:0:
184,268,153920,1,0,0:0:0:0:
302,81,154091,1,8,0:0:0:0:
251,201,154261,1,0,0:0:0:0:
368,148,154432,1,8,0:0:0:0:
296,288,154602,1,2,0:0:0:0:
185,50,154773,1,8,0:0:0:0:
185,50,155113,5,2,0:0:0:0:
157,211,155284,1,2,0:0:0:0:
266,106,155454,1,8,0:0:0:0:
301,253,155625,1,0,0:0:0:0:
168,128,155795,1,8,0:0:0:0:
142,302,155966,1,2,0:0:0:0:
359,149,156136,1,8,0:0:0:0:
359,149,156477,5,2,0:0:0:0:
359,149,156818,1,8,0:0:0:0:
219,183,156988,1,0,0:0:0:0:
379,258,157159,1,8,0:0:0:0:
256,280,157329,1,2,0:0:0:0:
122,243,157500,2,0,P|80:219|58:180,1,90,8|0,0:0|0:0,0:0:0:0:
132,54,157841,5,4,0:0:0:0:
157,64,157926,1,0,0:0:0:0:
181,75,158011,1,2,0:0:0:0:
205,85,158096,1,0,0:0:0:0:
229,97,158182,1,8,0:0:0:0:
234,105,158523,5,4,0:0:0:0:
196,330,158779,1,4,0:0:0:0:
410,248,159034,1,4,0:0:0:0:
257,234,159204,5,4,0:0:0:0:
256,192,159375,12,8,161932,0:0:0:0:
256,192,169773,5,8,0:0:0:0:
256,192,170113,6,0,P|249:244|255:282,1,90,4|0,0:0|0:0,0:0:0:0:
378,206,170454,2,0,P|385:154|379:116,1,90,8|0,0:0|0:0,0:0:0:0:
163,43,170966,2,0,L|64:43,1,90,2|8,0:0|0:0,0:0:0:0:
176,130,171307,2,0,L|266:130,1,90,0|2,0:0|0:0,0:0:0:0:
364,76,171648,5,2,0:0:0:0:
428,184,171818,1,8,0:0:0:0:
352,272,171988,2,0,P|259:297|171:273,1,180,2|2,0:0|0:0,0:0:0:0:
256,132,172500,1,8,0:0:0:0:
163,43,172670,1,0,0:0:0:0:
256,132,172841,6,0,L|265:233,1,90,2|2,0:0|0:0,0:0:0:0:
239,358,173182,1,8,0:0:0:0:
361,316,173352,1,2,0:0:0:0:
267,40,173693,2,0,L|364:40,1,90,2|8,0:0|0:0,0:0:0:0:
492,96,174034,1,0,0:0:0:0:
356,152,174204,5,2,0:0:0:0:
356,152,174375,1,2,0:0:0:0:
199,112,174545,1,8,0:0:0:0:
199,112,174716,1,2,0:0:0:0:
283,217,174886,2,0,P|305:261|305:314,1,90,0|2,0:0|0:0,0:0:0:0:
151,253,175227,2,0,P|129:209|129:156,1,90,8|0,0:0|0:0,0:0:0:0:
233,51,175568,5,2,0:0:0:0:
199,214,175738,2,0,L|186:306,2,90,0|8|0,0:0|0:0|0:0,0:0:0:0:
140,96,176250,1,2,0:0:0:0:
286,181,176420,1,2,0:0:0:0:
338,79,176591,2,0,P|386:64|437:64,1,90,8|0,0:0|0:0,0:0:0:0:
480,124,176932,5,2,0:0:0:0:
436,218,177102,1,2,0:0:0:0:
366,157,177273,1,8,0:0:0:0:
322,251,177443,1,0,0:0:0:0:
224,166,177613,1,2,0:0:0:0:
262,324,177783,1,2,0:0:0:0:
130,197,177954,1,8,0:0:0:0:
174,353,178125,1,0,0:0:0:0:
317,194,178295,6,0,L|419:160,1,90,2|2,0:0|0:0,0:0:0:0:
292,82,178636,1,8,0:0:0:0:
185,161,178807,1,0,0:0:0:0:
203,44,178977,1,2,0:0:0:0:
228,240,179148,1,2,0:0:0:0:
292,82,179318,1,8,0:0:0:0:
150,181,179488,6,0,P|81:202|25:124,1,180,4|2,0:0|0:0,0:0:0:0:
24,124,179915,1,0,0:0:0:0:
24,124,180000,1,8,0:0:0:0:
204,44,180170,1,0,0:0:0:0:
151,181,180341,1,8,0:0:0:0:
203,44,180511,1,2,0:0:0:0:
233,36,180596,1,2,0:0:0:0:
264,36,180682,1,8,0:0:0:0:
294,42,180767,1,0,0:0:0:0:
318,61,180852,1,2,0:0:0:0:
337,85,180937,1,2,0:0:0:0:
352,112,181023,6,0,P|365:204|350:257,1,135.000005149842,4|8,0:0|0:0,0:0:0:0:
265,310,181534,1,8,0:0:0:0:
280,180,181704,2,0,P|216:161|149:181,1,135.000005149842,0|8,1:0|0:0,0:0:0:0:
60,271,182216,6,0,P|126:289|195:266,1,135.000005149842,2|2,0:0|0:0,0:0:0:0:
224,136,182727,1,8,0:0:0:0:
224,136,182898,1,8,0:0:0:0:
189,271,183068,1,0,1:0:0:0:
189,271,183238,1,0,1:0:0:0:
296,200,183409,2,0,L|368:184,1,67.5000025749208,8|0,0:0|0:0,0:0:0:0:
445,218,183750,5,2,0:0:0:0:
445,218,184091,2,0,L|460:147,1,67.5000025749208,8|8,0:0|0:0,0:0:0:0:
368,237,184432,2,0,L|354:303,1,67.5000025749208,0|0,1:0|0:0,0:0:0:0:
296,201,184773,1,8,0:0:0:0:
445,217,184943,6,0,L|414:362,1,135.000005149842,2|2,0:0|0:0,0:0:0:0:
300,366,185454,1,8,0:0:0:0:
244,282,185625,1,0,0:0:0:0:
332,151,185795,2,0,P|361:205|335:292,1,135.000005149842,0|8,1:0|0:0,0:0:0:0:
332,152,186477,6,0,P|264:172|200:152,1,135.000005149842,4|8,0:0|0:0,0:0:0:0:
140,88,186988,1,8,0:0:0:0:
212,28,187159,1,0,1:0:0:0:
212,28,187500,1,8,0:0:0:0:
140,88,187670,6,0,L|116:220,1,135.000005149842,2|2,0:0|0:0,0:0:0:0:
136,312,188182,1,8,0:0:0:0:
136,312,188352,1,8,0:0:0:0:
234,349,188523,1,0,1:0:0:0:
197,227,188693,1,0,1:0:0:0:
280,280,188863,1,0,1:0:0:0:
320,288,188949,1,0,1:0:0:0:
363,285,189034,1,0,1:0:0:0:
395,264,189119,1,0,1:0:0:0:
417,236,189204,6,0,P|436:192|439:147,1,90,4|0,0:0|0:0,0:0:0:0:
371,63,189545,1,8,0:0:0:0:
341,206,189716,1,4,0:0:0:0:
341,206,190057,5,2,0:0:0:0:
286,97,190227,1,8,0:0:0:0:
279,280,190398,1,4,0:0:0:0:
279,280,190738,5,2,0:0:0:0:
223,168,190909,1,8,0:0:0:0:
227,350,191079,1,4,0:0:0:0:
227,350,191420,1,2,0:0:0:0:
227,350,191505,1,0,0:0:0:0:
227,350,191591,1,8,0:0:0:0:
156,229,191761,6,0,P|141:142|206:81,1,180,4|2,0:0|0:0,0:0:0:0:
201,82,192187,1,0,0:0:0:0:
201,82,192273,1,8,0:0:0:0:
217,101,192783,5,2,0:0:0:0:
217,101,192869,1,0,0:0:0:0:
217,101,192954,2,0,P|271:123|312:120,1,90,12|0,0:0|0:0,0:0:0:0:
453,60,193295,5,4,0:0:0:0:
371,142,193466,2,0,P|362:191|365:242,1,90,0|8,0:0|0:0,0:0:0:0:
452,344,193807,2,0,P|368:321|272:341,1,180,4|0,0:0|0:0,0:0:0:0:
176,256,194318,1,8,0:0:0:0:
468,72,194680,5,4,0:0:0:0:
268,320,196043,5,2,0:0:0:0:
80,156,197407,5,4,0:0:0:0:
204,228,198770,5,2,0:0:0:0:
363,84,199793,1,2,0:0:0:0:
363,84,200134,5,4,0:0:0:0:
399,204,200475,1,2,0:0:0:0:
279,242,200816,1,2,0:0:0:0:
269,116,201157,1,2,0:0:0:0:
356,207,201498,5,2,0:0:0:0:
276,304,201839,1,2,0:0:0:0:
184,217,202180,1,2,0:0:0:0:
287,145,202520,1,2,0:0:0:0:
322,266,202861,6,0,P|270:306|197:293,1,135.000005149842,2|8,0:0|0:0,0:0:0:0:
322,265,203543,2,0,P|353:231|452:227,1,135.000005149842,2|8,0:0|0:0,0:0:0:0:
283,99,204225,6,0,P|244:148|163:145,1,135.000005149842,2|8,0:0|0:0,0:0:0:0:
121,59,204736,2,0,L|146:195,1,135.000005149842,2|8,0:0|0:0,0:0:0:0:
155,220,205162,1,8,0:0:0:0:
168,247,205248,1,8,0:0:0:0:
193,266,205333,1,8,0:0:0:0:
221,275,205418,1,8,0:0:0:0:
252,273,205503,1,8,0:0:0:0:
286,257,205589,6,0,P|323:228|403:217,1,121.499996292114,4|0,0:0|0:0,0:0:0:0:
424,256,205930,6,0,L|455:70,1,180,12|2,0:0|0:0,0:0:0:0:
280,100,206441,1,2,0:0:0:0:
385,112,206611,2,0,P|409:157|411:201,1,90,8|0,0:0|0:0,0:0:0:0:
280,100,206952,5,2,0:0:0:0:
280,100,207123,1,2,0:0:0:0:
260,212,207293,2,0,P|244:261|215:294,1,90,8|2,0:0|0:0,0:0:0:0:
280,100,207634,5,0,0:0:0:0:
260,212,207805,1,2,0:0:0:0:
152,240,207975,2,0,P|107:264|63:266,1,90,8|0,0:0|0:0,0:0:0:0:
172,136,208316,5,2,0:0:0:0:
280,100,208486,1,2,0:0:0:0:
368,172,208657,2,0,P|381:224|372:276,1,90,8|0,0:0|0:0,0:0:0:0:
248,300,208998,5,2,0:0:0:0:
368,172,209168,1,2,0:0:0:0:
192,208,209339,1,8,0:0:0:0:
352,280,209509,1,0,0:0:0:0:
268,124,209680,5,2,0:0:0:0:
248,300,209850,1,2,0:0:0:0:
368,172,210020,1,8,0:0:0:0:
348,360,210191,1,2,0:0:0:0:
348,360,210532,2,0,P|408:368|448:352,1,90,2|8,0:0|0:0,0:0:0:0:
464,232,210873,1,0,0:0:0:0:
392,100,211043,6,0,B|342:96|311:136|311:136|273:103|228:118,1,180,4|8,0:0|0:0,0:0:0:0:
146,212,211555,1,0,0:0:0:0:
256,295,211725,2,0,P|258:236|239:192,1,90,2|2,0:0|0:0,0:0:0:0:
141,128,212066,1,8,0:0:0:0:
141,128,212236,1,0,0:0:0:0:
80,248,212407,6,0,P|137:259|184:247,1,90,2|2,0:0|0:0,0:0:0:0:
253,148,212748,1,8,0:0:0:0:
253,148,212918,1,2,0:0:0:0:
136,76,213089,2,0,P|125:134|138:180,1,90,0|2,0:0|0:0,0:0:0:0:
232,264,213430,1,8,0:0:0:0:
232,264,213600,1,0,0:0:0:0:
236,124,213770,6,0,P|279:112|324:117,1,90,2|2,0:0|0:0,0:0:0:0:
363,227,214111,1,8,0:0:0:0:
363,227,214281,1,0,0:0:0:0:
468,161,214452,1,2,0:0:0:0:
468,161,214623,1,2,0:0:0:0:
441,306,214793,1,8,0:0:0:0:
441,306,214964,1,0,0:0:0:0:
276,336,215134,6,0,P|224:344|182:335,1,90,2|2,0:0|0:0,0:0:0:0:
92,264,215475,1,8,0:0:0:0:
124,150,215645,2,0,P|201:124|289:158,1,180,2|2,0:0|0:0,0:0:0:0:
415,289,216157,2,0,P|421:239|430:190,1,90,8|0,0:0|0:0,0:0:0:0:
412,76,216498,5,4,0:0:0:0:
336,212,216668,1,0,0:0:0:0:
312,0,216839,1,8,0:0:0:0:
344,140,217009,1,0,0:0:0:0:
408,8,217180,1,8,0:0:0:0:
264,157,217350,1,2,0:0:0:0:
508,80,217520,1,8,0:0:0:0:
508,80,217861,6,0,P|446:129|344:109,1,180,2|8,0:0|0:0,0:0:0:0:
182,14,218373,1,0,0:0:0:0:
197,197,218543,1,8,0:0:0:0:
296,37,218714,1,2,0:0:0:0:
248,286,218884,1,8,0:0:0:0:
248,286,219225,6,0,P|316:298|349:289,1,90,2|2,0:0|0:0,0:0:0:0:
430,195,219566,2,0,P|444:133|360:69,1,180,8|8,0:0|0:0,0:0:0:0:
278,157,220077,1,2,0:0:0:0:
190,77,220248,2,0,P|135:64|91:71,1,90,8|0,0:0|0:0,0:0:0:0:
10,210,220589,6,0,P|58:209|105:191,1,90,4|2,0:0|0:0,0:0:0:0:
97,195,220844,1,0,0:0:0:0:
97,195,220930,1,8,0:0:0:0:
107,204,221270,5,4,0:0:0:0:
304,321,221526,1,4,0:0:0:0:
304,91,221782,1,4,0:0:0:0:
221,219,221952,5,4,0:0:0:0:
221,219,222293,2,0,P|312:244|404:216,1,180,8|2,0:0|0:0,0:0:0:0:
426,96,222805,1,2,0:0:0:0:
472,232,222975,2,0,L|460:336,1,90,8|0,0:0|0:0,0:0:0:0:
364,160,223316,5,2,0:0:0:0:
472,232,223486,1,2,0:0:0:0:
328,304,223657,2,0,L|232:328,1,90,8|2,0:0|0:0,0:0:0:0:
364,160,223998,1,8,0:0:0:0:
328,304,224168,1,2,0:0:0:0:
208,208,224339,2,0,L|216:108,1,90,8|0,0:0|0:0,0:0:0:0:
72,156,224680,6,0,L|64:248,1,90,2|2,0:0|0:0,0:0:0:0:
244,168,225020,2,0,L|251:78,1,90,8|0,0:0|0:0,0:0:0:0:
104,200,225361,2,0,L|96:292,1,90,2|2,0:0|0:0,0:0:0:0:
276,132,225702,2,0,L|283:42,1,90,8|0,0:0|0:0,0:0:0:0:
136,234,226043,5,2,0:0:0:0:
285,191,226214,1,2,0:0:0:0:
153,98,226384,1,8,0:0:0:0:
217,223,226555,1,2,0:0:0:0:
115,328,226725,2,2,P|72:336|25:328,1,90,8|2,0:0|0:0,0:0:0:0:
288,272,227066,2,0,P|334:275|386:267,1,90,8|0,0:0|0:0,0:0:0:0:
368,96,227407,6,0,P|312:32|216:40,1,180,4|8,0:0|0:0,0:0:0:0:
212,142,227918,1,0,0:0:0:0:
136,244,228089,2,0,P|88:260|32:252,1,90,2|2,0:0|0:0,0:0:0:0:
290,261,228430,2,0,P|330:297|342:341,1,90,8|0,0:0|0:0,0:0:0:0:
136,244,228770,5,2,0:0:0:0:
290,261,228941,1,2,0:0:0:0:
136,244,229111,2,0,P|96:216|72:176,1,90,8|2,0:0|0:0,0:0:0:0:
140,28,229452,1,8,0:0:0:0:
152,172,229623,1,2,0:0:0:0:
140,28,229793,1,8,0:0:0:0:
72,172,229964,1,0,0:0:0:0:
204,72,230134,6,0,P|272:47|304:47,1,90,4|2,0:0|0:0,0:0:0:0:
414,124,230475,1,8,0:0:0:0:
427,253,230645,2,0,P|343:277|259:229,1,180,2|2,0:0|0:0,0:0:0:0:
248,67,231157,1,8,0:0:0:0:
173,157,231327,6,0,L|199:346,1,180,4|2,0:0|0:0,0:0:0:0:
227,233,231839,1,8,0:0:0:0:
138,364,232009,1,0,0:0:0:0:
227,233,232180,1,8,0:0:0:0:
273,384,232350,1,2,0:0:0:0:
136,276,232520,2,0,P|76:264|40:268,1,90,8|0,0:0|0:0,0:0:0:0:
136,276,232861,6,0,P|200:320|296:304,1,180,12|8,0:0|0:0,0:0:0:0:
307,158,233373,1,2,0:0:0:0:
382,260,233543,2,0,P|435:276|477:272,1,90,8|2,0:0|0:0,0:0:0:0:
387,148,233884,1,8,0:0:0:0:
312,280,234055,1,2,0:0:0:0:
228,181,234225,6,0,L|246:92,1,90,8|2,0:0|0:0,0:0:0:0:
312,280,234566,1,8,0:0:0:0:
228,180,234736,1,2,0:0:0:0:
208,365,234907,1,8,0:0:0:0:
328,298,235077,1,2,0:0:0:0:
328,298,235162,1,2,0:0:0:0:
328,298,235248,2,0,P|375:290|423:294,1,90,8|0,0:0|0:0,0:0:0:0:
208,364,235589,6,0,P|156:292|172:196,1,180,12|8,0:0|0:0,0:0:0:0:
288,232,236100,1,2,0:0:0:0:
376,132,236270,1,8,0:0:0:0:
240,96,236441,1,2,0:0:0:0:
288,232,236611,2,0,L|380:224,1,90,8|2,0:0|0:0,0:0:0:0:
216,168,236952,5,8,0:0:0:0:
208,320,237123,2,0,L|304:312,1,90,2|8,0:0|0:0,0:0:0:0:
216,168,237464,1,2,0:0:0:0:
208,320,237634,2,0,P|116:338|37:302,1,180,10|12,0:0|0:0,0:0:0:0:
50,157,238145,6,0,P|138:133|226:177,1,180,4|2,0:0|0:0,0:0:0:0:
307,296,238657,2,0,L|318:204,1,90,8|0,0:0|0:0,0:0:0:0:
337,36,238998,1,8,0:0:0:0:
412,188,239168,1,0,0:0:0:0:
404,89,239339,1,0,1:0:0:0:
308,296,239509,1,4,0:0:0:0:
256,192,239680,12,0,244964,0:0:0:0:
