osu file format v5

[General]
AudioFilename: 01_(TourBillon)_Break the Chain.mp3
AudioLeadIn: 0
PreviewTime: -1
Countdown: 1
SampleSet: Normal
StackLeniency: 0.7
Mode: 0
LetterboxInBreaks: 1
SkinPreference:Default

[Metadata]
Title:Break the Chain
Artist:Tourbillon
Creator:laikung0
Version:DARK KIVA
Source:
Tags:

[Difficulty]
HPDrainRate:6
CircleSize:5
OverallDifficulty:6
SliderMultiplier:1.4
SliderTickRate:4

[Events]
//Background and Video events
0,0,"026137.jpg"
//Break Periods
2,154290,165585
//Storyboard Layer 0 (Background)
//Storyboard Layer 1 (Failing)
//Storyboard Layer 2 (Passing)
//Storyboard Layer 3 (Foreground)
//Storyboard Sound Samples
//Background Colour Transformations
3,100,255,255,255

[TimingPoints]
835,545.454545454545,4,1,0,0,1,0
9290,-100,4,1,0,100,0,0
218997,-100,4,1,0,0,0,0
226019,-100,4,1,0,100,0,0

[Colours]
Combo1 : 0,0,0
Combo2 : 0,0,0
Combo3 : 0,0,0
Combo4 : 0,0,0
Combo5 : 0,0,0

[HitObjects]
256,192,1380,5,0
128,192,1926,1,0
256,192,2471,1,0
256,320,3016,1,0
256,192,3562,1,0
384,192,4107,1,0
256,192,4653,1,0
256,64,5198,1,0
256,192,5744,1,0
128,192,6289,1,0
256,192,6834,1,0
256,320,7380,1,0
256,192,7925,1,0
384,192,8471,1,0
256,192,9016,1,0
128,192,9562,5,0
128,192,10108,2,0,L|128:39,1,140
224,128,11199,1,0
320,128,11744,1,0
416,128,12290,2,0,L|416:280,1,140
320,256,13380,1,0
192,256,13926,1,0
256,160,14471,2,0,L|256:7,1,140
192,96,15562,1,0
192,192,16108,1,0
288,192,16653,2,0,L|430:192,1,140
416,288,17744,1,0
192,288,18835,5,0
192,224,19108,1,0
192,160,19380,1,0
352,160,20199,5,0
352,224,20471,1,0
224,224,21017,2,0,L|145:224,1,70
96,224,21562,1,0
96,96,22107,2,0,L|176:97,1,70
224,96,22653,1,0
288,160,23199,5,0
288,96,23471,1,0
288,32,23744,1,0
128,64,24562,5,0
128,128,24835,1,0
192,128,25108,2,0,L|192:48,1,70
128,64,25653,1,0
320,96,27562,5,0
320,160,27835,1,0
256,128,28108,1,0
256,64,28380,1,0
320,32,28653,1,0
320,96,28926,1,0
320,160,29199,1,0
256,192,29471,1,0
256,128,29744,1,0
256,192,30017,1,0
320,192,30289,2,0,L|256:64,1,140
256,64,31108,1,0
256,128,31380,1,0
160,64,31926,5,0
160,128,32198,1,0
160,192,32471,1,0
32,224,33289,5,0
32,288,33561,1,0
128,288,34108,5,0
192,288,34381,1,0
192,224,34653,1,0
352,224,35471,2,0,L|423:225,3,70
448,192,36494,5,0
352,160,36835,2,0,L|352:77,1,70
288,96,37380,1,0
288,160,37653,1,0
224,96,37926,1,0
224,160,38199,1,0
160,160,38471,1,0
160,96,38744,1,0
96,160,39017,2,0,L|96:77,1,70
96,90,39562,1,0
128,32,40653,5,0
192,32,40926,1,0
224,96,41198,1,0
192,160,42017,5,0
128,160,42289,1,0
96,96,42835,5,0
160,96,43108,1,0
224,96,43380,1,0
224,160,44199,2,0,L|295:161,2,70
256,224,45017,6,0,L|102:224,1,140
96,160,45835,1,0
192,160,46380,1,0
256,160,46653,1,0
320,96,47199,2,0,L|166:96,1,140
192,32,48017,1,0
288,32,48562,1,0
288,96,48835,1,0
224,96,49108,2,0,L|148:96,1,70
160,32,49653,2,0,L|6:32,1,140
160,96,51017,5,0
160,160,51290,1,0
224,192,51563,1,0
224,128,51835,1,0
288,96,52108,1,0
288,160,52381,1,0
288,224,52654,1,0
224,256,52926,1,0
224,192,53199,1,0
224,256,53472,1,0
288,256,53744,2,0,L|224:128,1,140
352,128,54835,2,0,L|423:129,3,70
480,128,55926,5,0
416,128,56199,2,0,L|416:45,1,70
352,64,56744,1,0
288,64,57017,1,0
288,128,57290,1,0
288,192,57562,1,0
224,192,57835,2,0,L|224:109,1,70
160,128,58380,1,0
96,128,58653,1,0
96,192,58926,1,0
96,128,59199,1,0
160,128,59472,1,0
160,64,59745,1,0
224,64,60017,1,0
224,128,60290,1,0
288,128,60563,1,0
288,192,60835,1,0
224,192,61108,1,0
352,288,62471,2,0,L|274:287,6,70
352,160,64653,5,0
384,160,64926,2,0,L|384:77,1,70
320,160,65471,1,0
256,160,65744,1,0
320,96,66017,1,0
256,96,66289,1,0
192,96,66562,2,0,L|192:13,1,70
128,32,67107,1,0
128,96,67380,1,0
128,160,67653,1,0
64,160,67926,1,0
128,224,68199,1,0
192,224,68471,1,0
192,288,68744,1,0
256,288,69017,1,0
320,288,69290,1,0
320,224,69562,1,0
320,160,69835,1,0
352,96,70108,1,0
384,160,70380,1,0
320,224,70653,1,0
192,224,71199,5,0
192,224,71471,2,0,L|106:224,1,70
128,128,72290,6,0,L|42:128,1,70
64,128,72835,1,0
128,32,73380,5,0
128,32,73652,2,0,L|212:32,1,70
192,128,74471,6,0,L|276:128,1,70
256,128,75016,1,0
192,224,75562,5,0
192,224,75834,2,0,L|106:224,1,70
96,128,76653,6,0,L|10:128,1,70
32,128,77198,1,0
128,128,77744,6,0,L|480:352|544:256|148:19,1,980
64,96,82107,5,0
128,96,82379,1,0
192,96,82652,1,0
224,32,84289,5,0
288,32,84562,1,0
352,32,84835,1,0
160,96,86471,5,0
160,160,86744,1,0
224,192,87017,1,0
224,128,87289,1,0
288,96,87562,1,0
288,160,87835,1,0
288,224,88108,1,0
224,256,88380,1,0
160,224,88653,1,0
224,256,88926,1,0
288,256,89198,2,0,L|224:128,1,140
160,96,90835,5,0
160,160,91108,1,0
160,224,91381,1,0
224,256,93017,5,0
224,192,93290,1,0
224,128,93563,1,0
160,128,95199,5,0
160,192,95472,1,0
224,160,95745,1,0
224,96,96017,1,0
288,128,96290,1,0
288,192,96563,1,0
224,256,96836,1,0
160,256,97108,1,0
224,320,97381,1,0
288,320,97654,1,0
288,256,97926,2,0,L|224:128,1,140
160,128,98744,1,0
160,192,99017,1,0
256,192,99563,5,0
320,192,99835,1,0
384,192,100108,1,0
288,160,101744,5,0
288,96,102016,1,0
224,160,102289,1,0
224,160,103108,2,0,L|295:161,2,70
256,224,103926,6,0,L|102:224,1,140
116,224,104744,1,0
160,160,105289,1,0
224,160,105562,1,0
320,96,106108,2,0,L|166:96,1,140
180,96,106926,1,0
288,32,107471,1,0
288,96,107744,1,0
224,96,108017,2,0,L|148:96,1,70
192,160,108562,2,0,L|38:160,1,140
64,224,109653,1,0
128,288,109926,1,0
128,224,110199,1,0
192,224,110471,2,0,L|263:225,2,70
192,160,111290,1,0
192,96,111562,1,0
256,96,111835,1,0
320,160,112108,1,0
320,160,112380,2,0,L|256:32,1,140
288,96,113471,2,0,L|359:97,3,70
320,160,114562,1,0
384,160,114835,6,0,L|384:77,1,70
320,96,115380,1,0
256,96,115653,1,0
320,160,115926,1,0
320,224,116198,1,0
256,224,116471,2,0,L|256:141,1,70
192,160,117016,1,0
128,160,117289,1,0
192,224,117562,1,0
192,160,117835,1,0
288,160,118380,5,0
288,224,118653,1,0
352,224,118926,2,0,L|352:146,1,70
416,160,119471,1,0
416,224,119744,1,0
480,224,120017,2,0,L|480:150,1,70
288,288,121380,5,0
288,288,121652,2,0,L|202:288,1,70
129,294,122471,6,0,L|128:212,1,70
128,224,123017,1,0
224,224,123562,5,0
224,224,123833,2,0,L|308:224,1,70
224,160,124652,2,0,L|308:160,1,70
294,160,125199,1,0
320,64,125743,1,0
320,64,126015,2,0,L|234:64,1,70
198,96,126834,2,0,L|112:96,1,70
128,96,127380,1,0
128,160,127926,1,0
192,160,128199,1,0
256,128,128471,1,0
192,160,128744,1,0
192,224,129017,1,0
256,192,129289,1,0
320,224,129562,1,0
384,224,129835,1,0
448,192,130108,6,0,L|448:109,1,70
448,122,130653,1,0
352,128,131199,6,0,L|352:45,1,70
352,58,131744,1,0
256,128,132289,6,0,L|256:45,1,70
256,58,132835,1,0
320,160,133380,6,0,L|320:77,1,70
320,90,133926,1,0
384,192,134471,6,0,L|384:109,1,70
384,122,135017,1,0
448,224,135562,6,0,L|448:141,1,70
448,154,136108,1,0
352,154,136653,1,0
352,224,136926,6,0,L|352:141,2,70,0|0|0
416,288,137744,1,0
352,288,138017,1,0
288,224,138289,1,0
288,160,138562,1,0
288,96,138835,1,0
352,128,139108,1,0
352,192,139380,1,0
288,192,139653,1,0
224,192,139926,1,0
256,128,140199,1,0
256,256,140471,2,0,L|288:192,2,70
384,224,141835,5,0
320,192,142108,1,0
384,160,142380,1,0
448,192,142653,1,0
320,192,143199,1,0
192,192,143744,1,0
64,192,144289,1,0
64,192,144835,1,0
64,192,145380,2,0,L|96:192|140:192,1,70
160,192,145926,2,0,L|236:192,1,70
256,192,146471,2,0,L|332:192,1,70
352,192,147016,2,0,L|428:192,1,70
448,192,147562,1,0
448,128,149744,5,0
128,256,150835,5,0
32,0,151926,5,0
224,192,153017,5,0
288,192,153289,1,0
352,192,153562,1,0
224,192,154108,1,0
64,128,166653,5,0
64,128,166925,2,0,L|210:129,1,140
160,192,168562,2,0,L|306:193,1,140
299,192,169380,1,0
224,256,170743,2,0,L|370:257,1,140
363,256,171562,2,0,L|413:197|356:156,1,140
363,161,172380,2,0,L|354:84|221:122,1,210
227,121,173744,2,0,L|142:126|139:197,1,140
139,180,174562,2,0,L|206:221|235:156,1,140
320,128,175926,2,0,L|256:128|255:206,1,140
255,203,176744,2,0,L|320:224|358:149,1,140
352,160,177562,2,0,L|424:177|424:249,1,140
424,243,178380,2,0,L|351:251|355:323,1,140
353,317,179199,2,0,L|292:262|311:130,1,210
310,135,180289,1,0
310,135,181380,2,0,L|222:143|209:202,1,140
210,193,182199,2,0,L|287:191,9,70
384,160,186835,6,0,L|384:77,1,70,0|0
320,96,187380,1,0
256,96,187653,1,0
320,160,187926,1,0
320,224,188198,1,0
256,224,188471,2,0,L|256:141,1,70
192,160,189016,1,0
128,160,189289,1,0
192,224,189562,1,0
192,160,189835,1,0
256,160,190108,1,0
256,224,190380,2,0,L|336:223,1,70
384,224,190926,1,0
384,160,191199,1,0
320,160,191471,2,0,L|320:233,1,70
256,224,192017,1,0
256,160,192289,1,0
288,96,193380,2,0,L|359:97,2,70
224,192,194470,2,0,L|224:109,2,70
320,96,195562,5,0
320,160,195835,1,0
320,224,196107,1,0
256,224,196380,2,0,L|256:141,1,70
192,160,196925,1,0
192,224,197198,1,0
192,288,197471,1,0
128,256,197744,1,0
128,192,198017,1,0
128,128,198288,1,0
192,96,198561,2,0,L|192:174,1,70
256,160,199106,1,0
256,224,199379,2,0,L|255:299,1,70
256,224,199925,1,0
256,160,200197,2,0,L|181:161,1,70
186,160,200743,1,0
288,96,202106,6,0,L|359:97,2,70
352,160,203197,1,0
416,160,203470,2,0,L|416:77,1,70
352,160,204288,5,0
352,96,204561,2,0,L|288:128,1,70
224,160,205106,1,0
160,160,205379,1,0
96,160,205652,2,0,L|64:96,1,70
64,160,206197,1,0
64,224,206470,1,0
128,224,206743,2,0,L|192:256,1,70
256,256,207288,1,0
320,256,207561,1,0
384,256,207834,2,0,L|352:320,1,70
288,352,208379,1,0
224,352,208652,1,0
160,352,208924,2,0,L|128:288,1,70
128,224,209470,1,0
192,224,209743,1,0
320,32,210834,6,0,L|391:33,2,70
320,128,211925,1,0
384,160,212198,2,0,L|384:77,1,70
320,160,213015,6,0,L|320:77,2,70
320,160,213834,1,0
320,96,214106,1,0
256,128,214379,1,0
256,192,214651,1,0
256,256,214924,1,0
192,224,215197,1,0
192,160,215470,1,0
192,96,215741,1,0
256,64,216015,2,0,L|256:142,1,70
320,128,216561,1,0
320,192,216834,2,0,L|319:267,1,70
320,192,217378,1,0
320,128,217650,2,0,L|245:129,1,70
250,128,218196,1,0
320,192,219561,6,0,L|391:193,2,70
288,224,220652,2,0,L|346:279,2,70
256,224,221744,2,0,L|255:299,2,70
224,224,222834,2,0,L|166:283,2,70
224,192,223924,2,0,L|148:193,2,70
256,160,225015,2,0,L|256:88,2,70
256,192,225833,12,0,226105
