osu file format v9

[General]
AudioFilename: Break the Chain (TV).mp3
AudioLeadIn: 1500
PreviewTime: 41426
Countdown: 0
SampleSet: Normal
StackLeniency: 0.7
Mode: 0
LetterboxInBreaks: 1
SkinPreference:taiko

[Editor]
DistanceSpacing: 0.84
BeatDivisor: 4
GridSize: 8

[Metadata]
Title:Break the Chain (TV Size)
Artist:Tourbillon
Creator:arien666
Version:Oni
Source:Kamen Rider Kiva
Tags:taiko taikosu arken1015 Kawamura Ryuichi climbb65588

[Difficulty]
HPDrainRate:5
CircleSize:5
OverallDifficulty:5
ApproachRate:5
SliderMultiplier:1.44
SliderTickRate:1

[Events]
//Background and Video events
0,0,"WUT1.jpg"
Video,0,"Kamen Rider Kiva OP.avi"
//Break Periods
//Storyboard Layer 0 (Background)
//Storyboard Layer 1 (Fail)
//Storyboard Layer 2 (Pass)
//Storyboard Layer 3 (Foreground)
//Storyboard Sound Samples
//Background Colour Transformations
3,100,163,162,255

[TimingPoints]
245,545.454545454545,4,1,1,80,1,0
41700,-100,4,1,1,80,0,1
63517,-100,4,1,1,80,0,0

[Colours]
Combo1 : 112,196,193
Combo2 : 243,89,34

[HitObjects]
256,192,2426,1,0
256,192,4608,1,0
256,192,6790,5,0
256,192,8154,1,0
256,256,8426,2,0,B|256:320,1,36
312,224,8972,6,0,B|360:224|401:261,1,72
432,272,9517,2,0,B|480:306,1,36
504,328,9926,1,0
416,328,10335,1,0
352,328,10608,2,0,B|312:328,1,36
256,264,11154,6,0,B|208:264|168:224,1,72
136,216,11699,2,0,B|112:208|112:176,1,36
104,128,12108,1,0
104,64,12381,2,2,B|104:16,5,36
168,32,13335,6,4,B|256:32,1,72
304,32,13881,2,0,B|343:65,1,36
376,96,14290,1,0
448,152,14699,2,0,B|496:152|520:184,2,72,0|2|0
390,169,15517,6,0,B|303:199,1,72
261,192,16063,2,0,B|245:256,1,36
237,285,16472,1,0
146,285,16881,2,0,B|98:285|58:253,1,72,0|2
16,168,17699,6,0,B|104:168,1,72
152,168,18245,2,0,B|184:136,1,36
216,96,18654,1,0
256,24,19063,2,0,B|304:24|328:56,2,72,0|2|0
192,24,19881,6,0,B|136:24|96:64,1,72
70,71,20426,2,0,B|48:80|42:104,1,36
24,152,20835,1,0
72,232,21244,1,0
120,192,21517,2,0,B|176:192,4,36,2|2|2|2|0
72,152,22335,5,0
72,88,22608,2,0,B|72:16|152:16,2,108,2|0|0
72,152,23699,1,2
184,192,24244,6,0,B|280:192,1,72
320,192,24790,1,2
384,192,25063,2,2,B|432:192,1,36
512,192,25608,1,0
512,192,25881,1,2
448,88,26426,6,0,B|400:88|373:47,1,72
337,23,26972,2,0,B|294:17,1,36
243,13,27381,1,0
161,52,27790,2,2,B|105:84,3,36
52,117,28608,6,0,B|101:129|122:163,1,72
160,192,29154,2,0,B|200:192,1,36
256,192,29563,1,0
336,152,29972,2,2,B|392:120,4,36
384,192,30790,6,4,B|456:192|496:240,2,108
264,160,32154,2,0,B|190:195,1,72,0|2
80,192,32972,6,4,B|16:168|0:104,2,108
195,226,34336,2,0,B|257:227|257:189,1,72,0|2
256,80,35154,6,4,B|256:8|168:8,2,108
208,192,36517,2,0,B|263:252,1,72,0|2
256,368,37335,5,0
320,368,37608,2,0,B|352:336,1,36,0|2
408,280,38154,2,0,B|440:248|440:192,1,72
438,155,38699,2,0,B|408:120,1,36,0|2
352,128,39108,2,2,B|296:128,1,36
256,128,39517,6,4,B|312:192|256:258,1,144
144,192,40608,2,2,B|192:192,5,36
288,192,41699,5,0
352,192,41972,2,0,B|400:192|432:160,1,72,0|2
464,128,42517,2,0,B|488:112|488:72,1,36
480,8,43063,2,0,B|440:8|400:56,2,72,0|2|0
480,72,43881,5,0
480,136,44154,2,0,B|480:192|416:192,1,72,0|2
384,192,44699,2,0,B|328:192,1,36
256,192,45244,2,0,B|208:192|176:152,2,72,0|2|0
320,192,46063,5,0
384,192,46335,2,0,B|424:192|448:232,1,72,0|2
472,280,46881,2,0,B|480:296|469:326,1,36
381,315,47426,1,0
381,315,47699,1,2
256,312,48244,6,0,B|216:312,1,36
256,264,48654,2,0,B|296:264,1,36,0|2
256,72,49335,6,2,B|216:72,1,36
256,120,49745,2,2,B|296:120,1,36,2|0
352,120,50154,2,2,B|400:120,1,36
416,120,50426,5,0
480,120,50699,2,0,B|480:176|448:208,1,72,0|2
440,248,51244,2,0,B|432:264|408:272,1,36
321,270,51790,2,0,B|269:270|240:324,2,72,0|2|0
384,272,52608,5,0
448,272,52881,2,0,B|480:272|488:208,1,72,0|2
488,160,53426,2,0,B|488:120,1,36
488,32,53972,2,0,B|464:0|416:0,2,72,0|2|0
488,96,54790,6,0,B|424:96|400:144,1,72
392,168,55335,1,2
360,216,55608,2,0,B|336:248,1,36
280,312,56154,2,0,B|256:336|192:336,1,72,0|2
256,72,56972,6,0,B|296:72,1,36
256,120,57382,2,0,B|216:120,1,36,0|2
256,312,58063,6,0,B|296:312,1,36
256,264,58473,2,0,B|216:264,1,36,0|2
392,192,59154,5,2
392,192,59290,1,2
328,192,59563,1,2
328,192,59699,1,0
120,192,60244,5,2
120,192,60380,1,2
184,192,60653,1,2
184,192,60789,1,0
256,72,61335,5,0
256,72,61472,1,0
256,136,61744,1,0
256,136,61881,1,2
256,248,62426,1,0
256,248,62563,1,0
256,312,62835,1,0
256,312,62972,1,2
256,192,63517,6,0,B|256:160|216:120,1,72,4|0
160,128,64063,2,0,B|112:128,1,36
64,128,64472,1,0
128,192,64881,1,0
192,192,65154,2,0,B|248:192,1,36
320,192,65699,6,0,B|416:192,1,72
441,157,66244,2,2,B|441:237,1,72
440,288,66790,2,0,B|464:288|488:312,6,36,2|2|0|2|2|0|2
312,288,67881,6,2,B|280:256,1,36
256,264,68154,2,2,B|224:232,1,36
200,240,68426,2,0,B|168:272,2,36,0|0|2
200,104,68972,6,2,B|232:136,1,36
256,128,69245,2,2,B|288:160,1,36
312,152,69517,2,0,B|344:120,2,36,0|0|2
360,192,70063,6,2,B|448:192,1,72
432,256,70608,2,0,B|352:256,1,72
304,224,71154,2,2,B|208:224,1,72
168,224,71699,2,0,B|120:224|97:174,2,72,0|0|4
