osu file format v9

[General]
AudioFilename: Break the Chain (TV).mp3
AudioLeadIn: 1500
PreviewTime: 41426
Countdown: 0
SampleSet: Normal
StackLeniency: 0.7
Mode: 0
LetterboxInBreaks: 1
SkinPreference:taiko

[Editor]
DistanceSpacing: 0.9
BeatDivisor: 4
GridSize: 8

[Metadata]
Title:Break the Chain (TV Size)
Artist:Tourbillon
Creator:arien666
Version:Futsuu
Source:Kamen Rider Kiva
Tags:taiko taikosu arken1015 Kawamura Ryuichi climbb65588

[Difficulty]
HPDrainRate:3
CircleSize:4
OverallDifficulty:2
ApproachRate:2
SliderMultiplier:0.72
SliderTickRate:0.5

[Events]
//Background and Video events
0,0,"WUT1.jpg"
Video,0,"Kamen Rider Kiva OP.avi"
//Break Periods
//Storyboard Layer 0 (Background)
//Storyboard Layer 1 (Fail)
//Storyboard Layer 2 (Pass)
//Storyboard Layer 3 (Foreground)
//Storyboard Sound Samples
//Background Colour Transformations
3,100,163,162,255

[TimingPoints]
245,545.454545454545,4,1,1,80,1,0
41700,-100,4,1,1,80,0,1
63517,-100,4,1,1,80,0,0

[Colours]
Combo1 : 112,196,193
Combo2 : 243,89,34

[HitObjects]
256,192,2426,1,0
464,192,4608,1,0
376,376,6789,5,0
256,280,8426,1,4
256,216,8972,6,0,B|256:128,1,72
256,8,10608,2,0,B|296:8|336:32,1,72
384,56,11699,1,0
496,224,13335,6,0,B|496:176|464:152,1,72
338,158,14972,1,2
271,158,15517,2,0,B|229:158|207:196,1,72
88,232,17154,5,2
88,298,17699,2,0,B|88:340|126:362,1,72
256,360,19335,1,2
256,296,19881,1,0
256,232,20426,1,0
256,96,21517,1,2
224,40,22063,5,0
288,40,22608,1,2
256,168,23699,1,2
224,224,24244,1,0
288,224,24790,1,2
416,192,25881,1,2
480,192,26426,6,0,B|512:192|512:224,2,36
352,192,28063,1,2
288,192,28608,2,0,B|256:192|256:160,2,36
96,192,30790,6,4,B|56:192|32:168,2,54
256,192,32972,2,4,B|296:192|320:216,2,54
208,40,35154,1,4
256,40,35563,1,4
304,40,35972,1,4
256,192,37335,5,0
256,192,38426,1,0
224,320,39517,2,4,B|256:350|288:320,1,72
144,192,41699,6,0,B|96:192,2,36
256,128,43335,1,2
256,64,43881,2,0,B|256:16,2,36,0|0|0
256,192,45517,1,2
256,256,46063,6,0,B|256:304,2,36
72,192,48244,2,4,B|144:152,1,72,4|6
192,192,49335,2,4,B|268:230,1,72,4|6
320,192,50426,6,0,B|360:192,2,36
192,192,52063,1,2
256,192,52608,2,0,B|256:160|288:160,2,36
256,320,54244,1,2
224,264,54790,6,0,B|184:264,2,36
288,264,55881,2,0,B|328:264,2,36
256,208,56972,2,0,B|328:192,1,72,0|2
392,176,58063,2,0,B|488:200,1,72,0|2
461,258,59154,6,0,B|373:298,1,72,0|2
333,258,60244,2,0,B|245:298,1,72,0|2
256,224,61335,1,4
224,168,61881,1,6
288,168,62426,1,4
256,112,62972,1,6
256,48,63517,1,4
256,304,65699,5,0
256,240,66244,1,0
224,184,66790,2,0,B|224:128,2,36
288,184,67881,2,0,B|288:136,2,36
256,56,69517,1,2
224,112,70063,6,0,B|176:112,2,36
288,112,71154,2,0,B|328:112,2,36
256,168,72244,1,4
