osu file format v9

[General]
AudioFilename: Break the Chain (TV).mp3
AudioLeadIn: 1500
PreviewTime: 41426
Countdown: 0
SampleSet: Normal
StackLeniency: 0.7
Mode: 1
LetterboxInBreaks: 1
SkinPreference:taiko

[Editor]
DistanceSpacing: 0.84
BeatDivisor: 6
GridSize: 8

[Metadata]
Title:Break the Chain (TV Size)
Artist:Tourbillon
Creator:arien666
Version:Climbb's Taiko Oni
Source:Kamen Rider Kiva
Tags:taiko taikosu arken1015 Kawamura Ryuichi climbb65588

[Difficulty]
HPDrainRate:6
CircleSize:5
OverallDifficulty:5
ApproachRate:5
SliderMultiplier:1.44
SliderTickRate:1

[Events]
//Background and Video events
Video,0,"Kamen Rider Kiva OP.avi"
0,0,"climbb.jpg"
//Break Periods
//Storyboard Layer 0 (Background)
//Storyboard Layer 1 (Fail)
//Storyboard Layer 2 (Pass)
//Storyboard Layer 3 (Foreground)
//Storyboard Sound Samples
//Background Colour Transformations
3,100,163,162,255

[TimingPoints]
245,545.454545454545,4,1,1,80,1,0
41700,-100,4,1,1,80,0,1
63517,-100,4,1,1,80,0,0

[Colours]
Combo1 : 112,196,193
Combo2 : 243,89,34

[HitObjects]
256,200,790,1,2
264,224,1881,1,2
264,224,2972,1,2
264,224,3244,1,2
264,224,3381,1,0
264,224,3517,1,2
264,224,3790,1,0
264,224,4063,1,2
264,224,5154,1,2
400,32,6244,1,2
264,224,7335,1,2
368,80,8154,1,2
352,104,8290,1,2
336,120,8426,1,2
320,144,8563,1,0
272,216,8972,1,2
296,176,9244,1,2
272,216,9517,1,0
288,192,9654,1,0
288,192,9926,1,2
288,192,10199,1,0
288,192,10335,1,0
288,192,10608,1,2
288,192,10881,1,0
288,192,11154,1,2
288,192,11426,1,2
288,192,11699,1,0
288,192,11835,1,2
288,192,12108,1,0
288,192,12381,1,0
288,192,12517,1,2
288,192,12654,1,2
288,192,12790,1,2
288,192,12926,1,2
288,192,13063,1,2
288,192,13199,1,2
288,192,13335,1,0
288,192,13608,1,0
288,192,13881,1,2
288,192,14017,1,2
288,192,14290,1,0
288,192,14563,1,2
288,192,14699,1,2
288,192,14972,1,0
288,192,15244,1,2
288,192,15517,1,0
288,192,15790,1,0
288,192,16063,1,2
288,192,16199,1,2
288,192,16472,1,0
288,192,16744,1,2
288,192,16881,1,2
288,192,17154,1,0
288,192,17290,1,2
288,192,17426,1,2
288,192,17563,1,2
288,192,17699,1,2
288,192,17972,1,2
288,192,18244,1,0
288,192,18381,1,0
288,192,18654,1,2
288,192,18926,1,0
288,192,19063,1,0
288,192,19335,1,2
256,232,19608,1,0
280,200,19881,1,2
232,264,20154,1,2
288,192,20426,1,0
288,192,20563,1,2
288,192,20835,1,0
280,200,21108,1,0
280,200,21244,1,2
280,200,21381,1,2
288,192,21517,1,2
288,192,21654,1,2
288,192,21790,1,2
288,192,22063,1,0
232,208,22199,1,2
272,248,22472,1,0
272,248,22608,1,2
272,248,22881,1,0
272,248,23017,1,2
272,248,23290,1,0
272,248,23426,1,2
272,248,23563,1,2
272,248,23699,1,0
272,248,23972,1,2
272,248,24244,1,0
272,248,24381,1,2
272,248,24654,1,0
272,248,24790,1,2
272,248,24926,1,2
272,248,25063,1,0
272,248,25199,1,2
208,232,25472,1,2
240,240,25608,1,0
304,248,25881,1,2
184,232,26426,1,2
240,240,26699,1,2
288,248,26972,1,0
264,248,27108,1,0
264,248,27381,1,2
264,248,27654,1,0
264,248,27790,1,0
264,248,28063,1,2
264,248,28608,1,2
264,248,28881,1,2
256,240,29154,1,0
248,224,29290,1,0
248,224,29563,1,2
248,224,29835,1,2
248,224,29972,1,0
248,224,30108,1,0
248,224,30244,1,2
248,224,30381,1,2
248,224,30517,1,2
248,224,30790,1,6
184,272,31199,1,4
272,232,31608,1,6
304,328,32017,1,0
296,304,32154,1,2
272,248,32426,1,2
304,304,32699,1,0
288,280,32972,1,6
288,280,33381,1,4
288,280,33790,1,6
288,192,34199,1,0
288,240,34335,1,2
288,240,34608,1,2
232,208,34881,1,0
296,240,35154,1,6
216,200,35563,1,4
288,232,35972,1,6
232,208,36381,1,0
232,208,36517,1,2
232,208,36790,1,0
232,208,37063,1,2
232,208,37335,1,0
232,208,37608,1,2
232,208,37744,1,2
232,208,37881,1,0
232,208,38154,1,0
208,224,38290,1,0
200,248,38426,1,2
216,304,38699,1,0
184,264,38972,1,2
216,248,39108,1,2
208,208,39244,1,0
168,256,39517,1,6
104,336,40063,1,4
184,248,40608,1,0
168,264,40744,1,0
168,264,40881,1,0
168,264,41017,1,0
200,216,41290,1,6
256,304,41699,1,0
224,256,41972,1,0
192,200,42244,1,2
208,272,42517,1,0
232,280,42654,1,0
208,224,42926,1,0
216,248,43063,1,0
224,256,43335,1,2
216,248,43608,1,0
216,248,43881,1,0
216,248,44154,1,0
216,248,44426,1,2
208,296,44699,1,0
224,256,44835,1,2
200,312,45108,1,2
192,328,45244,1,0
208,296,45517,1,2
208,296,45790,1,0
208,296,46063,1,2
208,296,46335,1,0
208,296,46472,1,0
208,296,46608,1,2
208,296,46881,1,0
208,296,47154,1,2
160,264,47426,1,0
232,272,47699,1,0
208,264,47835,1,2
216,280,48244,1,0
208,296,48381,1,2
272,296,48654,1,2
216,248,48790,1,0
216,312,49063,1,0
216,248,49199,1,2
216,248,49472,1,2
216,248,49744,1,2
304,288,49881,1,0
272,264,50017,1,2
272,264,50154,1,2
272,264,50290,1,2
272,264,50426,1,2
272,264,50699,1,0
272,264,50972,1,2
272,264,51244,1,0
272,264,51381,1,2
272,264,51654,1,2
272,264,51790,1,0
272,264,52063,1,2
272,264,52335,1,0
272,264,52608,1,0
280,272,52881,1,0
272,264,53154,1,2
328,288,53426,1,0
328,288,53563,1,2
328,288,53835,1,2
328,288,53972,1,0
328,288,54244,1,2
264,264,54517,1,0
216,240,54790,1,2
224,264,54926,1,0
296,280,55199,1,2
272,272,55335,1,0
216,240,55608,1,2
264,264,55881,1,0
312,312,56154,1,0
312,312,56426,1,2
312,312,56563,1,0
312,312,56972,1,0
288,296,57108,1,2
352,296,57381,1,2
320,296,57517,1,0
320,296,57790,1,0
320,296,57926,1,2
320,296,58199,1,2
320,296,58472,1,2
296,280,58608,1,0
296,280,58881,1,2
296,280,59154,1,0
296,280,59290,1,2
296,280,59563,1,2
296,280,59699,1,0
296,280,59972,1,0
296,280,60108,1,2
296,280,60381,1,2
296,280,60654,1,2
296,280,60790,1,0
328,312,61063,1,2
296,264,61335,1,0
280,240,61472,1,2
280,240,61744,1,2
280,240,61881,1,0
280,240,62154,1,0
296,280,62290,1,2
328,312,62563,1,2
328,312,62835,1,2
328,312,62972,1,0
328,312,63108,1,2
328,312,63244,1,2
328,312,63381,1,2
328,312,63517,1,2
328,312,63790,1,2
328,312,63926,1,0
328,312,64063,1,0
328,312,64199,1,2
328,312,64472,1,0
328,312,64608,1,2
328,312,64744,1,0
328,312,64881,1,0
328,312,65017,1,2
328,344,65290,1,2
296,344,65426,1,0
264,344,65563,1,0
288,328,65699,1,2
328,288,65972,1,0
328,288,66244,1,2
328,312,66517,1,2
328,312,66790,1,2
328,312,66926,1,2
328,312,67063,1,0
328,312,67199,1,0
328,312,67335,1,2
328,312,67472,1,2
328,312,67608,1,0
328,312,67744,1,0
328,312,67881,1,2
320,376,68154,1,0
328,328,68426,1,2
328,328,68563,1,0
328,312,68835,1,2
328,312,69108,1,0
328,312,69244,1,0
328,312,69517,1,2
352,368,69790,1,0
336,344,69926,1,0
336,344,70063,1,2
336,344,70335,1,0
336,344,70608,1,2
336,344,70744,1,0
336,344,71017,1,2
296,296,71290,1,0
296,296,71426,1,2
296,296,71563,1,2
296,296,71699,1,2
296,296,71835,1,2
296,296,71972,1,2
296,296,72244,1,4
