osu file format v5

[General]
AudioFilename: TouhouVocalBGM-Phantom-Liberation.mp3
AudioLeadIn: 0
PreviewTime: -1
Countdown: 0
SampleSet: Soft
StackLeniency: 0.3
Mode: 0
LetterboxInBreaks: 1
EditorBookmarks: 23912,97438

[Metadata]
Title:Phantom Liberation
Artist:Touhou Vocal BGM
Creator:kioukiou
Version:Runasa
Source:
Tags:

[Difficulty]
HPDrainRate:7
CircleSize:5
OverallDifficulty:5
SliderMultiplier:1.4
SliderTickRate:2

[Events]
//Background and Video events
0,0,"Phantom Liberation.jpg"
//Break Periods
2,95550,96231
//Storyboard Layer 0 (Background)
//Storyboard Layer 1 (Failing)
//Storyboard Layer 2 (Passing)
//Storyboard Layer 3 (Foreground)
//Storyboard Sound Samples
//Background Colour Transformations
3,100,163,162,255

[TimingPoints]
1022,346.820809248555,4,2,0,100,1
45068,346.820809248555,4,1,0,100,0
45761,346.820809248555,4,2,0,100,0
62062,346.820809248555,4,1,0,100,0
97438,346.820809248555,4,2,0,100,0
118594,346.820809248555,4,1,0,100,0
119287,346.820809248555,4,2,0,100,0
135588,346.820809248555,4,1,0,100,0

[Colours]
Combo1 : 255,255,0
Combo2 : 0,0,0

[HitObjects]
72,72,23912,1,8
72,136,24085,1,0
72,200,24258,1,0
72,264,24432,1,0
136,264,24605,1,8
136,200,24779,2,0,L|136:88|192:88,1,140
164,88,25299,1,8
224,88,25472,1,0
288,88,25646,1,0
288,152,25819,1,0
288,216,25993,2,0,L|288:312,2,70,8|0|0
400,152,26686,5,8
400,88,26860,1,2
272,88,27206,1,2
144,88,27553,1,2
16,88,27900,2,2,L|16:248,2,140
80,88,28767,5,8
80,152,28941,1,0
80,216,29114,1,0
208,216,29461,1,8
208,152,29634,1,0
336,152,29981,1,0
336,88,30154,1,8
400,88,30328,2,2,L|400:256,1,140
400,228,30848,5,8
272,232,31195,1,0
208,232,31368,1,0
144,232,31542,1,8
80,232,31715,2,2,L|16:232|16:128,1,140
16,32,32409,1,0
80,32,32582,1,0
208,32,32929,1,8
272,32,33102,1,0
144,32,33449,1,0
144,96,33623,1,8
144,160,33796,2,2,L|144:312,3,140
144,300,35010,5,8
208,296,35183,1,0
272,296,35357,1,0
400,296,35704,2,0,L|400:144,1,140,8|0
400,156,36224,1,0
336,152,36397,1,8
272,152,36571,1,0
208,152,36744,1,0
144,152,36917,2,0,L|56:152,2,70,0|8|0
144,216,37438,1,0
144,344,37785,1,8
144,280,37958,1,0
272,280,38305,1,0
208,280,38478,1,8
208,216,38652,2,0,L|296:216,3,70,0|0|0|8
208,40,39692,5,0
208,104,39865,1,8
272,104,40039,1,0
336,104,40212,1,0
336,232,40559,1,8
336,168,40732,1,0
208,168,41079,1,0
272,168,41253,1,8
208,168,41426,1,0
16,168,41946,6,0,L|160:168,2,140,8|0|8
16,168,42813,1,0
16,232,42987,2,0,L|160:232,1,140,0|8
156,232,43507,1,0
216,232,43680,1,0
344,232,44027,1,8
280,232,44201,1,0
280,360,44548,1,0
280,296,44721,1,8
152,296,45068,2,0,L|96:296,6,35
152,232,45761,5,4
152,104,46108,1,4
336,104,46628,1,0
272,104,46802,1,0
208,104,46975,1,0
208,232,47322,1,2
208,168,47495,1,2
480,168,48536,5,4
352,168,48883,1,4
160,168,49403,1,0
288,168,49750,1,0
160,168,50097,1,2
224,168,50270,1,2
224,104,50443,2,2,L|80:104,1,140
84,104,50964,1,2
84,104,51137,5,4
80,288,51657,1,4
272,288,52178,1,2
144,288,52524,1,2
336,288,53045,1,2
48,40,54085,5,4
176,40,54432,1,4
176,224,54952,1,0
304,224,55299,1,0
304,96,55646,1,0
240,96,55819,2,0,L|16:96,1,210
30,96,56513,5,0
32,160,56686,1,0
32,288,57033,1,2
32,224,57206,1,2
96,224,57380,1,2
224,224,57727,1,2
160,224,57900,1,2
224,224,58074,2,2,L|384:224,3,140
364,224,59287,5,0
360,160,59461,1,0
296,160,59634,2,0,L|136:160,1,140
88,160,60154,1,4
88,160,60501,1,4
88,32,60848,1,0
152,32,61021,1,0
216,32,61195,1,0
216,96,61368,1,0
272,72,61542,2,2,L|424:72,1,140
472,72,62062,6,0,L|472:216,1,140
344,216,62756,1,0
280,216,62929,1,4
152,216,63276,1,0
216,216,63449,1,0
216,280,63623,1,4
344,280,63969,1,0
280,280,64143,1,0
280,344,64316,1,0
216,344,64490,1,0
216,152,65010,6,0,L|216:56,1,70
280,80,65357,2,0,L|280:160|368:160,2,140
280,80,66224,1,0
216,80,66397,2,0,L|152:80|152:176,1,140
152,216,66917,1,0
216,216,67091,1,0
464,216,67785,5,0
400,216,67958,1,4
272,216,68305,1,0
336,216,68478,1,4
336,344,68825,1,0
336,280,68998,1,0
272,280,69172,2,0,L|224:280|224:168,1,140,4|0
224,188,69692,1,0
160,184,69865,1,0
96,184,70039,1,0
88,368,70559,5,0
88,304,70732,1,0
152,304,70906,1,0
216,304,71079,1,0
280,304,71253,2,0,L|352:304|352:216,1,140
352,168,71773,1,0
288,168,71946,1,0
160,168,72293,2,0,L|224:168|224:88,2,140
96,168,73160,5,0
96,232,73334,1,0
96,296,73507,1,8
224,296,73854,1,0
160,296,74027,1,8
160,168,74374,1,0
160,104,74548,1,0
160,168,74721,1,8
288,168,75068,1,0
224,168,75241,1,0
224,232,75415,1,0
224,296,75588,1,0
408,296,76108,5,0
344,296,76282,1,0
344,232,76455,1,0
344,168,76628,1,0
408,168,76802,2,0,L|408:112|312:112,1,140
256,112,77322,1,0
192,112,77495,1,0
64,112,77842,1,0
128,112,78016,1,0
0,112,78363,1,0
64,288,78883,5,0
128,288,79056,1,8
256,288,79403,1,0
192,288,79576,1,8
192,160,79923,1,0
192,288,80270,1,8
320,288,80617,1,0
256,288,80790,1,0
256,224,80964,1,0
256,160,81137,1,0
440,160,81657,5,0
376,160,81831,1,0
376,96,82004,1,0
312,96,82178,2,0,L|144:96,1,140
104,96,82698,1,0
104,160,82871,1,0
104,224,83045,1,0
208,160,83391,2,0,L|296:160,2,70
48,24,84432,6,0,L|48:376,1,350
464,376,85819,2,0,L|464:24,1,350
256,192,87380,12,4,89808
416,8,90154,6,0,L|104:8,1,280
80,360,91368,2,0,L|440:360,1,350
256,192,92929,12,4,95357
88,64,97438,5,8
80,192,97785,2,0,B|128:256|184:168|232:208,2,140,0|8|0
80,320,98825,1,8
144,320,98998,2,0,B|248:320,1,70
336,320,99519,1,8
336,320,99692,1,0
272,320,99865,1,0
272,192,100212,2,0,B|376:192|400:128,1,140,8|0
392,72,100732,2,2,B|320:48|264:112,3,140
144,72,102120,5,0
80,72,102293,1,8
80,136,102467,2,2,B|224:136,2,140
80,264,103507,1,0
120,216,103680,1,8
88,160,103854,2,0,B|56:232|160:280|40:352,1,210,0|8
176,352,104721,1,0
176,352,104894,2,0,L|264:352,1,70,0|8
312,352,105241,2,2,L|376:352|336:280,1,140
248,192,105935,6,2,L|176:192|224:112,1,140
272,136,106455,1,8
336,136,106628,1,0
464,136,106975,1,0
400,136,107149,1,8
400,200,107322,1,0
336,200,107495,2,2,L|296:200,6,35,2|2|2|2|10|2|2
336,264,108189,1,4
208,264,108536,5,8
144,264,108709,1,0
80,264,108883,2,0,L|80:112,1,140,0|8
80,56,109403,2,0,L|232:56,1,140
280,56,109923,1,8
344,56,110097,1,0
344,120,110270,2,0,L|184:120,1,140,0|8
96,184,110964,2,0,L|256:184,1,140,0|8
296,184,111484,1,0
296,312,111831,2,2,L|136:312,1,140
88,312,112351,1,0
88,248,112524,1,0
88,184,112698,2,2,L|88:144,4,35,10|2|2|2|2
152,184,113218,5,0
216,184,113391,2,0,B|200:128|256:112|208:32,2,140,8|0|8
280,184,114258,1,0
408,184,114605,2,2,B|376:136|448:128|376:40,2,140
344,184,115472,1,8
344,312,115819,2,0,B|192:312,1,140,0|8
136,312,116339,1,0
136,248,116513,2,0,B|304:248,1,140,0|8
272,184,117033,5,0
208,184,117206,1,0
208,56,117553,1,8
208,120,117727,1,0
80,120,118074,1,0
144,120,118247,1,8
144,248,118594,2,0,B|144:208,6,35
144,312,119287,5,4
272,312,119634,1,4
456,312,120154,2,0,B|312:312,1,140
280,256,120675,1,0
344,256,120848,2,0,B|488:256,1,140
480,192,121368,1,2
352,192,121715,1,2
224,192,122062,5,4
96,192,122409,1,4
96,64,122756,2,0,B|264:64,1,140
272,120,123276,1,0
144,120,123623,2,2,B|48:120,2,70
144,248,124316,1,0
144,184,124490,1,0
208,184,124663,6,4,L|208:336|296:336,1,210
440,264,125704,1,0
440,328,125877,1,0
376,328,126050,2,0,L|312:328|312:168,1,210
312,56,126917,1,2
312,120,127091,1,2
248,120,127264,1,2
120,120,127611,6,4,L|48:120|48:216,1,140
48,312,128305,1,2
48,248,128478,2,2,L|200:248,2,140
48,184,129345,1,0
112,184,129519,1,0
240,184,129865,2,0,L|312:184|312:112,1,140
184,120,130559,5,2
184,184,130732,1,2
184,248,130906,1,2
312,248,131253,1,2
376,248,131426,1,2
440,248,131600,2,2,L|440:96,3,140
376,112,132813,5,0
312,112,132987,2,0,L|160:112,1,140
176,176,133507,1,0
176,240,133680,1,0
48,248,134027,2,0,L|48:80,1,140
112,112,134548,1,2
112,176,134721,1,2
112,240,134894,1,2
112,304,135068,2,2,L|264:304,1,140
312,304,135588,5,0
312,176,135935,1,4
312,48,136282,2,0,L|312:128,1,70,0|4
184,120,136802,2,0,L|184:208,1,70
184,256,137149,1,4
312,256,137495,2,0,L|232:256,1,70
240,192,137842,2,0,L|312:192,1,70
120,192,138536,5,0
120,128,138709,1,0
120,64,138883,1,0
184,64,139056,1,0
184,128,139230,2,0,L|184:272,1,140
248,272,139750,1,0
248,208,139923,2,0,L|248:40,1,140
312,72,140443,1,0
312,136,140617,1,0
312,200,140790,1,0
120,200,141311,5,0
184,200,141484,1,4
184,72,141831,1,0
184,136,142004,1,4
312,136,142351,1,0
248,136,142524,1,0
248,200,142698,1,4
248,72,143045,1,0
312,72,143218,1,0
376,72,143391,1,0
376,136,143565,1,0
376,320,144085,6,0,L|208:320,1,140
168,320,144605,1,0
168,256,144779,2,0,L|320:256,1,140
368,256,145299,1,0
368,192,145472,2,0,L|224:192,1,140
160,192,145993,2,0,L|104:192,4,35
160,64,146686,5,0
160,128,146860,1,0
224,128,147033,1,8
96,128,147380,2,0,L|96:224,1,70,0|8
96,320,147900,2,0,L|96:232,2,70,0|0|8
224,320,148594,1,0
288,320,148767,1,0
288,256,148941,1,0
352,256,149114,1,0
352,64,149634,5,0
352,128,149808,1,0
288,128,149981,1,0
224,128,150154,2,0,L|136:128|136:208,1,140
136,240,150675,1,0
200,240,150848,1,0
264,240,151021,2,0,L|360:240|416:208,1,140
464,224,151542,1,0
464,288,151715,1,0
400,288,151889,1,0
208,288,152409,5,0
144,288,152582,1,8
144,160,152929,1,0
144,224,153102,1,8
144,96,153449,1,0
272,96,153796,1,4
144,96,154143,1,0
80,96,154316,1,0
80,160,154490,1,0
80,224,154663,1,0
264,224,155183,6,0,L|184:224,1,70
160,168,155530,2,0,L|248:168,1,70
296,168,155877,1,0
296,40,156224,1,0
232,40,156397,1,0
168,40,156571,2,0,L|96:40|96:112,1,140
256,192,157004,12,4,158131
