osu file format v14

[General]
AudioFilename: Touhou Metal_Rock 158.mp3
AudioLeadIn: 0
PreviewTime: -1
Countdown: 1
SampleSet: Normal
StackLeniency: 0.7
Mode: 3
LetterboxInBreaks: 1
SpecialStyle: 0
WidescreenStoryboard: 0

[Editor]
DistanceSpacing: 1
BeatDivisor: 8
GridSize: 32
TimelineZoom: 1

[Metadata]
Title:Touhou M 1
TitleUnicode:望むは正邪の智のみ
Artist:Touhou Metal
ArtistUnicode:狸者
Creator:Jin Xero
Version:Easy
Source:Touhou
Tags:
BeatmapID:634591
BeatmapSetID:280455

[Difficulty]
HPDrainRate:7
CircleSize:7
OverallDifficulty:7
ApproachRate:5
SliderMultiplier:1.4
SliderTickRate:1

[Events]
//Background and Video events
//Break Periods
//Storyboard Layer 0 (Background)
//Storyboard Layer 1 (Fail)
//Storyboard Layer 2 (Pass)
//Storyboard Layer 3 (Foreground)
//Storyboard Sound Samples

[TimingPoints]
0,428.571428571429,4,1,0,0,1,0

[HitObjects]
329,192,964,128,0,1446:0:0:0:0:
256,192,964,128,0,3160:0:0:0:0:
182,192,964,128,0,8357:0:0:0:0:
36,192,964,128,0,14196:0:0:0:0:
402,192,964,128,0,1660:0:0:0:0:
475,192,964,128,0,2196:0:0:0:0:
329,192,1500,128,0,2946:0:0:0:0:
402,192,1714,128,0,2464:0:0:0:0:
109,192,1982,128,0,8946:0:0:0:0:
475,192,2250,128,0,6535:0:0:0:0:
402,192,2517,128,0,5517:0:0:0:0:
329,192,3000,128,0,5732:0:0:0:0:
256,192,3214,128,0,3910:0:0:0:0:
256,192,3964,128,0,5946:0:0:0:0:
402,192,5571,128,0,6375:0:0:0:0:
329,192,5785,128,0,6160:0:0:0:0:
256,192,6000,128,0,6857:0:0:0:0:
329,192,6214,128,0,8196:0:0:0:0:
402,192,6428,128,0,7660:0:0:0:0:
475,192,6589,128,0,7446:0:0:0:0:
256,192,6910,128,0,9964:0:0:0:0:
475,192,7500,128,0,9321:0:0:0:0:
402,192,7714,128,0,11946:0:0:0:0:
329,192,8250,128,0,9428:0:0:0:0:
182,192,8410,128,0,17892:0:0:0:0:
109,192,9000,128,0,18267:0:0:0:0:
475,192,9375,128,0,11839:0:0:0:0:
329,192,9482,128,0,11410:0:0:0:0:
256,192,10017,128,0,12857:0:0:0:0:
329,192,11464,128,0,12535:0:0:0:0:
475,192,11892,128,0,12000:0:0:0:0:
402,192,12000,128,0,16714:0:0:0:0:
475,192,12053,128,0,12321:0:0:0:0:
475,192,12375,128,0,13446:0:0:0:0:
329,192,12589,128,0,13607:0:0:0:0:
256,192,12910,128,0,17946:0:0:0:0:
475,192,13500,128,0,14196:0:0:0:0:
329,192,13660,128,0,14303:0:0:0:0:
475,192,14250,128,0,14946:0:0:0:0:
36,192,14250,128,0,15053:0:0:0:0:
329,192,14357,128,0,15053:0:0:0:0:
475,192,15000,128,0,16660:0:0:0:0:
36,192,15107,128,0,15803:0:0:0:0:
329,192,15107,128,0,15803:0:0:0:0:
329,192,15857,128,0,17357:0:0:0:0:
36,192,15857,128,0,17732:0:0:0:0:
475,192,16714,128,0,18375:0:0:0:0:
402,192,16767,128,0,17303:0:0:0:0:
402,192,17357,1,0,0:0:0:0:
329,192,17410,1,0,0:0:0:0:
329,192,17571,1,0,0:0:0:0:
329,192,17732,1,0,0:0:0:0:
36,192,17785,128,0,18000:0:0:0:0:
329,192,17892,1,0,0:0:0:0:
182,192,17946,128,0,18107:0:0:0:0:
402,192,18000,1,0,0:0:0:0:
256,192,18000,1,0,0:0:0:0:
36,192,18053,1,0,0:0:0:0:
182,192,18160,1,0,0:0:0:0:
329,192,18160,128,0,19446:0:0:0:0:
109,192,18321,1,0,0:0:0:0:
402,192,18321,128,0,21857:0:0:0:0:
36,192,18428,1,0,0:0:0:0:
475,192,18428,128,0,19607:0:0:0:0:
109,192,18535,1,0,0:0:0:0:
182,192,18642,1,0,0:0:0:0:
256,192,18857,128,0,20892:0:0:0:0:
329,192,19500,128,0,20196:0:0:0:0:
475,192,19660,128,0,20089:0:0:0:0:
475,192,20142,128,0,21321:0:0:0:0:
36,192,20250,1,0,0:0:0:0:
329,192,20250,128,0,20892:0:0:0:0:
36,192,20357,1,0,0:0:0:0:
36,192,20464,1,0,0:0:0:0:
36,192,20571,1,0,0:0:0:0:
36,192,20678,1,0,0:0:0:0:
36,192,20785,1,0,0:0:0:0:
36,192,20892,1,0,0:0:0:0:
329,192,20946,128,0,21428:0:0:0:0:
36,192,21000,1,0,0:0:0:0:
36,192,21107,1,0,0:0:0:0:
36,192,21214,1,0,0:0:0:0:
36,192,21321,1,0,0:0:0:0:
475,192,21375,128,0,21857:0:0:0:0:
36,192,21428,1,0,0:0:0:0:
109,192,21482,1,0,0:0:0:0:
329,192,21482,128,0,21803:0:0:0:0:
36,192,21535,1,0,0:0:0:0:
256,192,21535,1,0,0:0:0:0:
109,192,21589,1,0,0:0:0:0:
182,192,21589,1,0,0:0:0:0:
109,192,21696,1,0,0:0:0:0:
36,192,21750,1,0,0:0:0:0:
109,192,21803,1,0,0:0:0:0:
182,192,21857,1,0,0:0:0:0:
329,192,21857,1,0,0:0:0:0:
329,192,21910,128,0,22232:0:0:0:0:
402,192,21910,128,0,22232:0:0:0:0:
475,192,21910,128,0,22232:0:0:0:0:
182,192,21964,1,0,0:0:0:0:
36,192,21964,1,0,0:0:0:0:
109,192,22285,1,0,0:0:0:0:
475,192,22285,128,0,22660:0:0:0:0:
402,192,22285,128,0,22660:0:0:0:0:
329,192,22285,128,0,22660:0:0:0:0:
36,192,22607,1,0,0:0:0:0:
182,192,22607,1,0,0:0:0:0:
256,192,22714,1,0,0:0:0:0:
475,192,22714,128,0,23250:0:0:0:0:
402,192,22714,128,0,23410:0:0:0:0:
329,192,22714,128,0,23571:0:0:0:0:
109,192,22928,1,0,0:0:0:0:
36,192,23250,1,0,0:0:0:0:
182,192,23250,1,0,0:0:0:0:
475,192,23303,1,0,0:0:0:0:
475,192,23357,128,0,23785:0:0:0:0:
402,192,23464,1,0,0:0:0:0:
402,192,23517,128,0,23678:0:0:0:0:
109,192,23571,1,0,0:0:0:0:
329,192,23625,1,0,0:0:0:0:
329,192,23678,128,0,24000:0:0:0:0:
402,192,23732,1,0,0:0:0:0:
402,192,23785,128,0,23892:0:0:0:0:
475,192,23839,1,0,0:0:0:0:
182,192,23892,1,0,0:0:0:0:
36,192,23892,1,0,0:0:0:0:
475,192,23892,128,0,24214:0:0:0:0:
402,192,23946,1,0,0:0:0:0:
402,192,24000,128,0,24107:0:0:0:0:
329,192,24053,1,0,0:0:0:0:
329,192,24107,128,0,24321:0:0:0:0:
402,192,24160,1,0,0:0:0:0:
109,192,24214,1,0,0:0:0:0:
402,192,24214,128,0,24267:0:0:0:0:
475,192,24267,1,0,0:0:0:0:
402,192,24321,1,0,0:0:0:0:
475,192,24321,128,0,24482:0:0:0:0:
329,192,24375,1,0,0:0:0:0:
402,192,24375,128,0,24428:0:0:0:0:
329,192,24428,128,0,24803:0:0:0:0:
402,192,24482,1,0,0:0:0:0:
36,192,24482,1,0,0:0:0:0:
182,192,24482,1,0,0:0:0:0:
475,192,24535,1,0,0:0:0:0:
402,192,24589,1,0,0:0:0:0:
475,192,24642,1,0,0:0:0:0:
109,192,24750,1,0,0:0:0:0:
475,192,24857,1,0,0:0:0:0:
329,192,24857,1,0,0:0:0:0:
256,192,24964,1,0,0:0:0:0:
36,192,25071,1,0,0:0:0:0:
182,192,25071,1,0,0:0:0:0:
475,192,25285,1,0,0:0:0:0:
329,192,25285,1,0,0:0:0:0:
475,192,25714,1,0,0:0:0:0:
329,192,25714,1,0,0:0:0:0:
329,192,26303,1,0,0:0:0:0:
402,192,26357,1,0,0:0:0:0:
475,192,26410,1,0,0:0:0:0:
402,192,26464,1,0,0:0:0:0:
329,192,26517,1,0,0:0:0:0:
402,192,26571,1,0,0:0:0:0:
475,192,26625,1,0,0:0:0:0:
402,192,26678,1,0,0:0:0:0:
329,192,26732,1,0,0:0:0:0:
402,192,26785,1,0,0:0:0:0:
475,192,26839,1,0,0:0:0:0:
109,192,27428,1,0,0:0:0:0:
182,192,27857,1,0,0:0:0:0:
256,192,28660,1,0,0:0:0:0:
256,192,29035,1,0,0:0:0:0:
256,192,29410,1,0,0:0:0:0:
256,192,29785,1,0,0:0:0:0:
256,192,30160,1,0,0:0:0:0:
256,192,30535,1,0,0:0:0:0:
256,192,30910,1,0,0:0:0:0:
475,192,33428,128,0,34017:0:0:0:0:
329,192,33535,128,0,34017:0:0:0:0:
182,192,33642,128,0,33910:0:0:0:0:
109,192,33910,128,0,34446:0:0:0:0:
182,192,33964,128,0,34178:0:0:0:0:
256,192,34017,128,0,34232:0:0:0:0:
329,192,34071,128,0,34285:0:0:0:0:
475,192,34071,128,0,34339:0:0:0:0:
36,192,34071,128,0,34178:0:0:0:0:
402,192,34125,128,0,34660:0:0:0:0:
182,192,34232,128,0,34446:0:0:0:0:
36,192,34232,128,0,34500:0:0:0:0:
256,192,34285,128,0,34553:0:0:0:0:
329,192,34339,128,0,34607:0:0:0:0:
475,192,34392,128,0,34767:0:0:0:0:
182,192,34500,128,0,34714:0:0:0:0:
109,192,34500,128,0,34660:0:0:0:0:
36,192,34553,128,0,34767:0:0:0:0:
256,192,34607,128,0,34982:0:0:0:0:
329,192,34660,128,0,34982:0:0:0:0:
109,192,34714,128,0,34875:0:0:0:0:
402,192,34714,128,0,35142:0:0:0:0:
182,192,34767,128,0,35035:0:0:0:0:
36,192,34821,128,0,34982:0:0:0:0:
475,192,34821,128,0,35035:0:0:0:0:
109,192,34928,128,0,35035:0:0:0:0:
329,192,35035,128,0,35250:0:0:0:0:
36,192,35035,128,0,35142:0:0:0:0:
256,192,35035,128,0,35571:0:0:0:0:
182,192,35089,128,0,35196:0:0:0:0:
109,192,35089,128,0,35303:0:0:0:0:
475,192,35089,128,0,35410:0:0:0:0:
402,192,35196,128,0,35785:0:0:0:0:
36,192,35196,128,0,35410:0:0:0:0:
182,192,35250,128,0,35357:0:0:0:0:
329,192,35303,128,0,35410:0:0:0:0:
109,192,35357,128,0,35517:0:0:0:0:
182,192,35410,128,0,35678:0:0:0:0:
329,192,35464,128,0,35571:0:0:0:0:
475,192,35464,128,0,35678:0:0:0:0:
36,192,35464,128,0,35785:0:0:0:0:
109,192,35571,128,0,35732:0:0:0:0:
256,192,35625,128,0,35839:0:0:0:0:
329,192,35625,128,0,35678:0:0:0:0:
182,192,35732,128,0,35839:0:0:0:0:
329,192,35732,128,0,35946:0:0:0:0:
475,192,35732,128,0,36160:0:0:0:0:
109,192,35785,128,0,35892:0:0:0:0:
402,192,35839,128,0,36053:0:0:0:0:
36,192,35839,128,0,36053:0:0:0:0:
256,192,35892,128,0,36053:0:0:0:0:
182,192,35892,128,0,36000:0:0:0:0:
109,192,35946,128,0,36267:0:0:0:0:
329,192,36000,128,0,36160:0:0:0:0:
182,192,36053,128,0,36375:0:0:0:0:
402,192,36107,128,0,36214:0:0:0:0:
256,192,36107,128,0,36428:0:0:0:0:
36,192,36107,128,0,36321:0:0:0:0:
329,192,36214,128,0,36535:0:0:0:0:
475,192,36214,128,0,36375:0:0:0:0:
402,192,36267,128,0,36535:0:0:0:0:
109,192,36321,128,0,36642:0:0:0:0:
36,192,36375,128,0,36428:0:0:0:0:
182,192,36428,128,0,36642:0:0:0:0:
475,192,36428,128,0,36696:0:0:0:0:
256,192,36482,128,0,36589:0:0:0:0:
36,192,36482,128,0,36589:0:0:0:0:
329,192,36589,128,0,36803:0:0:0:0:
402,192,36589,128,0,36857:0:0:0:0:
36,192,36642,128,0,37125:0:0:0:0:
256,192,36642,128,0,36857:0:0:0:0:
109,192,36696,128,0,37660:0:0:0:0:
182,192,36696,128,0,36857:0:0:0:0:
475,192,36750,128,0,37071:0:0:0:0:
329,192,36857,128,0,36964:0:0:0:0:
182,192,36910,128,0,37017:0:0:0:0:
256,192,36910,128,0,37178:0:0:0:0:
402,192,36910,128,0,37285:0:0:0:0:
329,192,37017,128,0,37339:0:0:0:0:
182,192,37071,128,0,37178:0:0:0:0:
475,192,37125,128,0,37339:0:0:0:0:
36,192,37178,128,0,37285:0:0:0:0:
182,192,37232,128,0,37339:0:0:0:0:
256,192,37232,128,0,37446:0:0:0:0:
402,192,37339,128,0,37446:0:0:0:0:
36,192,37339,128,0,37553:0:0:0:0:
182,192,37392,128,0,37553:0:0:0:0:
475,192,37392,128,0,37767:0:0:0:0:
329,192,37392,128,0,37607:0:0:0:0:
256,192,37553,128,0,37767:0:0:0:0:
402,192,37553,128,0,37767:0:0:0:0:
182,192,37607,128,0,37928:0:0:0:0:
36,192,37607,128,0,37714:0:0:0:0:
329,192,37660,128,0,37767:0:0:0:0:
109,192,37714,128,0,37982:0:0:0:0:
36,192,37767,128,0,37928:0:0:0:0:
329,192,37821,128,0,37928:0:0:0:0:
475,192,37821,128,0,37982:0:0:0:0:
256,192,37821,128,0,37875:0:0:0:0:
402,192,37821,128,0,38089:0:0:0:0:
256,192,37928,128,0,38089:0:0:0:0:
329,192,37982,128,0,38464:0:0:0:0:
36,192,37982,128,0,38035:0:0:0:0:
182,192,37982,128,0,38196:0:0:0:0:
475,192,38035,128,0,38303:0:0:0:0:
109,192,38089,128,0,38250:0:0:0:0:
36,192,38089,128,0,38196:0:0:0:0:
402,192,38142,128,0,38410:0:0:0:0:
256,192,38142,128,0,38196:0:0:0:0:
182,192,38250,128,0,38357:0:0:0:0:
256,192,38250,128,0,38357:0:0:0:0:
36,192,38250,128,0,38303:0:0:0:0:
109,192,38303,128,0,38625:0:0:0:0:
36,192,38357,128,0,38517:0:0:0:0:
475,192,38357,128,0,38517:0:0:0:0:
182,192,38410,128,0,38571:0:0:0:0:
256,192,38410,128,0,38571:0:0:0:0:
402,192,38464,128,0,38571:0:0:0:0:
329,192,38517,128,0,38625:0:0:0:0:
36,192,38571,128,0,38732:0:0:0:0:
475,192,38571,128,0,38678:0:0:0:0:
182,192,38625,128,0,38892:0:0:0:0:
256,192,38625,128,0,38839:0:0:0:0:
402,192,38625,128,0,38732:0:0:0:0:
109,192,38678,128,0,39053:0:0:0:0:
329,192,38678,128,0,38785:0:0:0:0:
475,192,38732,128,0,38946:0:0:0:0:
402,192,38785,128,0,39053:0:0:0:0:
36,192,38839,128,0,39107:0:0:0:0:
329,192,38839,128,0,38946:0:0:0:0:
256,192,38892,128,0,39267:0:0:0:0:
182,192,38946,128,0,39160:0:0:0:0:
329,192,39000,128,0,39160:0:0:0:0:
475,192,39000,128,0,39160:0:0:0:0:
109,192,39107,128,0,39375:0:0:0:0:
402,192,39107,128,0,39375:0:0:0:0:
36,192,39160,128,0,39321:0:0:0:0:
329,192,39214,128,0,39428:0:0:0:0:
182,192,39214,128,0,39321:0:0:0:0:
475,192,39214,128,0,39482:0:0:0:0:
256,192,39321,128,0,39428:0:0:0:0:
182,192,39375,128,0,39482:0:0:0:0:
36,192,39375,128,0,39696:0:0:0:0:
109,192,39428,128,0,39589:0:0:0:0:
402,192,39428,128,0,39642:0:0:0:0:
256,192,39482,128,0,39589:0:0:0:0:
329,192,39482,128,0,39750:0:0:0:0:
182,192,39535,128,0,39803:0:0:0:0:
475,192,39535,128,0,39910:0:0:0:0:
109,192,39642,128,0,39803:0:0:0:0:
256,192,39642,128,0,39910:0:0:0:0:
402,192,39696,128,0,39910:0:0:0:0:
36,192,39750,128,0,39857:0:0:0:0:
329,192,39803,128,0,39910:0:0:0:0:
182,192,39857,128,0,40607:0:0:0:0:
109,192,39857,128,0,40125:0:0:0:0:
36,192,39910,128,0,40071:0:0:0:0:
329,192,39964,128,0,40071:0:0:0:0:
256,192,39964,128,0,40017:0:0:0:0:
475,192,39964,128,0,40125:0:0:0:0:
402,192,40017,128,0,40125:0:0:0:0:
256,192,40071,128,0,40232:0:0:0:0:
329,192,40125,128,0,40392:0:0:0:0:
36,192,40125,128,0,40178:0:0:0:0:
36,192,40232,128,0,40339:0:0:0:0:
475,192,40232,128,0,40446:0:0:0:0:
109,192,40232,128,0,40392:0:0:0:0:
402,192,40232,128,0,40446:0:0:0:0:
256,192,40285,128,0,40339:0:0:0:0:
36,192,40392,128,0,40446:0:0:0:0:
256,192,40392,128,0,40928:0:0:0:0:
109,192,40446,128,0,40821:0:0:0:0:
402,192,40500,128,0,40767:0:0:0:0:
329,192,40500,128,0,40660:0:0:0:0:
475,192,40500,128,0,40982:0:0:0:0:
36,192,40553,128,0,40660:0:0:0:0:
182,192,40660,128,0,40875:0:0:0:0:
36,192,40714,128,0,40982:0:0:0:0:
329,192,40767,128,0,40928:0:0:0:0:
402,192,40821,128,0,41035:0:0:0:0:
109,192,40875,128,0,41357:0:0:0:0:
182,192,40928,128,0,41142:0:0:0:0:
256,192,40982,128,0,41196:0:0:0:0:
329,192,40982,128,0,41357:0:0:0:0:
475,192,41035,128,0,41303:0:0:0:0:
36,192,41035,128,0,41464:0:0:0:0:
402,192,41089,128,0,41464:0:0:0:0:
182,192,41196,128,0,41303:0:0:0:0:
256,192,41250,128,0,41410:0:0:0:0:
182,192,41357,128,0,41678:0:0:0:0:
475,192,41357,128,0,41625:0:0:0:0:
329,192,41410,128,0,41625:0:0:0:0:
109,192,41410,128,0,42053:0:0:0:0:
256,192,41464,128,0,41625:0:0:0:0:
402,192,41517,128,0,41732:0:0:0:0:
36,192,41517,128,0,41732:0:0:0:0:
329,192,41678,128,0,41946:0:0:0:0:
256,192,41678,128,0,41946:0:0:0:0:
475,192,41678,128,0,41839:0:0:0:0:
182,192,41732,128,0,42000:0:0:0:0:
402,192,41785,128,0,42053:0:0:0:0:
36,192,41785,128,0,41946:0:0:0:0:
475,192,41892,128,0,42160:0:0:0:0:
329,192,42000,128,0,42214:0:0:0:0:
36,192,42000,128,0,42107:0:0:0:0:
256,192,42000,128,0,42267:0:0:0:0:
182,192,42053,128,0,42160:0:0:0:0:
402,192,42107,128,0,42267:0:0:0:0:
109,192,42107,128,0,42267:0:0:0:0:
36,192,42160,128,0,42375:0:0:0:0:
182,192,42214,128,0,42321:0:0:0:0:
475,192,42214,128,0,42375:0:0:0:0:
329,192,42267,128,0,42375:0:0:0:0:
109,192,42321,128,0,42482:0:0:0:0:
256,192,42321,128,0,42535:0:0:0:0:
402,192,42321,128,0,42482:0:0:0:0:
182,192,42375,128,0,42642:0:0:0:0:
36,192,42428,128,0,42750:0:0:0:0:
329,192,42428,128,0,42535:0:0:0:0:
475,192,42428,128,0,42642:0:0:0:0:
402,192,42535,128,0,42750:0:0:0:0:
109,192,42535,128,0,42589:0:0:0:0:
329,192,42589,128,0,42642:0:0:0:0:
256,192,42589,128,0,42803:0:0:0:0:
109,192,42642,1,0,0:0:0:0:
109,192,42696,128,0,43339:0:0:0:0:
182,192,42696,128,0,42803:0:0:0:0:
329,192,42696,128,0,42910:0:0:0:0:
36,192,42803,128,0,43017:0:0:0:0:
402,192,42803,128,0,43017:0:0:0:0:
475,192,42803,128,0,43178:0:0:0:0:
256,192,42857,128,0,43071:0:0:0:0:
182,192,42857,128,0,42964:0:0:0:0:
182,192,43017,128,0,43232:0:0:0:0:
329,192,43017,128,0,43125:0:0:0:0:
402,192,43071,128,0,43178:0:0:0:0:
36,192,43125,128,0,43285:0:0:0:0:
256,192,43125,128,0,43446:0:0:0:0:
329,192,43178,128,0,43500:0:0:0:0:
402,192,43232,128,0,43553:0:0:0:0:
475,192,43232,128,0,43500:0:0:0:0:
182,192,43285,128,0,43392:0:0:0:0:
36,192,43339,128,0,43446:0:0:0:0:
109,192,43392,128,0,43875:0:0:0:0:
182,192,43446,128,0,43660:0:0:0:0:
256,192,43500,128,0,43714:0:0:0:0:
36,192,43500,1,0,0:0:0:0:
36,192,43553,128,0,43660:0:0:0:0:
329,192,43553,128,0,43767:0:0:0:0:
475,192,43553,128,0,43821:0:0:0:0:
402,192,43607,128,0,43982:0:0:0:0:
36,192,43714,128,0,43982:0:0:0:0:
182,192,43714,128,0,43821:0:0:0:0:
256,192,43767,128,0,43928:0:0:0:0:
329,192,43821,128,0,43875:0:0:0:0:
182,192,43875,128,0,44196:0:0:0:0:
475,192,43875,128,0,44142:0:0:0:0:
329,192,43928,128,0,44142:0:0:0:0:
109,192,43928,128,0,44142:0:0:0:0:
256,192,43982,128,0,44142:0:0:0:0:
402,192,44035,128,0,44250:0:0:0:0:
36,192,44035,128,0,44250:0:0:0:0:
109,192,44196,128,0,44357:0:0:0:0:
329,192,44196,128,0,44464:0:0:0:0:
256,192,44196,128,0,44464:0:0:0:0:
475,192,44196,128,0,44357:0:0:0:0:
182,192,44250,128,0,44517:0:0:0:0:
402,192,44303,128,0,44571:0:0:0:0:
36,192,44303,128,0,44464:0:0:0:0:
475,192,44410,128,0,44678:0:0:0:0:
109,192,44410,128,0,44517:0:0:0:0:
329,192,44517,128,0,44732:0:0:0:0:
36,192,44517,128,0,44625:0:0:0:0:
256,192,44517,128,0,44785:0:0:0:0:
182,192,44571,128,0,44678:0:0:0:0:
109,192,44571,128,0,44785:0:0:0:0:
402,192,44625,128,0,44785:0:0:0:0:
36,192,44678,128,0,44892:0:0:0:0:
182,192,44732,128,0,44839:0:0:0:0:
475,192,44732,128,0,44892:0:0:0:0:
329,192,44785,128,0,44892:0:0:0:0:
109,192,44839,128,0,45000:0:0:0:0:
256,192,44839,128,0,45053:0:0:0:0:
402,192,44839,128,0,45000:0:0:0:0:
182,192,44892,128,0,45160:0:0:0:0:
36,192,44946,128,0,45267:0:0:0:0:
329,192,44946,128,0,45053:0:0:0:0:
475,192,44946,128,0,45160:0:0:0:0:
109,192,45053,128,0,45107:0:0:0:0:
402,192,45053,128,0,45267:0:0:0:0:
329,192,45107,128,0,45160:0:0:0:0:
256,192,45107,128,0,45321:0:0:0:0:
109,192,45160,128,0,45214:0:0:0:0:
182,192,45214,128,0,45321:0:0:0:0:
329,192,45214,128,0,45428:0:0:0:0:
109,192,45267,128,0,45375:0:0:0:0:
36,192,45321,128,0,45535:0:0:0:0:
402,192,45321,128,0,45535:0:0:0:0:
475,192,45321,128,0,45696:0:0:0:0:
256,192,45375,128,0,45589:0:0:0:0:
182,192,45375,128,0,45482:0:0:0:0:
109,192,45428,128,0,45750:0:0:0:0:
329,192,45482,128,0,46017:0:0:0:0:
182,192,45535,128,0,46339:0:0:0:0:
402,192,45589,128,0,45696:0:0:0:0:
36,192,45589,128,0,45803:0:0:0:0:
256,192,45642,128,0,46446:0:0:0:0:
402,192,45750,128,0,46071:0:0:0:0:
475,192,45750,128,0,45857:0:0:0:0:
109,192,45803,128,0,46607:0:0:0:0:
36,192,45857,128,0,45964:0:0:0:0:
475,192,45910,128,0,46500:0:0:0:0:
36,192,46017,128,0,46125:0:0:0:0:
329,192,46071,128,0,46232:0:0:0:0:
402,192,46125,128,0,46553:0:0:0:0:
36,192,46178,128,0,46285:0:0:0:0:
329,192,46285,128,0,46446:0:0:0:0:
36,192,46339,128,0,46607:0:0:0:0:
182,192,46392,128,0,46660:0:0:0:0:
329,192,46500,128,0,46767:0:0:0:0:
256,192,46500,128,0,46714:0:0:0:0:
475,192,46553,128,0,46714:0:0:0:0:
402,192,46607,128,0,46821:0:0:0:0:
109,192,46660,128,0,46875:0:0:0:0:
36,192,46660,128,0,47035:0:0:0:0:
182,192,46714,128,0,46821:0:0:0:0:
256,192,46767,128,0,46982:0:0:0:0:
475,192,46767,128,0,46928:0:0:0:0:
329,192,46821,128,0,47035:0:0:0:0:
402,192,46875,128,0,47089:0:0:0:0:
182,192,46875,128,0,46982:0:0:0:0:
109,192,46928,128,0,47250:0:0:0:0:
475,192,46982,128,0,47035:0:0:0:0:
182,192,47035,128,0,47410:0:0:0:0:
256,192,47035,128,0,47464:0:0:0:0:
36,192,47089,128,0,47303:0:0:0:0:
329,192,47089,128,0,47142:0:0:0:0:
475,192,47089,128,0,47196:0:0:0:0:
402,192,47142,128,0,47196:0:0:0:0:
329,192,47196,128,0,47410:0:0:0:0:
475,192,47250,128,0,47357:0:0:0:0:
402,192,47250,128,0,47357:0:0:0:0:
109,192,47303,128,0,47571:0:0:0:0:
36,192,47357,128,0,47785:0:0:0:0:
475,192,47410,128,0,47517:0:0:0:0:
402,192,47410,128,0,47571:0:0:0:0:
182,192,47464,128,0,47625:0:0:0:0:
329,192,47464,128,0,47732:0:0:0:0:
256,192,47517,128,0,47678:0:0:0:0:
475,192,47571,128,0,47625:0:0:0:0:
109,192,47625,128,0,48107:0:0:0:0:
402,192,47625,128,0,47946:0:0:0:0:
182,192,47678,128,0,47839:0:0:0:0:
475,192,47678,128,0,47839:0:0:0:0:
256,192,47732,128,0,47785:0:0:0:0:
329,192,47785,128,0,47946:0:0:0:0:
36,192,47839,128,0,48107:0:0:0:0:
475,192,47892,128,0,48000:0:0:0:0:
182,192,47892,128,0,47946:0:0:0:0:
329,192,48000,128,0,48267:0:0:0:0:
256,192,48000,128,0,48214:0:0:0:0:
402,192,48000,128,0,48053:0:0:0:0:
475,192,48053,128,0,48214:0:0:0:0:
402,192,48107,128,0,48321:0:0:0:0:
109,192,48160,128,0,48375:0:0:0:0:
36,192,48160,128,0,48267:0:0:0:0:
182,192,48214,128,0,48321:0:0:0:0:
256,192,48267,128,0,48482:0:0:0:0:
475,192,48267,128,0,48428:0:0:0:0:
329,192,48321,128,0,48535:0:0:0:0:
402,192,48375,128,0,48589:0:0:0:0:
