osu file format v5

[General]
AudioFilename: Help me ERINNNNNN.mp3
AudioLeadIn: 0
PreviewTime: -1
Countdown: 2
SampleSet: Normal
StackLeniency: 0.7
Mode: 0
LetterboxInBreaks: 1
EditorBookmarks: 5344,15796,36849,57737,68344,78801,89311,120758,141703,152202,153842,162701,173200,190261,191410,207323,215200,236142

[Metadata]
Title:Help me ERINNNNNN
Artist:Touhou
Creator:Pal-chan
Version:Normal
Source:Touhou
Tags:IOSYS Touhou Erin Eirin

[Difficulty]
HPDrainRate:5
CircleSize:5
OverallDifficulty:4
SliderMultiplier:1.5
SliderTickRate:1

[Events]
//Background and Video events
0,0,"EIRIN.png"
//Break Periods
2,32717,35529
2,54700,56687
2,159949,161652
2,191609,193149
2,212510,214172
//Storyboard Layer 0 (Background)
//Storyboard Layer 1 (Failing)
//Storyboard Layer 2 (Passing)
//Storyboard Layer 3 (Foreground)
//Storyboard Sound Samples
//Background Colour Transformations
3,100,163,162,255

[TimingPoints]
5344,326.886956521739,4,1,0,100,1
15796,327.868852459016,4,1,0,100,1
36849,326.886406973577,4,1,0,100,1
57737,331.491712707182,4,1,0,100,1
68344,326.791712707181,4,1,0,100,1
78801,326.886406973577,4,1,0,100,1
89311,326.797385620915,4,1,0,100,1
120758,326.886406973577,4,1,0,100,1
141703,328.112633802464,4,1,0,100,1
152202,328.112633802464,4,1,0,100,1
153842,328.112633802464,4,1,0,100,1
162701,328.112633802464,4,2,0,100,1
173200,328.112633802464,4,1,0,100,1
178285,328.112633802464,4,2,0,100,1
183534,328.112633802464,4,1,0,100,1
188781,328.112633802464,4,1,0,100,1
194030,328.112633802464,4,2,0,100,1
204529,328.112633802464,4,1,0,100,1
215222,326.886406973577,4,1,0,100,1

[HitObjects]
0,0,15796,1,0
128,0,16123,1,0
0,128,16451,1,0
128,128,16779,1,0
128,64,17107,5,8
64,0,17435,1,8
0,64,17763,1,8
64,128,18091,1,8
64,64,18418,5,0
192,64,18746,1,0
192,192,19074,1,0
64,192,19402,1,0
192,0,19730,5,8
256,64,20058,1,8
192,128,20386,1,8
256,192,20714,1,8
256,128,21041,5,0
256,0,21369,1,0
320,0,21697,1,0
320,128,22025,1,0
320,64,22353,5,8
384,0,22681,1,8
448,64,23009,1,8
512,0,23336,1,8
512,64,23664,5,0
448,0,23992,1,0
384,64,24320,1,0
448,128,24648,1,0
512,128,24976,5,8
512,192,25304,1,8
384,192,25632,1,8
384,128,25959,1,8
448,192,26287,5,0
320,192,26615,1,0
320,320,26943,1,0
448,320,27271,1,0
512,256,27599,5,8
512,384,27927,1,8
384,384,28255,1,8
384,256,28582,1,8
448,256,28910,5,0
512,320,29238,1,0
448,384,29566,1,0
384,320,29894,1,0
320,256,30222,5,8
320,384,30550,1,8
256,384,30877,1,8
256,256,31205,1,8
256,320,31533,5,0
192,256,31861,1,0
128,320,32189,1,0
192,384,32517,1,0
256,192,36849,12,0,37502
32,256,39137,6,0,B|96:128|96:128|160:256|160:256|224:128|224:128|288:256|288:256|352:128|352:128|416:256|416:256|480:64,1,1050
