osu file format v8

[General]
AudioFilename: Toto - Africa.mp3
AudioLeadIn: 0
PreviewTime: -1
Countdown: 1
SampleSet: Soft
StackLeniency: 0.7
Mode: 0
LetterboxInBreaks: 1

[Editor]
DistanceSpacing: 0.800000011920929
BeatDivisor: 4
GridSize: 8

[Metadata]
Title:Africa
Artist:Toto
Creator:hankyspanky
Version:Normal
Source:
Tags:

[Difficulty]
HPDrainRate:5
CircleSize:5
OverallDifficulty:5
ApproachRate:5
SliderMultiplier:1.4
SliderTickRate:1

[Events]
//Background and Video events
0,0,"overview.jpg"
//Break Periods
2,23660,33360
2,147140,151500
2,166399,172860
//Storyboard Layer 0 (Background)
//Storyboard Layer 1 (Fail)
//Storyboard Layer 2 (Pass)
//Storyboard Layer 3 (Foreground)
//Storyboard Sound Samples
//Background Colour Transformations
3,100,163,162,255

[TimingPoints]
0,240,4,2,0,100,1,0

[Colours]
Combo1 : 128,128,0
Combo2 : 255,128,0
Combo3 : 0,255,255
Combo4 : 255,255,0

[HitObjects]
248,192,1920,1,0
96,200,2220,1,0
256,184,5520,5,0
256,184,5880,1,0
256,184,6240,1,0
256,184,6600,1,0
256,184,6780,1,0
256,184,7140,1,0
256,184,7440,1,0
160,232,10560,5,0
344,168,10980,1,0
248,192,12240,5,0
248,192,15900,5,0
248,192,16260,1,0
248,192,16620,1,0
248,192,16920,1,0
248,192,17100,1,0
248,192,17400,1,0
248,192,17760,1,0
96,280,21480,5,0
440,136,22260,1,0
160,256,22920,1,0
384,152,23460,1,0
248,192,34560,5,0
248,192,35220,1,0
248,192,36480,1,0
248,192,37800,1,0
248,192,38340,1,0
248,192,39000,1,0
248,192,39600,1,0
208,192,40320,1,0
376,192,41700,1,0
224,184,42600,1,0
224,184,42780,1,0
224,184,43200,1,0
224,184,43560,1,0
328,200,44820,5,0
40,192,45420,1,0
360,200,46080,1,0
40,184,46740,1,0
72,320,48660,2,0,B|376:72,1,385
72,328,50160,2,0,B|368:88,1,350
104,312,51840,2,0,B|384:80,2,350
240,192,54780,1,0
400,192,55140,1,0
160,192,56460,5,0
160,192,57120,1,0
424,200,57720,1,0
144,192,58320,1,0
208,200,59580,1,0
208,200,59820,1,0
208,200,60180,1,0
208,200,60540,1,0
208,200,61020,1,0
208,200,61200,1,0
208,200,61500,1,0
208,200,61800,1,0
208,200,62040,1,0
184,240,66840,5,0
384,80,67380,1,0
160,264,67980,1,0
392,72,68640,1,0
56,336,69540,2,0,B|376:80,1,385
224,200,71880,1,0
224,200,72120,1,0
224,200,72300,1,0
224,200,72660,1,0
224,200,73140,1,0
224,200,73800,1,0
512,112,74460,1,0
224,200,75120,1,0
256,192,79080,5,0
256,192,79680,1,0
256,192,80280,1,0
256,192,82860,12,0,85500
144,184,86880,5,0
240,176,88140,1,0
240,176,88860,1,0
240,176,89400,1,0
80,296,91020,2,0,B|288:120,1,245
248,192,95700,5,0
248,192,95880,1,0
248,192,96180,1,0
248,192,96480,1,0
248,192,97740,1,0
248,192,99060,1,0
128,200,100980,1,0
128,200,101640,1,0
376,208,102180,1,0
216,192,103500,1,0
480,72,104100,1,0
192,216,104820,1,0
456,288,105420,1,0
152,264,106080,1,0
360,304,106560,1,0
208,272,106920,1,0
416,328,107400,1,0
80,240,108120,1,0
400,320,108840,1,0
240,192,110400,5,0
240,192,110820,5,0
240,192,112620,1,0
240,192,113280,1,0
240,192,113880,1,0
240,192,115200,1,0
240,192,116460,1,0
136,184,117720,1,0
488,152,118500,1,0
248,176,119040,1,0
288,240,120960,1,0
320,240,121800,1,0
336,240,122400,1,0
184,224,124200,1,0
184,224,124920,1,0
184,224,125520,1,0
72,312,128160,2,0,B|464:64,2,455
64,312,133740,2,0,B|104:152|208:104|304:104|360:184|336:336|248:368|112:328|128:224|240:176|416:168|464:224|448:288,3,735
72,312,138780,2,0,B|120:200|168:128|224:88|296:80|352:120|344:264|264:288|176:264|128:144|128:104|200:80|376:80|440:104|464:176|464:280,3,805
120,272,144960,2,0,B|456:56,3,385
144,192,152700,5,0
456,192,153360,1,0
128,192,154080,1,0
464,192,154800,1,0
160,192,155460,1,0
424,192,156060,1,0
176,192,156600,1,0
256,184,157800,1,0
256,184,157980,1,0
256,184,158280,1,0
256,184,158580,1,0
184,200,159180,1,0
464,136,159780,1,0
152,208,160500,1,0
456,136,161160,1,0
96,312,163200,2,0,B|376:88,5,350
264,192,174060,5,0
264,192,174720,1,0
264,192,175320,1,0
264,192,176040,1,0
264,192,176820,5,0
264,192,177360,5,0
264,192,178020,5,0
264,192,179280,1,0
264,192,179880,1,0
264,192,180600,1,0
264,192,181140,1,0
64,256,182460,1,0
328,168,183060,1,0
88,288,183660,1,0
176,264,183840,1,0
368,208,184260,1,0
288,64,184620,1,0
328,136,184800,1,0
64,320,188940,2,0,B|104:144,1,175
80,312,191100,6,0,B|104:184|152:128|232:112|312:120|360:208|320:296|176:264|264:120|320:88|432:64|512:64,2,595
112,296,194640,2,0,B|136:240|160:184|208:144|280:128|320:184|304:240|264:280|304:304|384:312|416:264|432:192|400:128|384:112|296:104|176:112|112:128|80:144|32:176,3,770
200,192,202920,1,0
200,192,203100,1,0
200,192,203820,1,0
200,192,204240,1,0
296,184,205740,1,0
232,192,206460,1,0
232,192,207000,1,0
232,192,207720,1,0
400,224,208080,1,0
320,160,208320,1,0
256,192,210960,12,0,213540
256,192,216120,12,0,218700
56,320,222720,6,0,B|96:232|176:192|288:184|360:208|384:280|440:352,2,455
40,32,227820,2,0,B|72:128|160:208|272:112|368:104|312:296|152:312|40:272|144:352|336:352|440:208|416:64|416:56,6,735
256,192,238140,1,0
256,192,238620,1,0
256,192,238980,1,0
256,192,239280,1,0
256,192,239460,1,0
256,192,239820,1,0
256,192,240120,1,0
224,224,240840,1,0
440,48,241440,1,0
200,248,242100,1,0
104,216,243600,5,0
248,216,243900,1,0
248,216,244200,1,0
408,224,244560,1,0
336,208,244740,1,0
432,152,244980,1,0
288,160,245280,1,0
