osu file format v5

[General]
AudioFilename: chains.mp3
AudioLeadIn: 0
PreviewTime: 38674
Countdown: 1
SampleSet: Normal
StackLeniency: 0.7
Mode: 0
LetterboxInBreaks: 1

[Metadata]
Title:Off the Chains
Artist:Toss & Turn
Creator:Saturos-fangirl
Version:Normal
Source:Bakuten Shoot Beyblade 2002
Tags:

[Difficulty]
HPDrainRate:3
CircleSize:5
OverallDifficulty:4
SliderMultiplier:1
SliderTickRate:1

[Events]
//Background and Video events
0,0,"BB_640x480.jpg"
//Break Periods
2,58115,61890
//Storyboard Layer 0 (Background)
//Storyboard Layer 1 (Failing)
//Storyboard Layer 2 (Passing)
//Storyboard Layer 3 (Foreground)
//Storyboard Sound Samples
//Background Colour Transformations
3,100,163,162,255

[TimingPoints]
12024,353.148911124191,4,1,0,89,1,0
79544,353.148911124191,4,1,0,91,1,0

[Colours]
Combo1 : 128,128,128
Combo2 : 0,0,64
Combo3 : 249,249,0
Combo4 : 215,0,0

[HitObjects]
143,121,11670,1,0
223,123,12023,2,0,B|279:143|281:143|287:144,1,50,0|4
379,189,12730,1,8
306,223,13083,1,8
378,256,13436,1,8
304,288,13789,1,0
363,341,14142,1,8
431,298,14496,5,4
482,236,14849,2,0,B|478:191|446:183,1,50,0|4
370,114,15555,1,8
318,52,15908,1,8
280,122,16261,1,8
228,61,16614,1,0
200,136,16968,1,8
149,74,17321,5,4
89,127,17674,2,0,B|57:157|82:194,1,50,0|4
124,232,18204,2,0,B|162:263|193:246,1,50,0|4
245,273,18733,1,0
291,208,19086,1,8
330,277,19440,1,8
372,209,19793,1,8
419,144,20146,5,4
358,91,20499,2,4,B|348:69|295:109,1,50
210,156,21205,5,2
153,99,21559,2,2,B|124:83|89:123,1,50,2|6
256,192,21912,12,0,22971
368,113,23501,5,4
248,113,24031,1,8
167,111,24384,1,8
87,112,24737,1,8
7,113,25090,1,0
87,112,25443,1,8
119,183,25796,5,4
39,183,26149,2,0,B|88:235,1,50,0|4
193,219,26856,1,2
272,219,27209,1,0
351,221,27562,1,2
430,220,27915,1,0
351,221,28268,1,2
359,300,28621,5,4
439,303,28975,2,0,B|392:350,1,50,0|4
283,338,29681,1,0
203,338,30034,1,0
123,338,30387,1,2
43,338,30740,1,0
122,338,31094,1,2
124,258,31447,5,4
42,258,31800,2,0,B|85:211,1,50,0|6
165,141,32506,5,2
244,142,32859,2,2,B|204:186,1,50,0|4
256,192,33389,12,8,34625
398,163,35331,6,0,B|411:217|409:272|395:271|391:282,1,100
325,286,36038,1,8
164,281,36744,1,8
90,138,37450,6,0,B|56:168|56:208|73:245|79:237,1,100,8|0
147,227,38157,2,0,B|151:243|134:206|134:166|168:136,1,100,8|0
248,144,38863,2,0,B|214:174|214:214|231:251|237:243,1,100,8|0
307,235,39569,2,0,B|311:251|294:214|294:174|328:144,1,100,8|0
380,200,40275,1,6
323,50,40982,5,0
284,194,41688,1,0
201,50,42394,1,0
135,195,43101,1,0
70,48,43807,1,4
71,127,44160,2,4,B|71:249,1,100
185,339,45219,1,2
185,339,45573,1,6
256,192,45926,12,8,46985
256,192,47338,12,8,48398
377,144,48751,5,2
272,268,49457,1,0
171,140,50164,1,2
74,270,50870,1,8
7,223,51223,1,10
57,154,51576,6,8,B|111:61|209:39|238:46,3,200,8|4|8|4
218,205,54401,6,0,B|330:205,1,100,0|8
371,262,55108,2,0,B|249:262,1,100,0|2
216,318,55814,2,0,B|328:318,1,100,0|8
371,374,56520,1,0
291,375,56873,1,0
291,375,57050,1,2
170,374,57580,6,4,B|170:258,1,100,4|4
132,149,63230,6,0,B|177:87|232:140,1,100
333,237,64290,1,8
405,94,64996,1,8
482,233,65702,2,0,B|426:336,1,100,8|8
372,270,66408,1,8
308,220,66762,2,0,B|221:144,2,100,0|4|2
77,285,68527,5,8
237,286,69234,1,8
381,218,69940,5,8
304,217,70293,1,8
224,218,70646,1,8
105,110,71353,6,8,B|-3:110,2,100,8|8|10
185,110,72412,2,8,B|256:110,6,50,8|8|8|8|8|8|10
414,71,74178,5,10
418,231,74884,1,8
352,376,75590,5,2
352,296,75943,1,8
352,216,76297,1,2
212,136,77003,6,0,B|212:244,2,100,8|8|10
212,56,78062,2,8,B|212:-15,6,50,8|8|8|8|8|8|10
152,109,79519,5,4
228,132,79897,2,0,B|284:152|286:152|292:153,1,50
387,190,80603,1,8
314,223,80956,1,0
383,263,81309,1,2
305,284,81662,1,0
367,334,82016,1,8
443,309,82369,5,6
487,242,82722,2,0,B|483:197|451:189,1,50
377,118,83428,1,2
330,52,83781,1,2
295,124,84134,1,2
244,61,84488,1,2
212,134,84841,1,2
159,73,85194,5,4
93,119,85547,2,0,B|61:149|86:186,1,50,0|4
123,228,86077,2,0,B|161:259|192:242,1,50,0|2
244,272,86606,1,8
299,214,86960,1,2
347,277,87313,1,8
406,223,87666,1,2
424,145,88019,5,6
363,92,88372,2,8,B|353:70|300:110,1,50,8|10
217,160,89079,5,6
160,103,89432,2,6,B|131:87|96:127,1,50,2|6
256,192,89785,12,4,90844
397,146,91197,6,0,B|382:95|368:101|351:104,1,50,2|4
258,66,91904,1,4
179,81,92257,2,0,B|141:95|151:122,1,50,2|4
40,187,93846,5,4
32,229,94023,1,0
63,263,94199,2,0,B|86:314|115:280,1,50,0|4
199,228,94905,1,2
217,183,95082,1,0
261,177,95259,2,0,B|289:177|295:220,1,50,0|4
493,341,96495,5,8
413,341,96848,2,0,B|375:359|358:326,1,50,0|8
268,267,97554,1,8
188,265,97907,2,0,B|152:235|148:289,1,50,0|8
94,149,99496,5,4
126,75,99850,2,0,B|149:24|178:58,1,50
250,90,100379,1,0
239,136,100556,1,4
318,138,100909,2,0,B|346:138|352:95,1,50
113,63,102145,5,4
150,133,102498,2,0,B|127:184|98:150,1,50
110,283,103204,1,4
32,301,103558,2,0,B|4:301|-2:344,1,50
236,118,105147,5,4
199,149,105323,1,0
194,196,105500,1,0
236,217,105677,1,4
359,142,106206,1,4
398,170,106383,1,0
398,217,106559,1,0
359,246,106736,1,12
72,273,107795,5,4
123,353,108149,2,0,B|135:375|158:324,1,50
170,284,108502,1,0
160,237,108678,1,0
133,196,108855,1,4
164,105,109208,2,0,B|176:84|199:135,1,50
54,136,110797,5,4
85,63,111150,2,0,B|108:12|137:46,1,50,2|4
154,45,111503,1,0
163,80,111680,1,0
133,110,111857,1,4
187,168,112210,2,0,B|215:168|221:125,3,50,2|2|0|8
256,192,112872,12,0,116271
