osu file format v5

[General]
AudioFilename: chains.mp3
AudioLeadIn: 0
PreviewTime: 32236
Countdown: 1
SampleSet: Normal
StackLeniency: 0.7
Mode: 0
LetterboxInBreaks: 1

[Metadata]
Title:Off the Chains
Artist:Toss & Turn
Creator:Saturos-fangirl
Version:Easy
Source:Bakuten Shoot Beyblade 2002
Tags:

[Difficulty]
HPDrainRate:3
CircleSize:4
OverallDifficulty:3
SliderMultiplier:1
SliderTickRate:1

[Events]
//Background and Video events
0,0,"BB_640x480.jpg"
//Break Periods
2,58848,67096
//Storyboard Layer 0 (Background)
//Storyboard Layer 1 (Failing)
//Storyboard Layer 2 (Passing)
//Storyboard Layer 3 (Foreground)
//Storyboard Sound Samples
//Background Colour Transformations
3,100,163,162,255

[TimingPoints]
12024,353.148911124191,4,1,0,90,1,0
79544,353.148911124191,4,1,0,92,1,0

[Colours]
Combo1 : 128,128,128
Combo2 : 0,0,64
Combo3 : 255,255,0
Combo4 : 202,4,4

[HitObjects]
118,163,11670,2,0,B|264:109,1,150
303,171,12730,1,0
239,248,13436,1,0
338,248,14142,1,8
388,246,14496,6,0,B|503:139,1,150,0|0
418,128,15555,1,0
325,82,16261,1,0
223,99,16968,1,0
173,84,17321,5,8
136,151,17850,1,8
175,214,18380,1,0
274,216,19086,1,0
374,216,19793,1,8
396,171,20146,5,8
339,121,20676,1,8
274,159,21205,5,2
215,111,21735,1,2
256,192,21912,12,4,22971
263,113,24031,5,0
162,114,24737,1,0
62,116,25443,1,8
95,152,25796,5,8
146,206,26326,1,0
205,160,26856,1,0
298,194,27562,1,0
395,215,28268,1,8
373,260,28621,5,8
319,314,29151,1,0
267,259,29681,1,0
167,259,30387,1,0
67,260,31094,1,0
67,319,31447,5,8
142,320,31976,1,8
217,320,32506,5,2
141,320,33036,1,2
256,192,33389,12,8,34625
398,163,35331,6,0,B|439:209|459:249|412:291|340:303,1,200
248,281,36744,1,0
94,139,37450,6,2,B|56:171|52:211|48:265|125:308,1,200
219,293,38863,2,2,B|168:246|132:212|181:132|201:113,1,200,0|0
294,126,40275,2,0,B|256:158|252:198|259:241|331:291,1,200,8|0
350,192,41688,5,0
353,89,42394,1,0
253,60,43101,1,0
153,62,43807,1,8
152,111,44160,2,8,B|152:233,1,100,2|8
151,311,45219,1,8
151,311,45573,1,12
256,192,45926,12,4,46985
256,192,47338,12,4,48398
377,144,48751,5,8
294,200,49457,1,8
212,141,50164,1,8
129,197,50870,1,8
37,143,51576,6,0,B|91:50|189:28|218:35,3,200
225,133,54401,6,0,B|339:153,3,100,8|0|8|0
327,200,55814,2,0,B|210:226,4,100,2|0|2|0|6
256,192,57580,12,4,58639
251,284,68527,5,8
150,285,69234,1,8
75,218,69940,5,8
174,218,70646,1,8
126,130,71353,6,2,B|171:100|199:87|263:76|302:97|329:117|322:125,3,200
409,82,74178,5,0
411,182,74884,1,8
347,259,75590,5,0
346,159,76297,1,8
264,217,77003,6,2,B|236:193|228:157|229:133|238:103|262:82|274:66|315:50,3,200,2|2|10|14
350,73,79544,5,0
414,111,80073,1,0
363,166,80603,1,0
284,227,81309,1,8
366,282,82016,1,8
415,298,82368,5,8
452,232,82898,1,0
405,173,83428,1,0
316,127,84134,1,0
216,137,84840,1,8
179,102,85194,5,8
116,142,85724,1,0
148,209,86253,1,0
248,213,86960,1,0
347,213,87666,1,8
381,176,88019,5,8
335,115,88549,1,8
285,171,89079,5,2
235,114,89608,1,2
256,192,89697,12,8,90668
372,103,91374,5,8
308,62,91904,1,2
247,105,92434,1,2
58,172,93846,5,8
97,235,94375,1,8
146,179,94905,1,2
184,243,95435,1,2
333,252,96494,5,8
373,314,97024,1,8
409,252,97554,1,8
456,313,98084,1,12
446,93,99496,5,2
407,156,100026,1,2
358,94,100556,1,8
315,156,101086,1,12
171,173,102145,5,2
131,235,102674,1,2
91,173,103204,1,2
52,106,103734,1,6
248,45,105147,5,8
306,92,105677,1,2
245,133,106206,1,8
307,174,106736,1,6
429,79,107795,5,2
493,117,108325,1,8
427,162,108855,1,2
359,199,109385,1,12
216,346,110797,5,10
291,346,111327,1,10
260,277,111857,1,10
259,203,112386,1,14
256,192,113093,12,0,116272
