osu file format v11

[General]
AudioFilename: The Raising Fighting Spirit.mp3
AudioLeadIn: 0
PreviewTime: -1
Countdown: 1
SampleSet: Soft
StackLeniency: 0.7
Mode: 0
LetterboxInBreaks: 1
SkinPreference:Naruto skin (chaos)
EpilepsyWarning: 1

[Editor]
Bookmarks: 32214,64357,96642
DistanceSpacing: 1.2
BeatDivisor: 3
GridSize: 4

[Metadata]
Title:The Raising Fighting Spirit
TitleUnicode:The Raising Fighting Spirit
Artist:Toshiro Masuda
ArtistUnicode:Toshiro Masuda
Creator:brainslugs
Version:Collab
Source:Naruto
Tags:Anime,OST
BeatmapID:216298
BeatmapSetID:71891

[Difficulty]
HPDrainRate:7
CircleSize:4
OverallDifficulty:7
ApproachRate:9
SliderMultiplier:2
SliderTickRate:1

[Events]
//Background and Video events
0,0,"BG.jpg"
//Break Periods
//Storyboard Layer 0 (Background)
//Storyboard Layer 1 (Fail)
//Storyboard Layer 2 (Pass)
//Storyboard Layer 3 (Foreground)
//Storyboard Sound Samples
//Background Colour Transformations
3,100,163,162,255

[TimingPoints]
500,428.571428571429,4,1,0,100,1,0
7357,-100,4,2,0,100,0,0
21071,-100,4,2,0,100,0,0
48500,-100,4,2,1,100,0,0
62214,-100,4,2,0,100,0,1
62214,-100,4,2,0,100,0,0
64357,-100,4,1,0,60,0,1
64500,-100,4,2,0,80,0,1
65214,-100,4,1,0,60,0,1
65357,-100,4,2,0,80,0,1
66071,-100,4,1,0,60,0,1
66214,-100,4,2,0,80,0,1
66928,-100,4,1,0,60,0,1
67071,-100,4,2,0,80,0,1
68214,-100,4,1,0,60,0,1
69071,-100,4,2,0,80,0,1
69500,-100,4,1,0,60,0,1
69642,-100,4,2,0,80,0,1
70357,-100,4,1,0,60,0,1
70500,-100,4,2,0,80,0,1
71214,-100,4,1,0,60,0,1
71357,-100,4,2,0,80,0,1
72500,-100,4,2,0,60,0,1
73357,-100,4,2,0,70,0,1
74214,-100,4,2,0,80,0,1
75500,-100,4,1,0,60,0,1
75928,-100,4,2,0,80,0,0
76357,-100,4,1,0,60,0,0
76500,-100,4,2,0,80,0,0
77214,-100,4,1,0,60,0,0
77357,-100,4,2,0,80,0,0
78071,-100,4,1,0,60,0,0
78214,-100,4,2,0,80,0,0
79785,-100,4,1,0,60,0,0
79928,-100,4,2,0,80,0,0
80642,-100,4,1,0,60,0,0
80785,-100,4,1,0,55,0,0
80928,-100,4,1,0,50,0,0
81071,-100,4,2,0,80,0,0
82500,-100,4,1,0,40,0,0
82642,-100,4,1,0,50,0,0
82785,-100,4,1,0,60,0,0
82928,-100,4,2,0,80,0,0
83214,-100,4,1,0,60,0,0
83357,-100,4,2,0,80,0,0
83785,-100,4,1,0,40,0,0
84071,-100,4,1,0,60,0,0
84214,-100,4,2,0,80,0,0
84928,-100,4,1,0,50,0,0
85071,-100,4,1,0,55,0,0
85214,-100,4,1,0,60,0,0
85357,-100,4,2,0,80,0,0
86642,-100,4,1,0,60,0,0
86785,-100,4,2,0,80,0,0
87500,-100,4,1,0,60,0,0
87642,-100,4,1,0,55,0,0
87785,-100,4,1,0,50,0,0
87928,-100,4,2,0,80,0,0
88785,-100,4,1,0,60,0,0
88928,-100,4,2,0,80,0,0
89642,-100,4,1,0,60,0,0
91357,-100,4,2,0,80,0,0

[Colours]
Combo1 : 255,0,0
Combo2 : 255,0,128
Combo3 : 250,102,3
Combo4 : 0,128,255

[HitObjects]
160,160,64357,5,0,0:0:0
101,217,64500,2,0,P|79:251|74:281,2,66.6666666666667
411,217,65214,2,0,P|433:251|438:281,2,66.6666666666667
314,256,65642,6,0,P|257:284|193:249,1,133.333333333333
152,196,66071,1,0,0:0:0
132,124,66214,2,0,P|104:94|72:85,2,66.6666666666667
132,124,66928,1,0,0:0:0
444,192,67357,6,0,P|376:192|376:192|303:255,1,133.333333333333
256,272,67785,1,4,0:0:0
228,344,67928,2,0,P|256:359|256:359|288:343,2,66.6666666666667
154,312,68357,1,0,0:0:0
98,256,68500,1,0,0:0:0
52,192,68642,1,0,0:0:0
98,128,68785,1,0,0:0:0
154,72,68928,1,0,0:0:0
228,40,69071,1,4,0:0:0
408,136,69500,6,0,P|408:172|384:240,1,66.6666666666667
256,168,69785,1,0,0:0:0
104,136,69928,2,0,P|104:172|128:240,1,66.6666666666667
256,168,70214,1,0,0:0:0
256,312,70357,2,0,P|164:350|51:353,2,200,0|0|0,0:0|0:0|0:0,0:0:0
256,168,71357,2,0,P|318:147|326:150,2,66.6666666666667
256,168,72071,1,4,0:0:0
468,292,72500,6,0,P|396:304|396:304|331:353,1,133.333333333333,2|2,0:0|0:0,0:0:0
44,92,73071,2,0,P|116:80|116:80|181:31,1,133.333333333333,2|4,0:0|0:0,0:0:0
224,252,73642,2,0,P|290:125,1,133.333333333333,2|2,0:0|0:0,0:0:0
328,352,74214,5,2,0:0:0
184,32,74500,1,2,0:0:0
184,352,74785,1,2,0:0:0
328,32,75071,1,2,0:0:0
256,32,75500,6,0,P|256:236,1,200,0|4,0:0|0:0,0:0:0
168,200,76071,2,0,P|117:151,2,66.6666666666667
184,288,76500,1,0,0:0:0
256,352,76642,1,0,0:0:0
328,288,76785,1,0,0:0:0
344,200,76928,2,0,P|395:151,2,66.6666666666667
168,200,77357,2,0,P|182:163|207:142,1,66.6666666666667
344,200,77642,2,0,P|330:163|305:142,1,66.6666666666667
184,40,77928,1,0,0:0:0
328,40,78071,1,0,0:0:0
256,260,78214,2,0,P|256:193,1,66.6666666666667
256,112,78500,5,4,0:0:0
256,348,78928,1,4,0:0:0
256,260,79071,6,0,P|256:168,2,66.6666666666667
256,348,79500,1,0,0:0:0
256,348,79642,1,0,0:0:0
184,300,79785,2,0,P|120:248,1,66.6666666666667
328,300,80071,2,0,P|392:248,1,66.6666666666667
304,192,80357,1,0,0:0:0
208,192,80500,1,0,0:0:0
224,116,80642,2,0,P|308:116,1,66.6666666666667
304,192,80928,1,0,0:0:0
208,192,81071,1,0,0:0:0
180,276,81214,6,0,P|133:239|114:161,1,133.333333333333,2|2,0:0|0:0,0:0:0
332,276,82071,2,0,P|379:239|398:161,1,133.333333333333,2|2,0:0|0:0,0:0:0
344,96,82500,5,0,0:0:0
256,44,82642,1,0,0:0:0
176,84,82785,2,0,P|109:64|51:71,1,66.6666666666667
84,204,83071,2,0,P|171:162,1,66.6666666666667
256,136,83357,2,0,P|256:168|240:200,1,66.6666666666667
180,276,83642,2,0,P|160:300|125:314,2,66.6666666666667
332,276,84071,2,0,P|352:300|383:313,2,66.6666666666667
270,198,84500,2,0,P|256:168|256:136,1,66.6666666666667
367,175,84786,2,0,P|428:204,1,66.6666666666667
399,64,85072,2,0,P|403:64|336:84,1,66.6666666666667
320,40,85357,2,0,P|256:112|256:112|184:32,1,200,4|4,0:0|0:0,0:0:0
120,104,85928,1,0,0:0:0
144,192,86071,6,0,P|64:192,2,66.6666666666667,0|4|0,0:0|0:0|0:0,0:0:0
200,264,86500,1,0,0:0:0
256,192,86642,1,0,0:0:0
312,264,86785,1,0,0:0:0
368,192,86928,2,0,P|448:192,2,66.6666666666667
256,192,87357,1,0,0:0:0
200,120,87500,1,0,0:0:0
144,192,87642,1,0,0:0:0
200,264,87785,1,0,0:0:0
256,348,87928,5,0,0:0:0
336,344,88071,2,0,P|411:326|453:267,1,133.333333333333,2|2,0:0|0:0,0:0:0
256,36,88785,5,0,0:0:0
176,40,88928,2,0,P|101:58|59:117,1,133.333333333333,2|2,0:0|0:0,0:0:0
448,48,89642,6,0,P|418:117|418:117|421:184,1,133.333333333333
200,333,90214,2,0,P|255:303|255:303|344:315,1,133.333333333333
161,79,90785,2,0,P|110:135|110:135|34:149,1,133.333333333333
256,192,91357,1,4,0:0:0
