osu file format v5

[General]
AudioFilename: Naruto - The Raising Fighting Spirit.mp3
AudioLeadIn: 0
PreviewTime: -1
Countdown: 0
SampleSet: Normal
StackLeniency: 0.7
Mode: 0
LetterboxInBreaks: 1
EditorBookmarks: 5210,48353,60496

[Metadata]
Title:The Raising Fighting Spirit (Naruto Battle Theme)
Artist:Toshiro Masuda
Creator:Hakkashi
Version:Jounin
Source:Naruto
Tags:

[Difficulty]
HPDrainRate:8
CircleSize:6
OverallDifficulty:6
SliderMultiplier:1.4
SliderTickRate:3

[Events]
//Background and Video events
0,0,"2515718805_d703d9bd3f.jpg"
//Break Periods
2,31123,33731
2,76124,87017
//Storyboard Layer 0 (Background)
//Storyboard Layer 1 (Failing)
//Storyboard Layer 2 (Passing)
//Storyboard Layer 3 (Foreground)
//Storyboard Sound Samples
//Background Colour Transformations
3,100,163,162,255

[TimingPoints]
5639,428.571428571429,4,1,0,100,1
48496,428.571428571429,4,2,0,100,1
60496,428.571428571429,4,1,0,100,1

[HitObjects]
128,96,5639,1,0
64,192,6067,1,0
128,288,6496,1,0
256,256,6924,5,0
288,288,7067,1,0
256,320,7210,1,0
224,288,7353,1,0
192,256,7496,5,0
160,224,7639,1,0
128,192,7781,1,0
128,128,8211,1,0
160,96,8353,1,0
192,64,8496,1,0
224,32,8639,2,0,B|288:64|288:160,1,140
352,192,9210,5,0
384,224,9353,1,0
352,256,9496,1,0
320,288,9639,5,0
352,288,9781,1,0
384,288,9924,1,2
256,192,10354,5,8
128,64,10782,5,0
64,128,11210,6,0,B|64:192,2,46.6666666666667
128,160,11639,6,0,B|128:96,2,46.6666666666667
64,224,12067,6,0,B|128:224,3,46.6666666666667
64,288,12639,5,8
128,288,12925,1,8
256,320,13496,5,8
256,256,13782,1,8
384,64,14210,5,0
384,96,14353,1,0
320,96,14496,2,0,L|320:32,1,46.6666666666667
256,64,14781,5,0
256,96,14924,1,0
192,64,15067,2,0,L|192:128,1,46.6666666666667
160,160,15496,5,0
128,160,15639,1,0
128,128,15781,1,0
128,64,15924,6,0,L|64:64,2,46.6666666666667
64,96,16353,6,0,L|64:160,2,46.6666666666667
0,96,16781,6,4,B|0:160|0:160|0:256,1,140
96,288,17639,5,0
128,288,17781,1,0
128,320,17924,1,0
128,352,18067,1,0
160,352,18210,1,2
192,352,18353,1,2
192,320,18496,1,2
192,288,18639,1,2
224,288,18781,1,0
256,288,18924,6,0,B|416:288,1,140
448,288,19496,5,8
416,224,19782,1,8
352,192,20354,1,8
288,192,20639,1,8
384,320,21067,6,0,B|288:256,1,93.3333333333333
320,224,21496,2,0,B|416:160,1,93.3333333333333
384,128,21924,2,0,B|288:64,1,93.3333333333333
256,64,22353,2,0,B|160:64,1,93.3333333333333
160,128,22781,6,0,B|96:128,3,46.6666666666667
192,192,23496,1,2
256,192,23639,2,2,B|320:192,3,46.6666666666667,2|2|2|2
160,64,24496,5,0
64,96,24781,2,0,B|64:160,1,46.6666666666667
64,192,25210,2,0,B|128:192,1,46.6666666666667
128,288,25639,1,0
128,256,25781,1,0
160,192,26210,6,0,B|224:192,1,46.6666666666667
256,192,26496,1,0
256,224,26639,2,0,B|320:224,1,46.6666666666667
352,224,26924,1,0
352,192,27067,2,0,B|416:192,1,46.6666666666667
448,192,27353,2,0,B|448:256,1,46.6666666666667
448,96,27924,5,0
448,64,28067,1,0
448,96,28210,1,0
448,128,28353,1,0
288,64,28781,6,0,B|384:96|416:224|384:320|256:352|192:352|96:288|64:192|64:96|160:64,1,700,0|4
96,64,34781,6,0,B|64:96|96:96,1,46.6666666666667
128,96,35067,2,0,B|160:96|128:128,1,46.6666666666667
128,192,35639,5,6
128,224,35781,1,6
128,288,35924,1,6
128,256,36067,1,12
416,224,36496,6,0,B|384:256|416:256,1,46.6666666666667
448,256,36781,2,0,B|480:288|448:288,1,46.6666666666667
448,160,37353,6,0,B|416:128|352:160,2,93.3333333333333
416,64,38210,6,0,L|352:64,1,46.6666666666667
320,96,38496,2,0,L|256:96,1,46.6666666666667
224,128,38781,2,0,L|160:128,1,46.6666666666667
256,192,39067,5,4
224,128,39496,5,0
256,128,39639,1,0
288,128,39781,1,0
320,128,39924,6,0,C|384:128,9,46.6666666666667,0|0|0|8|8|0|0|0|0|8
352,192,41496,5,2
288,192,41639,1,2
160,192,42210,5,0
192,224,42353,1,0
224,256,42496,1,0
288,256,42781,5,0
320,224,43067,1,0
352,192,43353,1,0
320,160,43924,5,0
288,128,44067,1,0
256,96,44210,1,0
192,128,44639,6,8,L|128:224,1,93.3333333333333
160,256,45067,2,8,B|256:224|224:128,1,140
256,192,46924,5,4
256,192,47210,5,4
256,192,47781,5,4
256,192,48067,5,4
384,96,48496,5,0
352,128,48638,5,0
320,160,48781,5,0
288,160,48924,5,4
256,160,49067,5,0
224,160,49210,5,0
192,192,49353,5,0
192,224,49496,5,0
192,256,49638,5,0
224,288,49781,5,4
256,288,49924,5,0
288,288,50067,5,0
320,288,50210,5,0
352,256,50353,5,0
320,224,50496,5,0
288,224,50638,5,4
256,224,50781,5,0
160,224,50924,6,0,C|125:304|224:320,1,186.666666666667,0|4
416,192,51781,5,0
384,192,51924,1,0
288,192,52210,1,0
320,192,52353,1,0
224,192,52638,1,0
192,192,52781,1,0
256,96,53067,5,8
256,96,53210,1,8
128,96,53638,5,0
128,160,53781,2,0,C|128:256,1,93.3333333333333,0|0
320,64,54496,6,0,B|256:0|192:64,2,140
224,128,55638,5,0
192,128,55781,1,0
256,128,55924,5,0
320,128,56067,5,0
288,128,56210,1,0
256,192,56496,5,0
256,192,56638,1,0
128,64,57496,5,0
128,96,57638,1,0
128,128,57781,1,0
128,160,57924,1,0
128,256,58067,1,0
128,224,58210,5,0
128,192,58353,1,0
224,192,58781,6,0,L|224:128,6,46.6666666666667,0|0|0|0|0|0|0
256,224,59781,6,0,L|320:224,4,46.6666666666667
320,192,60496,6,12,L|320:128,1,46.6666666666667,12|4
384,128,60781,2,12,L|384:192,1,46.6666666666667,12|4
448,192,61067,2,12,L|448:128,1,46.6666666666667,12|4
448,96,61353,2,4,B|416:64|416:96,1,46.6666666666667,8|4
224,96,61781,6,0,B|192:32|160:32|128:96,1,140,4|0
32,128,62638,6,0,L|96:128,1,46.6666666666667
128,160,62924,1,0
96,192,63067,2,0,B|192:256|224:192,1,140
352,128,63924,1,0
288,96,64353,1,0
256,64,64496,1,0
224,96,64638,1,0
256,128,64781,1,4
96,64,65210,5,4
160,128,65638,6,0,B|96:128|64:192|320:288|160:352,1,280,0|4
256,192,66924,1,0
384,96,67353,1,0
352,128,67496,1,0
320,128,67638,2,0,L|256:128,1,46.6666666666667
224,128,67924,1,0
192,128,68067,2,0,L|192:192,1,46.6666666666667
192,224,68353,2,0,L|192:288,1,46.6666666666667
192,320,68638,1,0
192,160,69496,6,0,C|160:192|256:192,1,140
250,192,70210,1,0
250,192,70353,2,8,L|320:128,1,93.3333333333333,8|0
352,96,70781,5,0
384,160,71210,5,0
352,160,71353,1,0
384,160,71496,1,0
384,192,71638,1,0
384,160,72067,5,8
384,96,72496,6,8,B|256:32|96:96|124:203|96:288|320:352,1,560,0|4
352,288,74496,2,4,L|352:224,1,46.6666666666667,4|0
352,192,74781,2,4,L|288:192,1,46.6666666666667,4|0
256,192,75067,2,4,L|256:256,1,46.6666666666667,4|0
256,192,75496,6,0,B|224:224|256:256|288:224|256:128,1,140,0|4
288,224,88067,5,0
224,160,88353,5,0
224,224,88924,5,0
256,192,89067,5,0
288,160,89210,5,0
192,288,89638,6,0,L|192:192,1,93.3333333333333
192,128,90210,6,0,L|320:288,1,186.666666666667
320,224,91067,6,0,L|320:128,1,93.3333333333333,0|4
