osu file format v5

[General]
AudioFilename: Naruto - The Raising Fighting Spirit.mp3
AudioLeadIn: 0
PreviewTime: -1
Countdown: 0
SampleSet: Normal
StackLeniency: 0.7
Mode: 0
LetterboxInBreaks: 1
EditorBookmarks: 5210

[Metadata]
Title:The Raising Fighting Spirit (Naruto Battle Theme)
Artist:Toshiro Masuda
Creator:Hakkashi
Version:Gennin
Source:Naruto
Tags:

[Difficulty]
HPDrainRate:3
CircleSize:5
OverallDifficulty:6
SliderMultiplier:1.4
SliderTickRate:3

[Events]
//Background and Video events
0,0,"Naruto's Team.jpg"
//Break Periods
2,31553,33731
2,76124,87017
//Storyboard Layer 0 (Background)
//Storyboard Layer 1 (Failing)
//Storyboard Layer 2 (Passing)
//Storyboard Layer 3 (Foreground)
//Storyboard Sound Samples
//Background Colour Transformations
3,100,163,162,255

[TimingPoints]
5639,428.571428571429,4,1,0,100,1
48496,428.571428571429,4,2,0,100,1
60496,428.571428571429,4,1,0,100,1

[HitObjects]
128,96,5639,1,0
64,192,6067,1,0
128,288,6496,1,0
192,192,6924,1,0
416,64,7353,5,0
352,128,7781,2,0,B|416:160|352:256,1,140
288,256,8639,1,0
288,256,9068,2,0,C|352:256|384:224|384:192|352:160|320:160|288:160|256:160,1,280,2|2
288,256,10354,5,8
224,320,10782,5,0
288,256,11211,1,0
224,192,11639,1,0
288,128,12068,1,0
64,192,12639,5,8
192,192,12925,1,8
128,128,13496,5,8
128,256,13782,1,8
256,192,14211,6,0,C|160:192|384:192|288:192,1,420
288,192,15925,6,0,C|384:192|334:192|334:192,1,140,2|2
192,192,16782,5,4
320,192,17211,1,4
96,288,17639,6,0,L|256:288,1,140
416,288,18496,2,0,L|256:288,1,140
256,192,19496,5,8
192,192,19782,1,8
320,192,20354,1,8
256,192,20639,1,8
416,320,21067,6,0,C|352:320|448:288|320:256,1,280
448,160,22353,2,0,L|320:256,1,140
448,160,23210,1,0
256,192,23639,5,8
256,192,24067,5,4
160,64,24496,5,0
64,128,24924,1,0
160,192,25353,1,0
160,64,25781,1,0
160,192,26210,5,4
256,192,26639,1,4
352,192,27067,1,4
224,192,27496,6,4,C|269:192|269:192,3,46.6666666666667,8|4|4|8
192,256,28353,1,0
224,192,28781,1,0
288,192,29210,6,4,C|243:192|243:192,3,46.6666666666667,8|4|4|8
320,128,30067,1,0
352,64,30496,6,2,C|192:64,2,140,0|8|4
64,256,34781,6,0,B|96:320|192:352,1,140
256,320,35639,5,4
384,288,36067,1,8
320,224,36496,6,0,B|256:192|256:96,1,140
64,128,37353,5,0
180,63,37781,1,0
256,192,38210,6,0,B|192:192|160:288|416:320|384:128|480:32,1,420
320,128,39924,6,0,C|384:128,9,46.6666666666667,0|0|0|8|8|0|0|0|0|8
367,192,41639,1,4
128,256,42067,5,0
224,256,42496,1,0
288,256,42781,5,0
320,224,43067,1,0
352,192,43353,1,0
320,160,43781,5,0
256,96,44210,1,0
96,96,44639,5,8
192,96,45067,1,8
256,192,46924,5,4
256,192,47210,5,4
256,192,47781,5,4
256,192,48067,5,4
128,64,48496,5,0
192,96,48924,1,0
192,192,49353,5,0
256,224,49781,1,0
320,352,50210,5,0
256,320,50638,1,0
192,192,51067,5,0
128,64,51496,1,8
288,64,51924,5,0
384,160,52353,1,0
384,64,52781,1,0
288,160,53067,5,8
288,160,53210,1,8
128,96,53638,5,0
128,160,53781,2,0,C|128:256,1,93.3333333333333,0|0
224,224,54496,5,0
256,288,54781,5,0
288,224,55067,5,0
256,192,55353,5,0
192,128,55781,1,0
320,128,56210,1,0
192,224,56638,6,0,C|128:192|128:128|128:128,1,140
128,64,57496,5,0
128,128,57781,1,0
128,160,57924,1,0
128,224,58353,1,0
384,192,58781,6,0,B|384:96|288:192,3,140
256,192,60496,5,12
256,192,60781,5,12
256,192,61067,5,12
256,192,61353,5,12
96,224,61781,6,0,B|64:256|64:288|96:320|160:256,1,140
96,96,63067,5,0
256,96,63496,5,0
384,96,63924,1,0
256,192,64353,1,0
256,288,64781,1,4
256,192,65210,5,4
160,128,65638,6,0,B|96:128|64:192|320:288|160:352,1,280,0|4
256,192,66924,1,0
384,96,67353,2,0,C|352:128|416:160|352:192|416:224|416:256,1,280
256,96,69067,5,4
192,160,69496,6,0,C|160:192|256:192,1,140
250,192,70353,1,8
384,64,70781,5,0
384,256,71638,5,0
384,173,72067,5,8
384,96,72496,6,8,B|256:32|96:96|124:203|96:288|320:352,1,560,0|4
256,224,74496,1,4
320,160,74781,1,4
383,96,75067,1,4
256,192,75496,6,0,B|224:224|256:256|288:224|256:128,1,140,0|4
256,192,88067,5,4
256,192,88353,1,4
256,192,88924,5,4
256,192,89210,1,4
192,288,89638,6,0,L|192:192,1,93.3333333333333
192,160,90210,2,0,L|320:320,1,186.666666666667
320,256,91067,2,0,L|319:146,1,93.3333333333333,0|4
