osu file format v5

[General]
AudioFilename: Naruto - The Raising Fighting Spirit.mp3
AudioLeadIn: 0
PreviewTime: -1
Countdown: 0
SampleSet: Normal
StackLeniency: 0.7
Mode: 0
LetterboxInBreaks: 1
EditorBookmarks: 5210

[Metadata]
Title:The Raising Fighting Spirit (Naruto Battle Theme)
Artist:Toshiro Masuda
Creator:Hakkashi
Version:Chuunin
Source:Naruto
Tags:

[Difficulty]
HPDrainRate:7
CircleSize:5
OverallDifficulty:6
SliderMultiplier:1.4
SliderTickRate:3

[Events]
//Background and Video events
0,0,"naruto-team-shippuden.jpg"
//Break Periods
2,31553,33731
2,76124,87017
//Storyboard Layer 0 (Background)
//Storyboard Layer 1 (Failing)
//Storyboard Layer 2 (Passing)
//Storyboard Layer 3 (Foreground)
//Storyboard Sound Samples
//Background Colour Transformations
3,100,163,162,255

[TimingPoints]
5639,428.571428571429,4,1,0,100,1
48496,428.571428571429,4,2,0,100,1
60496,428.571428571429,4,1,0,100,1

[HitObjects]
128,96,5639,1,0
64,192,6067,1,0
128,288,6496,1,0
352,128,6924,6,0,B|320:64|224:64,1,140
256,128,7639,1,0
288,128,7782,1,0
256,192,8067,1,0
224,192,8211,1,0
256,256,8496,1,0
288,256,8639,1,0
352,256,9068,2,0,C|416:256|448:224|448:192|416:160|384:160|352:160|320:160,1,280,2|2
288,256,10354,5,8
224,320,10782,5,0
288,256,11211,1,0
256,256,11353,1,0
224,192,11639,1,0
256,192,11781,1,0
288,128,12068,1,0
256,128,12210,1,0
256,64,12639,5,8
256,128,12925,1,8
256,320,13496,5,8
256,256,13782,1,8
256,192,14211,6,0,C|160:192|384:192|288:192,1,420
288,192,15925,6,0,C|384:192|334:192|334:192,1,140,2|2
160,192,16782,5,4
224,192,17211,1,4
96,288,17639,5,0
160,352,18068,1,0
160,288,18496,1,2
96,352,18925,1,2
256,192,19496,5,8
192,192,19782,1,8
320,192,20354,1,8
256,192,20639,1,8
384,320,21067,5,0
352,256,21496,2,0,C|416:192|352:192,1,140
320,288,22353,2,0,C|256:320|192:288,1,140
160,256,23067,1,0
160,256,23210,1,0
256,192,23639,5,8
256,192,24067,5,4
160,64,24496,5,0
64,96,24781,1,0
64,128,24924,1,0
160,192,25353,1,0
160,256,25639,1,0
160,288,25781,1,0
160,192,26210,5,4
256,192,26639,1,4
352,192,27067,1,4
224,192,27353,5,0
224,192,27496,6,4,C|269:192|269:192,3,46.6666666666667,8|4|4|8
224,64,28210,5,0
288,64,28353,1,0
256,160,28781,1,0
288,320,29210,5,0
224,320,29639,1,0
256,224,29924,1,0
256,224,30067,1,0
448,96,30496,6,2,C|288:96,2,140,0|8|4
128,96,34781,5,0
96,128,34924,1,0
128,160,35067,1,0
96,192,35210,1,0
256,128,35639,5,4
256,256,35924,1,0
256,224,36067,1,8
384,192,36496,5,0
416,224,36639,1,8
384,256,36782,1,0
416,288,36925,1,4
288,320,37353,6,0,C|224:320,3,46.6666666666667,2|2|8|4
224,224,38210,5,0
160,288,38496,1,0
128,320,38639,1,0
256,192,39067,5,4
224,128,39496,5,0
256,128,39639,1,0
288,128,39781,1,0
320,128,39924,6,0,C|384:128,9,46.6666666666667,0|0|0|8|8|0|0|0|0|8
352,192,41496,5,2
320,192,41639,1,2
160,192,42210,5,0
192,224,42353,1,0
224,256,42496,1,0
288,256,43067,5,0
320,224,43210,1,0
352,192,43353,1,0
320,160,43924,5,0
288,128,44067,1,0
256,96,44210,1,0
224,128,44781,5,8
192,160,44924,1,8
160,192,45067,1,8
256,192,46924,5,4
256,192,47210,5,4
256,192,47781,5,4
256,192,48067,5,4
128,64,48496,5,0
128,96,48638,1,0
192,96,48924,1,0
160,192,49210,5,0
160,160,49353,1,0
160,128,49496,1,0
224,192,49781,1,0
192,288,50067,5,0
192,256,50210,1,0
192,288,50353,1,0
256,288,50638,1,0
192,352,50924,1,0
192,320,51067,1,0
128,288,51353,1,8
128,288,51496,1,8
416,192,51924,5,0
320,192,52210,1,0
288,192,52353,1,0
192,192,52638,1,0
224,192,52781,1,0
256,96,53067,5,8
256,96,53210,1,8
128,96,53638,5,0
128,160,53781,2,0,C|128:256,1,93.3333333333333,0|0
224,224,54496,5,0
256,288,54781,5,0
288,224,55067,5,0
256,192,55353,5,0
224,128,55638,5,0
192,128,55781,1,0
288,128,56067,5,0
320,128,56210,1,0
320,192,56424,6,0,C|288:256|224:256|192:192,1,210
128,64,57496,5,0
128,96,57638,1,0
128,128,57781,1,0
128,160,57924,1,0
128,288,58210,5,0
128,256,58353,1,0
320,288,58781,6,0,L|256:288,6,46.6666666666667
384,288,59781,6,0,L|448:288,2,46.6666666666667
256,192,60496,5,12
256,192,60781,5,12
256,192,61067,5,12
256,192,61353,5,12
96,224,61781,6,0,B|64:256|64:288|96:320|160:256,1,140
416,256,62781,5,0
416,288,62924,1,0
384,288,63067,1,0
416,192,63496,5,0
352,128,63924,1,0
288,96,64353,1,0
256,64,64496,1,0
224,96,64638,1,0
256,128,64781,1,4
96,64,65210,5,4
160,128,65638,6,0,B|96:128|64:192|320:288|160:352,1,280,0|4
256,192,66924,1,0
384,96,67353,2,0,C|352:128|416:160|352:192|416:224|416:256,1,280
224,64,68638,5,0
256,64,68781,1,0
256,96,68924,1,0
224,96,69067,1,0
192,160,69496,6,0,C|160:192|256:192,1,140
256,192,70353,1,8
352,96,70638,1,0
384,64,70781,5,0
384,160,71210,1,0
384,192,71353,1,0
384,224,71496,1,0
384,256,71638,5,0
384,192,72067,5,8
384,96,72496,6,8,B|256:32|96:96|124:203|96:288|320:352,1,560,0|4
352,288,74496,1,4
352,192,74781,1,4
256,192,75067,1,4
256,192,75496,6,0,B|224:224|256:256|288:224|256:128,1,140,0|4
224,128,88067,5,0
128,224,88353,5,0
288,256,88924,5,0
352,160,89210,5,0
192,256,89638,6,0,L|192:160,1,93.3333333333333
192,128,90210,2,0,L|320:288,1,186.666666666667
320,224,91067,2,0,L|320:128,1,93.3333333333333,0|4
