osu file format v5

[General]
AudioFilename: Naruto - The Raising Fighting Spirit.mp3
AudioLeadIn: 0
PreviewTime: -1
Countdown: 1
SampleSet: Soft
StackLeniency: 0.7
Mode: 0
LetterboxInBreaks: 1
EditorBookmarks: 6570,21140

[Metadata]
Title:The Raising Fighting Spirit
Artist:Toshiro Masuda
Creator:KLoveSKY
Version:Let Clap Together!!
Source:
Tags:

[Difficulty]
HPDrainRate:2
CircleSize:6
OverallDifficulty:6
SliderMultiplier:1.5
SliderTickRate:4

[Events]
//Background and Video events
0,0,"ff.jpg"
//Break Periods
2,34624,40659
//Storyboard Layer 0 (Background)
//Storyboard Layer 1 (Failing)
//Storyboard Layer 2 (Passing)
//Storyboard Layer 3 (Foreground)
//Storyboard Sound Samples
//Background Colour Transformations
3,100,163,162,255

[TimingPoints]
562,428.571428571429,4,2,0,100,1,0
9990,-100,4,1,0,100,0,0
10847,-100,4,2,0,100,0,0
12240,-100,4,2,0,0,0,0
12669,-100,4,1,0,100,0,0
14283,-100,4,2,0,100,0,0
16855,-100,4,1,0,100,0,0
17712,-100,4,2,0,100,0,0
18997,-100,4,2,0,0,0,0
19526,-100,4,1,0,100,0,0
21133,-100,4,2,0,100,0,0
32704,-100,4,2,0,0,0,0
33281,-100,4,1,0,100,0,0
41709,-100,4,2,0,100,0,0
44709,-100,4,2,0,0,0,0
45133,-100,4,2,0,100,0,0
46954,-100,4,1,0,100,0,0
48561,-100,4,2,0,30,0,0
60565,-100,4,1,0,100,0,0
68564,-100,4,1,0,0,0,0
69135,-100,4,1,0,100,0,0

[Colours]
Combo1 : 128,128,128
Combo2 : 0,0,0
Combo3 : 192,192,192
Combo4 : 255,255,255

[HitObjects]
80,80,7419,1,0
80,80,7526,1,0
80,80,7633,1,0
160,80,7847,1,8
160,80,7954,1,0
160,80,8062,1,0
240,80,8276,1,0
240,112,8383,1,0
240,144,8490,1,0
320,144,8704,5,8
320,176,8812,1,0
320,208,8919,1,0
240,208,9133,1,0
240,208,9240,1,0
240,208,9347,1,0
160,208,9562,1,8
160,208,9669,1,0
160,208,9776,1,0
96,256,9990,6,6,L|176:304|240:288,1,150
368,352,10847,5,0
368,352,10954,1,0
368,352,11062,1,0
368,272,11276,1,8
368,272,11383,1,0
368,272,11490,1,0
368,192,11704,1,0
336,192,11812,1,0
304,192,11919,1,0
224,192,12133,5,8
224,224,12240,5,0
224,224,12347,1,0
224,224,12454,1,0
224,224,12562,1,0
224,256,12669,6,6,L|128:336,1,112.5
304,256,13526,6,6,L|416:336,1,112.5
304,208,14276,6,0,L|304:160,2,37.5
224,208,14704,2,0,L|224:160,2,37.5,8|0|0
144,208,15133,2,0,L|80:272,1,75
144,208,15562,2,0,L|208:272,1,75,8|0
128,304,15990,6,0,L|128:352,2,37.5
208,304,16419,2,0,L|208:352,2,37.5,8|0|0
288,304,16847,6,6,L|416:192,1,150
256,160,17704,5,0
256,128,17812,2,0,L|256:80,1,37.5
192,128,18133,1,8
192,160,18240,2,0,L|192:208,1,37.5
112,192,18562,1,0
112,224,18669,2,0,L|112:272,1,37.5,0|0
192,272,18990,6,0,L|240:272,1,37.5
192,288,19204,2,0,L|144:288,1,37.5
192,304,19419,1,0
192,336,19526,6,6,L|336:336,1,112.5
464,240,20383,6,6,L|464:112,1,112.5
368,240,21133,6,0,L|272:240,2,75,0|0|8
368,160,21776,1,0
368,160,21883,1,0
368,160,21990,2,0,L|368:64,1,75
288,80,22419,2,0,L|288:176,1,75,8|0
208,160,22847,6,0,L|160:160,2,37.5
208,240,23276,2,0,L|208:320,1,75,8|0
288,320,23704,2,0,L|288:240,1,75
368,240,24133,1,8
464,128,24562,5,0
384,128,24776,1,0
304,128,24990,2,0,L|256:128,2,37.5,8|0|0
304,208,25419,1,0
224,208,25633,1,0
144,208,25847,1,10
144,288,26062,6,0,L|160:288|160:304|176:304|176:288|192:288,1,75
256,288,26490,1,0
256,288,26597,1,0
256,288,26704,2,0,L|336:288,1,75,8|0
400,288,27133,1,0
400,288,27347,1,0
400,288,27562,1,8
448,224,27776,6,0,L|432:224|432:240|416:240|416:224|416:192,1,75
336,208,28204,2,0,L|256:208,1,75,0|8
192,208,28633,1,0
192,208,28740,1,0
192,208,28847,2,0,L|192:240|176:240|176:224|208:224,1,75
192,144,29276,5,8
256,96,29490,1,0
320,144,29704,1,0
256,192,29919,5,0
320,240,30133,2,0,L|448:352,1,150,8|0
352,336,30776,2,0,L|416:272,2,75,0|8|0
272,336,31419,5,4
192,336,31633,5,0
192,336,31740,1,0
192,336,31847,2,0,L|112:352,1,75
128,272,32276,1,0
128,272,32383,1,0
128,272,32490,1,0
128,192,32704,5,0
144,224,32812,1,0
160,192,32919,1,0
176,224,33026,1,0
192,192,33133,1,0
224,192,33240,5,4
336,192,33562,5,4
160,112,34097,5,4
224,192,34419,5,4
256,80,41704,5,0
336,80,41919,1,2
416,80,42133,1,8
416,160,42347,6,0,L|416:208,2,37.5
336,160,42776,2,0,L|288:160,1,37.5
256,160,42990,1,8
256,240,43204,1,0
256,320,43419,2,0,L|256:368,2,37.5
176,320,43847,5,8
112,272,44062,6,0,L|112:112,1,150
176,96,44704,5,0
208,96,44812,1,0
240,96,44919,1,0
272,96,45026,1,0
304,96,45133,6,2,L|448:144|304:240|448:288|320:336,1,600
288,320,46954,6,4,L|160:320,1,112.5
160,128,47812,6,4,L|304:128,1,112.5
416,80,48562,5,0
416,128,48704,1,0
368,128,48847,1,0
368,176,48990,1,2
272,176,49276,5,0
272,224,49419,5,0
272,176,49562,1,0
272,224,49704,1,0
272,272,49847,1,2
176,272,50133,5,0
176,320,50276,1,0
128,320,50419,1,0
128,368,50562,1,0
80,368,50704,1,2
80,272,50990,6,0,L|80:208,1,50,0|2
176,208,51419,2,0,L|176:144,1,50,0|2
272,160,51847,6,0,L|272:96,1,50,0|2
368,128,52276,2,0,L|368:64,1,50,0|2
464,96,52704,5,0
464,144,52847,1,0
464,144,52990,1,0
464,192,53133,1,0
464,144,53276,1,2
464,240,53562,5,0
464,288,53704,1,2
384,352,53990,5,2
288,352,54276,1,2
192,352,54562,1,2
96,352,54847,1,2
96,208,55276,5,0
96,160,55419,1,0
192,192,55704,5,0
192,144,55847,1,2
288,176,56133,5,0
288,128,56276,1,2
384,160,56562,5,0
384,112,56704,1,2
480,144,56990,5,0
480,96,57133,1,2
384,64,57419,5,2
336,64,57562,5,0
288,64,57704,1,0
240,64,57847,1,0
240,64,57990,1,0
144,64,58276,1,0
48,64,58562,1,0
144,112,58847,5,0
192,112,58990,1,0
192,160,59133,2,0,L|192:224,1,50
144,208,59419,1,0
144,160,59562,2,0,L|80:160,1,50
96,208,59847,1,0
96,208,59990,1,0
144,208,60133,2,0,L|144:288,1,50
144,208,60419,1,0
192,208,60562,5,4
288,208,60847,1,4
384,208,61133,1,4
480,208,61419,1,4
384,320,61847,5,0
384,320,61919,1,0
384,320,61990,1,0
384,320,62169,1,0
352,320,62276,5,4
208,320,62704,1,0
160,256,62919,1,0
160,256,63026,1,0
160,256,63133,1,4
160,112,63562,5,0
304,112,63990,2,0,L|336:144|352:192,1,75
272,176,64419,1,0
192,176,64633,2,0,L|192:192|176:192|176:208|192:208|192:224,1,75,0|4
272,336,65276,5,0
336,320,65490,1,0
384,272,65704,2,0,L|432:208,2,75,0|0|4
320,240,66347,5,0
288,256,66454,1,0
256,272,66562,1,0
224,128,66990,5,4
208,272,67419,5,0
176,128,67847,5,0
160,160,67954,1,0
128,128,68062,1,0
112,160,68169,1,0
80,128,68276,1,4
176,80,68597,5,0
176,80,68704,1,0
176,80,68812,1,0
176,80,68919,1,0
176,80,69026,1,0
176,80,69133,6,0,L|352:80,1,150,0|4
400,80,69776,1,0
432,64,69883,1,0
464,48,69990,1,4
400,176,70419,5,0
256,176,70847,5,4
256,256,71062,1,0
256,336,71276,1,4
224,336,71383,5,0
192,336,71490,1,0
160,336,71597,1,0
192,336,71704,1,4
192,256,71919,5,0
192,224,72026,1,8
192,144,72240,1,8
192,144,72347,1,0
208,64,72562,5,0
304,64,72847,5,0
256,112,73133,5,0
256,224,73419,5,0
256,336,73704,5,0
320,304,73990,5,0
192,304,74276,5,6
320,192,74562,5,6
192,64,74847,5,6
64,176,75133,5,6
