osu file format v5

[General]
AudioFilename: Naruto - The Raising Fighting Spirit.mp3
AudioLeadIn: 0
PreviewTime: -1
Countdown: 1
SampleSet: Soft
StackLeniency: 0.7
Mode: 0
LetterboxInBreaks: 1
EditorBookmarks: 6570,21140

[Metadata]
Title:The Raising Fighting Spirit
Artist:Toshiro Masuda
Creator:KLoveSKY
Version:Hard~~
Source:
Tags:

[Difficulty]
HPDrainRate:3
CircleSize:5
OverallDifficulty:4
SliderMultiplier:1.5
SliderTickRate:4

[Events]
//Background and Video events
0,0,"ff.jpg"
//Break Periods
2,34624,40659
2,45248,45777
//Storyboard Layer 0 (Background)
//Storyboard Layer 1 (Failing)
//Storyboard Layer 2 (Passing)
//Storyboard Layer 3 (Foreground)
//Storyboard Sound Samples
//Background Colour Transformations
3,100,163,162,255

[TimingPoints]
5620,428.571428571429,4,2,0,100,1,0
10012,-100,4,1,0,100,0,0
10870,-100,4,2,0,100,0,0
12691,-100,4,1,0,100,0,0
14298,-100,4,2,0,100,0,0
16870,-100,4,1,0,100,0,0
17727,-100,4,2,0,100,0,0
19548,-100,4,1,0,100,0,0
21155,-100,4,2,0,100,0,0
33262,-100,4,1,0,100,0,0
41727,-100,4,2,0,100,0,0
46977,-100,4,1,0,100,0,0
48584,-100,4,2,0,49,0,0
60798,-100,4,1,0,100,0,0

[Colours]
Combo1 : 255,128,64
Combo2 : 255,0,0
Combo3 : 255,113,116
Combo4 : 255,255,0

[HitObjects]
256,80,7441,1,0
368,128,7870,1,8
400,240,8298,2,0,L|272:320,1,150,0|8
160,304,9155,1,0
144,192,9584,1,8
256,160,10012,6,6,L|256:336,1,150
352,240,10870,5,0
416,336,11298,1,8
288,336,11727,2,0,L|240:336|192:272,1,112.5
176,256,12155,2,0,L|176:208,3,37.5
240,192,12691,5,4
240,96,13012,5,4
384,112,13548,5,4
384,208,13870,5,4
320,96,14298,5,0
320,208,14727,1,8
320,320,15155,1,0
192,320,15584,1,8
192,192,16012,2,0,L|192:32,1,150,0|8
208,160,16870,6,6,L|208:320,1,150
304,224,17727,6,0,L|304:128,1,75
352,208,18155,2,0,L|352:128,1,75
400,192,18584,2,0,L|400:96,1,75
448,176,19012,2,0,L|448:128,3,37.5
448,64,19548,6,6,L|304:64,1,112.5
144,80,20405,2,6,L|288:80,1,112.5
352,192,21155,5,0
208,192,21584,1,8
64,192,22012,2,0,L|64:112,1,75
144,112,22441,1,8
288,112,22870,5,0
432,112,23298,1,8
432,224,23727,2,0,L|432:320,1,75
352,304,24155,1,8
208,352,24584,6,0,L|112:336|80:272,1,150,0|8
240,304,25441,2,0,L|304:256,1,75
224,256,25870,2,0,L|288:192,1,75,8|0
208,208,26298,2,0,L|192:112|64:192,1,225,0|8
80,256,27155,1,0
208,336,27584,1,8
320,336,27905,6,0,L|336:304|352:336|384:224,1,187.5,0|8
384,112,28762,2,0,L|224:112|304:112,1,225,0|8
304,224,29727,2,0,L|176:336,1,150
160,320,30262,2,0,L|96:320,3,37.5
112,240,30798,5,0
112,160,31012,1,8
256,144,31441,5,0
256,144,31548,1,0
256,144,31655,1,0
304,144,31762,6,0,L|304:224,2,50,8|0|0
352,144,32191,2,0,L|448:144,2,75
352,176,32727,2,0,L|352:224,3,37.5
352,288,33262,5,4
240,288,33584,5,4
128,128,34120,5,4
128,240,34441,5,4
80,80,41727,6,0,L|256:80,1,150,0|8
384,80,42584,2,0,L|512:80,1,112.5
464,144,43120,2,0,L|464:272,1,112.5,8|0
320,240,43870,1,8
240,240,44084,2,0,L|208:272,2,37.5
128,240,44620,2,0,L|96:208,4,37.5,0|0|0|0|4
256,64,46977,5,4
368,64,47298,5,4
176,64,47834,5,4
64,64,48155,5,4
64,208,48584,5,0
96,208,48691,2,0,L|240:208,1,112.5
160,272,49227,5,0
192,272,49334,2,0,L|352:272,1,150
256,336,50084,5,0
288,336,50191,2,0,L|416:336,1,112.5
480,336,50727,1,0
480,256,50941,5,0
480,176,51155,1,0
400,176,51370,5,0
400,96,51584,1,2
320,96,51798,5,0
240,96,52012,1,2
240,176,52227,5,0
160,176,52441,1,2
160,256,52655,5,2
240,256,52870,2,0,L|416:256,1,150
400,336,53512,5,0
320,336,53727,1,2
240,336,53941,5,2
128,336,54262,1,2
64,240,54584,1,2
64,128,54905,1,2
160,80,55227,5,0
240,80,55441,1,0
320,80,55655,5,0
320,160,55870,1,0
384,128,56084,5,0
384,208,56298,1,0
448,176,56512,5,0
448,256,56727,1,0
384,288,56941,5,0
320,240,57155,1,2
240,240,57370,5,2
160,240,57584,2,2,L|112:240,4,37.5
160,160,58227,5,0
240,96,58548,1,0
352,96,58870,6,0,L|400:128,1,37.5
416,144,59084,2,0,L|384:176,1,37.5
368,208,59298,2,0,L|416:240,1,37.5
432,240,59512,2,0,L|400:288,1,37.5
384,304,59727,2,0,L|432:336,1,37.5
448,336,59941,2,0,L|400:368,1,37.5
384,352,60155,6,0,L|336:352,1,37.5
304,352,60370,6,0,L|256:352,1,37.5
256,320,60584,5,4
256,240,60798,5,4
256,240,61120,5,4
256,240,61441,5,4
256,96,61870,6,0,L|256:32,2,37.5
336,96,62298,6,0,L|448:96|480:144,1,150
400,160,62941,1,0
368,160,63048,1,0
336,160,63155,1,0
192,160,63584,5,4
48,160,64012,6,0,L|96:224|176:256,1,150
192,256,64548,2,0,L|192:384,1,112.5
336,368,65298,1,8
448,272,65727,6,0,L|448:160|384:128,1,150
352,176,66370,2,0,L|320:224,2,37.5
256,64,67012,1,8
112,64,67441,6,0,L|176:128|112:192,1,150
128,240,68084,2,0,L|160:304,2,37.5
208,240,68512,1,2
288,240,68727,1,2
368,240,68941,1,2
368,160,69155,6,0,L|464:176|448:256,1,150
448,304,69798,2,0,L|400:368|320:320,1,150
256,272,70441,1,8
128,336,70870,2,0,L|64:272|80:192,1,150
80,144,71512,2,0,L|192:32,1,150
256,32,72155,5,8
256,144,72584,6,0,L|256:16,1,112.5
320,128,73120,6,0,L|320:256,1,112.5
416,176,73762,5,4
416,256,73977,5,0
416,336,74191,5,2
304,336,74512,5,2
192,336,74834,5,2
80,336,75155,5,2
