osu file format v5

[General]
AudioFilename: Naruto - The Raising Fighting Spirit.mp3
AudioLeadIn: 0
PreviewTime: -1
Countdown: 1
SampleSet: Soft
StackLeniency: 0.7
Mode: 0
LetterboxInBreaks: 1
EditorBookmarks: 6570,21140

[Metadata]
Title:The Raising Fighting Spirit
Artist:Toshiro Masuda
Creator:KLoveSKY
Version:Fighting!!
Source:
Tags:

[Difficulty]
HPDrainRate:2
CircleSize:5
OverallDifficulty:5
SliderMultiplier:1.5
SliderTickRate:4

[Events]
//Background and Video events
0,0,"ff.jpg"
//Break Periods
2,34624,40659
//Storyboard Layer 0 (Background)
//Storyboard Layer 1 (Failing)
//Storyboard Layer 2 (Passing)
//Storyboard Layer 3 (Foreground)
//Storyboard Sound Samples
//Background Colour Transformations
3,100,163,162,255

[TimingPoints]
562,428.571428571429,4,2,0,100,1,0
9990,-100,4,1,0,100,0,0
10847,-100,4,2,0,100,0,0
12669,-100,4,1,0,100,0,0
14283,-100,4,2,0,100,0,0
16855,-100,4,1,0,100,0,0
17712,-100,4,2,0,100,0,0
18997,-100,4,2,0,0,0,0
19526,-100,4,1,0,100,0,0
21133,-100,4,2,0,100,0,0
33281,-100,4,1,0,100,0,0
41709,-100,4,2,0,100,0,0
44709,-100,4,2,0,0,0,0
45133,-100,4,2,0,100,0,0
46954,-100,4,1,0,100,0,0
48561,-100,4,2,0,50,0,0
60565,-100,4,1,0,100,0,0
68564,-100,4,1,0,0,0,0
69135,-100,4,1,0,100,0,0

[Colours]
Combo1 : 255,128,64
Combo2 : 255,0,0
Combo3 : 255,113,116
Combo4 : 255,255,0

[HitObjects]
80,96,7419,1,0
112,96,7526,1,0
144,96,7633,1,0
176,96,7740,1,0
208,96,7847,1,8
240,112,7954,1,0
272,112,8062,1,0
304,112,8169,1,0
336,112,8276,2,0,L|384:128|368:176,1,75
432,208,8704,6,0,L|496:272,1,75,0|8
448,272,9026,1,2
416,272,9133,2,0,L|352:272,2,37.5
384,304,9454,2,0,L|352:336,2,37.5
352,272,9776,1,2
272,272,9990,5,4
256,176,10419,5,4
256,64,10847,5,4
288,64,10954,1,0
320,80,11062,1,0
336,112,11169,1,0
368,112,11276,1,8
384,144,11383,1,0
416,128,11490,1,0
432,160,11597,1,0
416,208,11704,6,0,L|336:272,1,75
384,288,12133,5,0
384,288,12240,1,0
384,288,12347,1,0
384,288,12454,1,0
288,288,12669,5,4
192,288,12990,5,4
192,0,13526,6,4,L|192:144,1,112.5
336,48,14276,5,0
368,64,14383,1,0
400,80,14490,1,0
400,112,14597,2,0,L|400:176,2,37.5,0|8|0
400,144,14919,2,0,L|400:224,1,75
384,256,15240,2,0,L|400:304,2,37.5
352,256,15562,5,8
336,288,15669,1,0
320,320,15776,1,0
256,352,15990,5,0
224,336,16097,1,0
192,320,16204,1,0
176,240,16419,1,8
176,208,16526,1,0
192,176,16633,1,0
272,64,16847,5,4
400,64,17276,5,4
400,208,17704,5,0
400,240,17811,1,0
400,272,17919,1,0
384,304,18026,1,2
352,304,18133,1,8
352,336,18240,1,0
352,368,18347,1,0
304,304,18561,5,0
304,272,18669,1,0
304,240,18776,1,0
256,176,18990,5,0
256,176,19097,1,0
256,176,19204,1,0
256,176,19311,1,0
256,176,19419,1,0
256,176,19526,6,4,L|256:48,1,112.5
256,256,20383,6,4,L|256:384,1,112.5
384,352,21140,6,0,L|448:272|448:272|416:208,1,150,0|8
336,192,21997,2,0,L|336:96,2,75,0|2|8
240,192,22854,2,0,L|144:192|96:256,1,150,8|0
192,272,23711,1,12
320,272,24139,1,4
432,336,24568,6,0,L|432:256|432:256|400:192,1,150,8|0
304,192,25425,2,0,L|192:192,2,75,8|0|8
208,192,26282,2,4,L|288:112|352:112|448:208,1,300
448,336,27853,5,0
400,336,27996,1,12
304,336,28282,5,0
208,336,28567,1,0
112,336,28853,1,8
112,240,29139,1,2
112,144,29424,1,2
112,48,29710,2,0,L|208:48|208:48|272:96|352:96,1,225,8|0
320,96,30454,1,0
320,96,30561,1,8
416,96,30853,1,0
416,192,31139,1,4
256,192,31424,12,0,33026
256,48,33281,5,4
400,192,33567,5,4
224,192,34138,5,4
160,256,34424,5,4
256,64,41709,6,4,L|368:64|400:128,1,150,4|8
304,128,42566,1,2
208,128,42852,1,2
112,128,43137,1,8
176,192,43423,2,0,L|256:192|304:304,1,187.5,0|2
304,304,44062,5,0
304,304,44169,1,0
304,304,44276,1,0
304,208,44709,5,0
304,208,44852,1,0
304,208,44994,1,0
304,208,45137,1,4
240,192,45347,5,0
208,192,45454,1,0
176,192,45562,1,8
176,160,45669,1,0
176,128,45776,1,0
96,128,45990,5,0
96,160,46097,1,0
96,192,46204,1,0
144,256,46419,5,0
144,256,46526,1,0
144,256,46633,1,0
144,256,46740,1,0
208,256,46994,5,4
304,256,47280,5,4
256,80,47851,5,4
256,176,48137,5,4
352,80,48565,5,0
400,80,48708,1,0
400,128,48851,1,0
448,128,48994,1,2
448,224,49280,5,2
400,224,49423,1,0
400,272,49565,1,0
352,272,49708,1,0
352,320,49851,1,2
256,320,50137,5,4
208,320,50280,5,0
160,320,50422,1,0
160,272,50565,1,0
112,272,50708,1,2
112,176,50994,5,0
112,128,51137,1,0
208,128,51422,5,0
208,176,51565,1,0
304,176,51851,5,0
304,128,51994,2,0,L|368:128,3,37.5,0|0|2|2
416,80,52708,5,0
416,128,52851,1,0
416,128,52994,1,0
416,176,53136,1,2
416,128,53279,1,0
336,176,53565,5,0
336,224,53708,1,4
240,224,53994,5,0
240,272,54136,1,0
192,272,54279,1,2
192,320,54422,1,2
144,320,54565,1,2
96,320,54708,1,2
96,272,54851,1,4
96,224,54993,5,0
96,224,55136,1,0
96,224,55279,1,0
96,224,55422,1,0
96,128,55708,5,0
96,80,55850,1,0
192,80,56136,5,0
240,80,56279,1,2
336,80,56565,5,0
368,112,56708,1,2
288,144,56993,5,0
288,192,57136,1,4
288,240,57279,1,0
288,240,57422,1,0
288,288,57565,1,4
208,320,57850,5,0
160,320,57993,1,2
208,240,58279,5,0
160,240,58422,1,4
160,192,58565,1,0
160,144,58707,1,2
160,144,58850,1,2
160,144,58993,1,0
160,144,59136,1,0
160,96,59279,5,4
208,80,59422,1,2
256,96,59564,1,0
304,80,59707,1,2
352,96,59850,1,2
400,80,59993,1,6
448,96,60136,1,2
496,80,60279,1,2
448,96,60421,1,2
448,144,60564,5,4
448,240,60850,5,4
384,304,61136,5,4
304,336,61421,5,4
256,224,61847,6,0,L|256:192,4,25
256,176,62278,6,0,L|208:112|272:48,1,150
352,16,63133,2,0,L|368:16|368:32|384:32|384:16|400:16|480:16,1,150
448,160,63993,1,4
304,192,64421,1,0
176,192,64847,2,0,L|160:192|160:208|144:208|144:192|128:192|64:272,1,150
112,144,65707,5,4
320,64,66347,1,0
352,80,66454,1,0
368,112,66564,1,4
480,192,66992,5,4
352,256,67421,2,0,L|192:256,1,150,0|4
192,176,68062,1,4
144,176,68169,1,0
96,160,68276,1,0
160,96,68564,5,0
160,96,68706,1,0
160,96,68849,1,0
160,96,68992,1,0
208,96,69135,5,4
336,96,69563,1,0
384,96,69706,1,0
384,96,69849,1,0
384,96,69992,1,4
384,224,70421,1,8
256,192,70849,1,4
128,224,71278,5,8
176,224,71420,1,0
208,256,71563,1,0
256,256,71706,1,4
368,320,72135,1,8
400,192,72563,5,4
336,128,72849,1,8
272,192,73135,1,0
208,128,73420,1,12
144,192,73706,1,0
208,256,73992,1,8
256,336,74277,5,6
432,192,74563,5,6
256,64,74849,5,6
96,192,75134,5,6
