osu file format v9

[General]
AudioFilename: Sadness_and_Sorrow_Piano.mp3
AudioLeadIn: 0
PreviewTime: 31386
Countdown: 3
SampleSet: Soft
StackLeniency: 0.7
Mode: 0
LetterboxInBreaks: 1

[Editor]
DistanceSpacing: 1.5
BeatDivisor: 6
GridSize: 16

[Metadata]
Title:Sadness and Sorrow
Artist:Toshiro Masuda
Creator:mikhe
Version:Normal
Source:
Tags:Naruto

[Difficulty]
HPDrainRate:8
CircleSize:5
OverallDifficulty:7
ApproachRate:7
SliderMultiplier:1.2
SliderTickRate:2

[Events]
//Background and Video events
0,0,"Naruto.jpg"
//Break Periods
//Storyboard Layer 0 (Background)
//Storyboard Layer 1 (Fail)
//Storyboard Layer 2 (Pass)
//Storyboard Layer 3 (Foreground)
//Storyboard Sound Samples
//Background Colour Transformations
3,100,98,185,249

[TimingPoints]
2,461.538461538462,4,2,0,100,1,0

[Colours]
Combo1 : 255,150,0
Combo2 : 57,209,35
Combo3 : 40,89,204
Combo4 : 240,5,5
Combo5 : 238,244,0

[HitObjects]
256,192,1098,12,0,7386
192,128,8482,5,0
320,128,9348,1,0
320,256,10271,1,0
192,256,11194,1,0
192,128,12175,1,0
256,192,13963,1,0
96,256,15809,1,0
128,256,16271,1,0
224,256,17194,1,0
320,256,18117,1,0
416,256,19040,1,0
256,192,23252,5,0
320,128,25040,1,0
128,192,26886,1,0
384,192,27809,1,0
128,256,28732,1,0
384,256,29713,1,0
288,192,30578,5,0
256,192,30809,1,0
224,192,31040,1,0
256,288,31559,1,0
256,96,31963,1,0
352,192,33348,1,0
160,192,34328,1,0
320,192,35252,1,0
192,192,36175,1,0
256,192,37963,5,0
128,96,39809,1,0
384,288,40790,1,0
320,128,41655,1,0
320,128,41771,1,0
192,256,43559,1,0
192,256,43675,1,0
384,192,45348,5,0
256,160,45809,1,0
128,192,46271,1,0
96,224,47655,1,0
192,224,48636,1,0
320,224,49502,1,0
416,224,50425,1,0
416,160,51348,1,0
320,160,52271,1,0
192,160,53194,5,0
64,160,54117,1,0
256,192,55040,1,0
64,192,55963,5,0
96,224,56425,1,0
416,224,57348,1,0
448,192,57867,1,0
256,32,58732,1,0
320,96,60175,1,0
288,128,60636,1,0
224,96,61098,1,0
192,128,61559,1,0
64,128,62425,5,0
64,192,62886,1,0
64,256,63348,1,0
64,320,63809,1,0
128,320,64271,1,0
192,320,64732,1,0
256,320,65194,1,0
320,320,65655,5,0
384,320,66117,1,0
448,320,66578,1,0
448,256,67040,1,0
448,192,67502,1,0
448,128,67963,1,0
384,96,68425,1,0
320,96,68886,1,0
256,192,69867,5,0
64,64,71252,5,0
64,128,71713,1,0
64,192,72175,1,0
64,256,72636,1,0
256,320,74078,5,0
448,320,75002,6,0,B|480:320,2,30
448,256,75463,1,0
448,192,75925,1,0
448,128,76386,1,0
448,64,76848,2,0,B|480:64,2,30
160,160,78636,5,0
192,224,79098,1,0
224,160,79559,1,0
288,224,80021,1,0
320,160,80482,1,0
352,224,80944,1,0
64,192,81867,5,0
256,192,82848,1,0
448,192,83713,1,0
128,96,86078,5,0
224,96,87002,1,0
320,96,87982,1,0
416,96,88905,1,0
192,160,90002,5,0
256,160,90521,1,0
320,160,91040,1,0
96,64,94617,5,0
192,64,95252,1,0
320,64,95886,1,0
416,64,96578,1,0
128,128,97271,1,0
256,128,98021,1,0
384,128,98771,1,0
224,192,99578,1,0
256,192,102117,5,4
256,192,102405,1,4
256,192,102636,1,4
