osu file format v9

[General]
AudioFilename: Sadness_and_Sorrow_Piano.mp3
AudioLeadIn: 0
PreviewTime: 31386
Countdown: 3
SampleSet: Soft
StackLeniency: 0.7
Mode: 0
LetterboxInBreaks: 1

[Editor]
DistanceSpacing: 1.5
BeatDivisor: 6
GridSize: 16

[Metadata]
Title:Sadness and Sorrow
Artist:Toshiro Masuda
Creator:mikhe
Version:Hard
Source:
Tags:Naruto

[Difficulty]
HPDrainRate:9
CircleSize:6
OverallDifficulty:7
ApproachRate:7
SliderMultiplier:1.2
SliderTickRate:2

[Events]
//Background and Video events
0,0,"Naruto.jpg"
//Break Periods
2,19240,22292
2,56682,61523
//Storyboard Layer 0 (Background)
//Storyboard Layer 1 (Fail)
//Storyboard Layer 2 (Pass)
//Storyboard Layer 3 (Foreground)
//Storyboard Sound Samples
//Background Colour Transformations
3,100,98,185,249

[TimingPoints]
2,461.538461538462,4,2,0,100,1,0

[Colours]
Combo1 : 255,150,0
Combo2 : 57,209,35
Combo3 : 40,89,204
Combo4 : 240,5,5
Combo5 : 238,244,0

[HitObjects]
256,192,1213,12,0,6973
96,192,8425,5,0
160,192,8886,1,0
128,192,9348,1,0
224,192,9809,1,0
192,192,10271,1,0
256,192,10735,1,0
288,192,11194,1,0
79,77,12098,5,0
102,103,12578,1,0
125,125,13040,1,0
146,145,13502,1,0
74,312,13963,5,0
98,287,14425,1,0
124,258,14886,1,0
148,230,15348,1,0
128,192,15809,5,0
192,192,16271,1,0
160,192,16732,1,0
256,192,17194,1,0
224,192,17655,1,0
288,192,18117,1,0
384,192,18578,1,0
384,192,19040,1,0
256,160,23194,5,0
224,192,23655,1,0
256,224,24117,1,0
288,192,24578,1,0
96,192,25040,5,0
192,192,25502,1,0
288,192,25963,1,0
384,192,26425,1,0
416,192,26886,1,0
320,192,27348,1,0
224,192,27809,1,0
128,192,28271,1,0
256,192,30578,5,4
256,192,30809,1,4
256,192,31040,1,4
256,192,32886,5,0
160,128,33348,5,0
128,192,33809,1,0
160,256,34328,1,0
352,256,34790,5,0
384,192,35252,1,0
352,128,35713,1,0
256,64,36578,5,0
192,128,37040,1,0
128,192,37502,1,0
256,192,37963,5,0
256,320,38425,5,0
320,256,38886,1,0
384,192,39348,1,0
96,192,39809,5,0
192,192,40271,1,0
320,192,40732,1,0
416,192,41194,1,0
256,288,41706,5,0
256,288,41771,1,0
256,288,41836,1,0
256,192,42636,1,0
256,96,43537,5,0
256,96,43602,1,0
256,96,43667,1,0
288,192,44442,6,0,B|224:192,3,60
224,224,45405,1,0
256,192,45616,1,0
288,160,45877,1,0
128,192,46333,5,0
384,192,46790,1,0
160,192,47655,5,0
224,192,48117,1,0
192,192,48578,1,0
288,192,49040,1,0
256,192,49502,1,0
320,192,49963,1,0
352,192,50425,1,0
160,192,51405,5,0
256,96,51867,1,0
352,192,52328,1,0
256,192,52790,5,0
352,192,53252,5,0
256,96,53713,1,0
160,192,54175,1,0
128,192,54636,5,0
192,192,55098,1,0
320,192,55559,1,0
384,192,56021,1,0
256,192,56482,5,4
160,192,62425,5,0
192,160,62886,1,0
224,192,63348,1,0
256,160,63809,1,0
288,192,64271,1,0
320,160,64732,1,0
352,192,65194,1,0
256,192,65655,5,4
160,128,66117,5,0
256,128,66578,1,0
352,128,67040,1,0
352,224,67502,5,0
288,224,67963,1,0
224,224,68425,1,0
160,224,68886,1,0
256,192,69867,5,4
192,192,71252,5,0
256,192,71713,1,0
224,192,72175,1,0
320,192,72636,1,0
288,192,73098,1,0
352,192,73559,1,0
256,288,74071,1,0
256,288,74136,1,0
256,192,75016,5,2
256,192,75081,1,2
256,192,75147,1,2
288,192,75473,1,0
256,96,75929,1,0
256,288,76386,1,0
256,192,76862,5,2
256,192,76927,1,2
256,192,76993,1,2
224,192,77319,1,0
256,288,77775,1,0
256,96,78232,1,0
416,224,78694,5,0
416,160,79155,1,0
96,224,79617,1,0
96,160,80078,1,0
160,192,80540,5,0
256,192,81002,1,0
352,192,81463,1,0
256,192,81925,5,0
256,128,82386,5,0
192,192,82848,1,0
256,256,83309,1,0
320,192,83771,1,0
256,192,84694,5,0
192,288,86078,5,0
256,288,86540,1,0
320,288,87002,1,0
224,192,87521,1,0
288,192,87982,1,0
224,96,88444,1,0
288,96,88905,1,0
256,288,89989,5,0
256,288,90054,1,0
256,192,90521,1,0
256,96,91040,1,0
256,192,92194,5,0
64,32,94617,5,0
192,32,95252,1,0
320,32,95886,1,0
448,32,96578,1,0
448,352,97271,1,0
320,352,98021,1,0
192,352,98771,1,0
64,352,99636,1,0
256,192,102102,5,4
256,192,102167,1,4
256,192,102405,1,4
256,192,102463,1,4
