osu file format v9

[General]
AudioFilename: Sadness_and_Sorrow_Piano.mp3
AudioLeadIn: 0
PreviewTime: 31386
Countdown: 3
SampleSet: Soft
StackLeniency: 0.7
Mode: 0
LetterboxInBreaks: 1

[Editor]
DistanceSpacing: 1.5
BeatDivisor: 6
GridSize: 16

[Metadata]
Title:Sadness and Sorrow
Artist:Toshiro Masuda
Creator:mikhe
Version:Easy
Source:
Tags:Naruto

[Difficulty]
HPDrainRate:2
CircleSize:4
OverallDifficulty:2
ApproachRate:2
SliderMultiplier:1.2
SliderTickRate:2

[Events]
//Background and Video events
0,0,"Naruto.jpg"
//Break Periods
2,56682,60865
//Storyboard Layer 0 (Background)
//Storyboard Layer 1 (Fail)
//Storyboard Layer 2 (Pass)
//Storyboard Layer 3 (Foreground)
//Storyboard Sound Samples
//Background Colour Transformations
3,100,98,185,249

[TimingPoints]
2,461.538461538462,4,2,0,100,1,0

[Colours]
Combo1 : 255,150,0
Combo2 : 57,209,35
Combo3 : 40,89,204
Combo4 : 240,5,5
Combo5 : 238,244,0

[HitObjects]
256,192,1213,12,4,7732
192,192,8425,6,0,B|320:192,8,120
256,192,14021,1,0
416,128,15809,1,0
416,192,16271,1,0
352,288,17194,1,0
256,288,18117,1,0
160,288,19040,1,0
64,256,19963,1,0
192,192,23194,6,0,B|320:192,3,120
256,64,26886,1,4
224,192,30578,2,0,B|288:192,2,60
160,64,33348,1,0
256,96,34328,1,0
352,64,35252,1,0
256,192,37963,5,0
416,128,39867,1,0
416,256,40328,1,0
288,256,40790,1,0
288,128,41252,1,0
96,192,41655,2,0,B|128:192,3,30
192,192,43559,2,0,B|224:192,3,30
352,192,45405,1,0
256,96,48117,5,0
256,192,48578,1,0
256,288,49040,1,0
256,192,52790,1,0
64,64,54636,5,0
64,192,55098,1,0
128,320,55559,1,0
256,320,56021,1,0
384,320,56482,1,0
256,128,62425,5,0
192,192,62886,1,0
256,256,63348,1,0
320,192,63809,1,0
256,128,65252,5,0
192,192,65713,1,0
256,256,66175,1,0
320,192,66636,1,0
352,96,68021,5,0
256,96,68482,1,0
160,96,68944,1,0
128,192,71309,2,0,B|384:192,1,240
256,192,73155,1,0
256,288,74021,1,0
384,192,75002,2,0,B|416:192,4,30
96,192,76848,2,0,B|128:192,4,30
128,32,78694,6,0,B|480:96|480:320,1,495
352,352,82328,2,0,B|96:96,1,345
448,192,86078,5,0
352,256,86540,1,0
352,128,87002,1,0
256,192,87463,1,0
160,256,87925,1,0
64,192,88444,1,0
160,128,88963,1,0
32,192,90002,2,0,B|480:192,2,435
256,192,94617,12,4,99636
256,192,102117,5,4
