osu file format v9

[General]
AudioFilename: Extend Ash ~ Hourai Victim.mp3
AudioLeadIn: 0
PreviewTime: -1
Countdown: 1
SampleSet: Normal
StackLeniency: 0.7
Mode: 0
LetterboxInBreaks: 1

[Editor]
DistanceSpacing: 1
BeatDivisor: 4
GridSize: 8

[Metadata]
Title:Extend Ash ~ Hourai Victim
Artist:Toshinori Hiramatsu
Creator:Nazo
Version:Extreme!!
Source:Knight of Rounds 2
Tags:touhou mokou remix

[Difficulty]
HPDrainRate:7
CircleSize:5
OverallDifficulty:6
ApproachRate:7
SliderMultiplier:1
SliderTickRate:1

[Events]
//Background and Video events
0,0,"bg2.jpg"
//Break Periods
2,41985,43885
2,53354,171464
2,186300,239674
//Storyboard Layer 0 (Background)
//Storyboard Layer 1 (Fail)
//Storyboard Layer 2 (Pass)
//Storyboard Layer 3 (Foreground)
//Storyboard Sound Samples
//Background Colour Transformations
3,100,163,162,255

[TimingPoints]
10680,315.789473684211,4,1,0,100,1,0
182469,-100,4,1,0,100,0,1
192574,-100,4,1,0,100,0,0
240574,-50,4,1,0,100,0,0
242074,-50,4,1,0,5,0,0

[HitObjects]
32,256,10680,1,0
64,192,10838,1,0
96,256,10996,1,2
128,192,11153,1,0
160,256,11311,1,0
192,192,11469,1,0
264,192,11627,1,2
296,256,11785,1,0
224,256,11943,1,0
256,320,12101,1,0
328,320,12259,1,2
376,272,12417,1,0
352,208,12575,2,0,B|336:168|320:144|288:112|280:120,1,100,0|2
248,160,13048,1,0
240,128,13127,1,0
208,104,13206,5,0
136,104,13364,1,0
184,152,13522,1,2
112,160,13680,1,0
168,200,13838,1,0
96,216,13996,1,0
160,248,14153,1,2
96,280,14311,1,0
144,328,14469,1,0
208,296,14627,1,0
248,352,14785,1,2
280,280,14943,1,0
320,328,15101,2,0,B|336:312|360:304|384:304|432:320,1,100,0|2
72,56,15732,5,0
64,104,15890,1,0
88,144,16048,1,2
136,128,16206,1,0
168,168,16364,1,0
160,216,16522,1,0
192,256,16680,1,2
240,256,16837,1,0
288,240,16995,1,0
296,192,17153,1,0
344,192,17311,1,2
384,224,17469,1,0
352,264,17627,2,0,B|344:320|280:344,1,100,0|2
440,64,18258,5,0
408,96,18416,1,0
360,96,18574,1,2
312,96,18732,1,0
264,96,18890,1,0
232,64,19048,1,0
184,64,19206,1,2
144,96,19364,1,0
136,120,19443,1,0
144,144,19522,5,0
168,152,19601,1,0
192,152,19680,1,0
216,160,19758,1,0
224,184,19837,1,6
216,232,19995,1,0
208,256,20074,1,2
184,272,20153,1,0
160,280,20232,1,0
136,288,20311,1,2
80,304,20469,1,2
64,256,20627,1,2
56,232,20706,1,0
64,208,20785,6,0,B|96:184|128:176|160:176|192:192|200:224,3,150,0|2|0|2
256,112,22680,1,0
256,272,22995,1,2
400,112,23311,6,0,B|432:152|440:208|424:240|400:272,2,150,0|2|0
256,192,24574,1,4
256,192,24732,1,4
160,232,25048,2,0,B|136:144|56:248|32:152,1,150
32,96,25680,5,0
56,72,25759,1,0
88,56,25838,1,0
120,120,25996,1,0
168,72,26153,1,2
232,56,26311,1,0
248,120,26469,1,0
280,184,26627,1,0
472,344,26943,5,0
432,256,27259,1,0
384,312,27417,1,2
328,360,27575,1,0
304,296,27732,1,0
328,232,27890,1,0
184,232,28206,1,0
200,264,28285,1,0
184,296,28364,5,0
112,296,28522,1,0
72,240,28680,1,2
72,168,28837,1,0
136,136,28995,1,0
160,200,29153,1,0
256,176,29469,1,0
256,120,29627,1,0
288,224,29785,1,0
208,160,29943,1,2
304,160,30101,1,0
224,224,30258,2,0,B|192:248,4,25,0|0|0|0|2
56,352,30890,5,0
128,352,31048,1,0
160,288,31206,1,2
232,288,31364,1,0
264,352,31522,1,0
336,352,31680,1,0
424,56,31995,5,0
208,224,32311,1,0
256,168,32469,1,0
304,224,32627,2,0,B|336:264|392:272|432:264|464:240|472:184|448:128,1,250
408,104,33574,1,0
352,56,33732,1,2
304,104,33890,1,0
232,104,34048,1,0
120,320,34522,1,0
152,304,34601,1,0
184,320,34680,2,0,B|224:320|224:320|224:288,6,50,0|0|2|0|0|0|2
400,168,35943,5,0
344,208,36101,1,0
288,168,36258,1,2
232,128,36416,1,0
176,168,36574,1,0
176,240,36732,1,0
288,328,37048,1,0
416,264,37364,1,0
456,208,37522,1,2
416,144,37680,1,0
360,184,37837,1,0
320,128,37995,1,0
208,208,38311,1,0
144,176,38469,5,0
96,232,38627,1,0
64,168,38785,1,2
112,112,38943,1,0
184,112,39101,1,0
240,152,39258,1,0
240,288,39574,1,0
304,312,39732,1,0
304,312,39890,1,0
368,288,40048,1,2
368,288,40206,1,0
400,224,40364,2,0,B|432:168|408:112,1,100,0|2
24,136,40995,5,0
48,136,41074,1,0
48,184,41232,1,0
72,184,41311,1,2
72,232,41469,1,0
104,264,41627,1,0
136,296,41785,1,0
224,272,44785,6,0,B|200:192|240:96|352:144|312:288,1,300
256,192,46048,12,0,48811
56,88,51101,5,0
56,160,51259,1,0
120,120,51417,1,0
120,192,51575,1,0
184,152,51733,1,0
184,224,51891,1,0
488,24,52206,1,0
392,128,52522,1,0
392,200,52680,1,0
448,240,52837,1,0
392,280,52996,1,0
392,352,53154,1,0
256,112,172364,5,0
256,272,172680,1,0
336,192,172995,1,0
176,192,173311,1,0
336,112,173627,1,0
176,272,173943,1,0
176,112,174258,1,0
336,272,174574,1,0
104,320,174890,5,0
256,48,175364,1,0
408,320,175837,1,0
216,240,176153,2,0,B|216:232|216:192|216:152|256:120|296:152|296:192|296:232|296:240,1,200
176,224,177416,6,0,B|344:224,1,150
328,168,178048,2,0,B|160:168,1,150,2|0
176,272,178680,2,0,B|344:272,1,150
328,112,179311,2,0,B|160:112,1,150,2|0
256,152,179943,1,0
256,152,180101,1,0
256,232,180258,1,0
256,232,180416,1,0
296,192,180574,1,0
296,192,180732,1,0
216,192,180890,1,0
216,192,181048,1,0
256,192,181206,12,0,182153
56,320,182469,5,0
56,272,182627,1,0
56,224,182785,1,2
56,176,182943,1,0
104,176,183101,1,0
152,176,183258,1,0
200,176,183416,1,2
248,176,183574,1,0
248,224,183732,1,0
296,224,183890,1,0
296,272,184048,1,2
344,272,184206,1,0
344,320,184364,1,0
392,320,184522,1,0
424,288,184680,1,2
424,240,184837,1,0
424,144,184995,6,2,B|376:96|320:96,1,100,0|2
280,96,185469,2,0,B|248:128|184:136,1,100
144,152,185943,2,0,B|120:168|120:168|144:184,1,50,2|0
64,288,240574,6,0,B|168:232|168:232|256:64|256:64|344:232|344:232|432:288|432:288,1,600
192,304,241837,5,4
320,304,241995,1,4
256,192,242074,12,4,243495
