osu file format v11

[General]
AudioFilename: Chinmoku Ormeta.mp3
AudioLeadIn: 0
PreviewTime: 97372
Countdown: 0
SampleSet: Normal
StackLeniency: 0.7
Mode: 0
LetterboxInBreaks: 0

[Editor]
DistanceSpacing: 1.1
BeatDivisor: 4
GridSize: 8

[Metadata]
Title:Hikyoumono no Elegy (Short Ver.)
TitleUnicode:Hikyoumono no Elegy (Short Ver.)
Artist:Toshinobu Iida
ArtistUnicode:Toshinobu Iida
Creator:Konei
Version:Hard
Source:Omerta ~Chinmoku no Okite~
Tags:yaoi visual novel boys love shonen ai Karin Chatnoir LunarSakuya opening
BeatmapID:164132
BeatmapSetID:50572

[Difficulty]
HPDrainRate:6
CircleSize:4
OverallDifficulty:6
ApproachRate:7
SliderMultiplier:1.6
SliderTickRate:1

[Events]
//Background and Video events
0,0,"Omerta Background.jpg"
Video,0,"Omerta OP.avi"
//Break Periods
//Storyboard Layer 0 (Background)
//Storyboard Layer 1 (Fail)
//Storyboard Layer 2 (Pass)
//Storyboard Layer 3 (Foreground)
//Storyboard Sound Samples
//Background Colour Transformations
3,100,163,162,255

[TimingPoints]
408,428.571428571429,4,1,1,55,1,0
31265,-100,4,2,1,55,0,0
31693,-100,4,1,1,55,0,0
38122,-100,4,2,1,55,0,0
38550,-100,4,1,1,55,0,0
43265,-100,4,2,1,60,0,0
63836,-100,4,2,1,50,0,0
70265,-100,4,1,1,50,0,0
70693,-100,4,1,2,50,0,0
70908,-100,4,1,1,50,0,0
77550,-100,4,1,2,50,0,0
77765,-100,4,1,1,50,0,0
79693,-100,4,1,1,50,0,0
84408,-100,4,1,2,50,0,0
84836,-100,4,1,1,50,0,0
98122,-100,4,1,1,45,0,1
104979,-100,4,1,2,45,0,1
105086,-100,4,1,1,45,0,1
105622,-100,4,1,2,45,0,1
105729,-100,4,1,1,45,0,1
109908,-100,4,1,2,45,0,1
110122,-100,4,1,1,50,0,0
111836,-100,4,1,1,45,0,1
116979,-100,4,1,1,50,0,0
118693,-100,4,1,1,45,0,1
122122,-100,4,1,2,45,0,1
122229,-100,4,1,1,45,0,1
123622,-100,4,1,2,45,0,1
123729,-100,4,1,1,45,0,1
127050,-100,4,1,2,45,0,1
127158,-100,4,1,1,45,0,1
128979,-100,4,1,2,45,0,0
129408,-100,4,1,1,45,0,0
135836,-100,4,1,2,45,0,0
135943,-100,4,1,1,45,0,0
142693,-100,4,2,1,45,0,0
142800,-100,4,1,1,45,0,0
144408,-100,4,1,1,50,0,0

[Colours]
Combo1 : 121,30,183
Combo2 : 196,11,11
Combo3 : 60,141,223
Combo4 : 57,78,149
SliderBorder : 255,255,255

[HitObjects]
200,108,29550,6,0,B|192:152|208:192,1,80,4|0,0:0|0:0,0:0:0
256,264,29979,2,0,P|256:384,2,120,8|0|0,0:0|0:0|0:0,0:0:0
328,216,30836,1,0,0:0:0
248,176,31050,1,0,0:0:0
256,316,31265,6,0,B|168:324|112:264,1,160,4|8,0:0|0:0,0:0:0
80,176,31908,1,0,0:0:0
72,88,32122,2,0,B|145:52|225:91,1,160,0|8,0:0|0:0,0:0:0
224,176,32765,1,0,0:0:0
304,248,32979,6,0,B|376:304,1,80,4|0,0:0|0:0,0:0:0
440,248,33408,2,0,B|400:224,2,40,8|0|0,0:0|0:0|0:0,0:0:0
472,168,33836,1,0,0:0:0
432,88,34050,1,0,0:0:0
432,88,34158,1,0,0:0:0
432,88,34265,2,0,B|360:48|272:56,1,160,8|0,0:0|0:0,0:0:0
256,156,34908,6,0,B|220:176|180:184,1,80
112,260,35336,2,0,B|168:248,1,40
252,240,35658,2,0,B|292:224,2,40
256,292,35979,2,0,B|218:305,2,40,8|0|0,0:0|0:0|0:0,0:0:0
352,312,36408,6,0,P|416:288|448:208,1,160,4|0,0:0|0:0,0:0:0
385,145,37050,1,0,0:0:0
322,82,37265,2,0,P|288:64|248:56,1,80
184,112,37693,2,0,P|218:130|258:138,1,80
256,224,38122,6,0,P|296:240|360:248,1,80,4|0,0:0|0:0,0:0:0
392,184,38550,2,0,P|358:162,3,40,8|0|0|0,0:0|0:0|0:0|0:0,0:0:0
256,80,39193,1,0,0:0:0
176,160,39408,2,0,P|144:184|120:216,1,80,8|0,0:0|0:0,0:0:0
208,240,39836,6,0,P|288:288,1,80,4|0,0:0|0:0,0:0:0
344,224,40265,2,0,P|312:144,1,80,8|0,0:0|0:0,0:0:0
256,80,40693,1,0,0:0:0
168,80,40908,2,0,P|136:64|80:56,2,80,0|8|0,0:0|0:0|0:0,0:0:0
128,160,41550,6,0,P|208:184|256:240,1,160
328,288,42193,2,0,P|384:312,2,40
256,336,42622,2,0,P|256:376,2,40
184,288,43050,2,0,P|152:320,2,40,0|0|4,0:0|0:0|0:0,0:0:0
256,32,43908,5,0,0:0:0
256,32,44122,2,0,P|192:72|176:152,1,160
252,194,44765,2,0,P|316:154|332:74,1,160
256,32,45408,2,0,P|216:40|160:32,1,80,0|2,0:0|0:0,0:0:0
252,194,46050,5,0,0:0:0
252,105,46265,1,8,0:0:0
252,194,46479,1,0,0:0:0
256,288,46693,2,0,P|192:312|96:272,1,160
192,232,47336,2,0,P|144:208|96:112,1,160
184,104,47979,2,0,P|208:152|240:168,1,80,0|8,0:0|0:0,0:0:0
296,104,48408,5,0,0:0:0
358,166,48622,1,0,0:0:0
420,228,48836,1,0,0:0:0
482,290,49050,1,2,0:0:0
256,272,49479,6,0,P|216:248|192:216,2,80,0|8|0,0:0|0:0|0:0,0:0:0
304,184,50122,2,0,P|280:112|200:88,1,160,4|0,0:0|0:0,0:0:0
144,152,50765,1,0,0:0:0
144,152,50979,2,0,P|168:224|248:248,1,160
328,280,51622,1,8,0:0:0
384,216,51836,2,0,P|424:144|376:96,1,160
328,24,52479,1,2,0:0:0
300,168,52908,5,0,0:0:0
212,168,53122,1,8,0:0:0
256,248,53336,1,0,0:0:0
328,296,53550,2,0,P|234:372|190:298,2,240
256,240,55050,1,8,0:0:0
256,192,55265,12,4,56979,0:0:0
256,104,57622,5,0,0:0:0
256,104,57836,2,0,P|336:104|400:168,1,160
371,239,58479,2,0,P|291:239|227:175,1,160,8|0,0:0|0:0,0:0:0
233,188,59122,1,0,0:0:0
96,80,59550,1,0,0:0:0
96,168,59765,2,0,P|112:216|144:248,1,80,0|8,0:0|0:0,0:0:0
233,188,60193,1,0,0:0:0
328,136,60408,6,0,P|376:72|416:72|416:72|480:72,1,160,4|0,0:0|0:0,0:0:0
463,159,61050,2,0,P|415:223|375:223|375:223|311:223,1,160,0|0,0:0|0:0,0:0:0
254,272,61693,1,0,0:0:0
191,209,61908,2,0,P|160:176|144:144,1,80,8|0,0:0|0:0,0:0:0
232,144,62336,2,0,P|312:96,1,80
384,88,62765,2,0,P|368:57|337:24,1,80,0|0,0:0|0:0,0:0:0
249,24,63193,1,0,0:0:0
144,64,63408,5,8,0:0:0
144,64,63836,2,0,P|120:144|64:192,1,160,0|0,0:0|0:0,0:0:0
99,272,64479,2,0,P|280:272,1,160
259,272,65122,1,0,0:0:0
296,192,65336,1,8,0:0:0
296,192,65550,6,0,P|240:144|216:64,1,160,0|0,0:0|0:0,0:0:0
160,152,66193,2,0,P|160:320,1,160
248,312,66836,2,0,P|328:312|408:272,1,160,8|0,0:0|0:0,0:0:0
399,190,67479,2,0,P|312:168,1,80,0|2,0:0|0:0,0:0:0
256,112,67908,2,0,P|184:80|112:112,1,160,2|2,0:0|0:0,0:0:0
184,160,68550,2,0,P|192:208|184:240,1,80,0|2,0:0|0:0,0:0:0
120,296,68979,6,0,P|181:346|244:297,1,160,8|0,0:0|0:0,0:0:0
256,224,69622,1,0,0:0:0
252,136,69836,2,0,P|308:93|372:139,1,160,8|0,0:0|0:0,0:0:0
400,224,70479,5,0,0:0:0
424,200,70586,1,0,0:0:0
443,173,70693,2,0,P|425:101|364:40,1,160,4|8,0:0|0:0,0:0:0
277,41,71336,2,0,P|218:100|200:172,1,160,0|0,0:0|0:0,0:0:0
256,240,71979,1,8,0:0:0
184,296,72193,2,0,P|120:336|48:288,1,160
120,240,72836,2,0,P|120:144,1,80,8|0,0:0|0:0,0:0:0
197,116,73265,2,0,P|197:196,1,80
284,196,73693,1,8,0:0:0
328,272,73908,5,0,0:0:0
416,272,74122,2,0,P|440:200|408:120,1,160
324,124,74765,2,0,P|300:196|332:276,1,160
376,344,75408,1,0,0:0:0
328,272,75622,1,0,0:0:0
265,209,75836,2,0,P|209:209|193:121|137:113,1,160
79,176,76479,1,0,0:0:0
79,263,76693,2,0,P|127:303,3,40
144,312,77122,6,0,P|200:320|232:304,1,80,8|0,0:0|0:0,0:0:0
220,223,77550,1,4,0:0:0
220,134,77765,2,0,P|164:126|132:142,1,80,0|8,0:0|0:0,0:0:0
144,224,78193,1,0,0:0:0
144,135,78408,1,0,0:0:0
288,176,78622,1,0,0:0:0
288,88,78836,5,8,0:0:0
208,56,79050,2,0,P|104:64|80:208,1,240,0|8,0:0|0:0,0:0:0
128,242,79908,2,0,P|200:216|248:144,1,160
308,87,80550,2,0,P|368:64,2,40
246,150,80979,2,0,P|246:198|310:294,1,160,0|8,0:0|0:0,0:0:0
344,216,81622,2,0,P|259:231|186:221,1,160,0|0,0:0|0:0,0:0:0
120,136,82265,5,8,0:0:0
182,73,82479,2,0,P|270:81|342:73,1,160
403,135,83122,1,8,0:0:0
340,197,83336,1,0,0:0:0
256,232,83550,1,0,0:0:0
256,232,83658,1,0,0:0:0
256,232,83765,6,0,P|240:272|208:312,2,80,0|8|0,0:0|0:0|0:0,0:0:0
176,200,84408,2,0,P|200:120|240:88|240:88|288:88,1,160,4|8,0:0|0:0,0:0:0
331,150,85050,1,0,0:0:0
393,212,85265,2,0,P|400:288|360:360,1,160,0|8,0:0|0:0,0:0:0
272,359,85908,1,0,0:0:0
208,296,86122,2,0,P|176:256|160:208,1,80
192,144,86550,2,0,P|224:184|240:232,1,80,8|0,0:0|0:0,0:0:0
272,128,86979,2,0,P|304:168|314:194,1,80
264,264,87408,5,8,0:0:0
349,286,87622,1,0,0:0:0
432,264,87836,2,0,P|472:200|480:112,1,160,0|8,0:0|0:0,0:0:0
398,85,88479,2,0,P|358:149|350:237,1,160
256,280,89122,1,8,0:0:0
256,280,89336,2,0,P|232:232|168:200|168:200|168:152,1,160
168,72,89979,1,8,0:0:0
256,88,90193,2,0,P|328:160,1,80
440,264,90836,5,8,0:0:0
440,264,91050,1,0,0:0:0
440,264,91265,2,0,P|376:304|304:264,1,160,0|8,0:0|0:0,0:0:0
256,200,91908,2,0,P|256:136,2,40
256,200,92336,1,0,0:0:0
193,262,92550,6,0,P|129:302|57:262,1,160,8|0,0:0|0:0,0:0:0
128,208,93193,1,0,0:0:0
128,119,93408,1,8,0:0:0
216,144,93622,2,0,P|272:112,2,40
128,119,94050,1,0,0:0:0
128,208,94265,2,0,P|176:304,1,80,8|0,0:0|0:0,0:0:0
256,192,94693,12,0,97050,0:0:0
168,192,97479,5,0,0:0:0
256,128,97693,1,0,0:0:0
432,296,98122,2,0,P|351:297|283:254,1,160,4|8,0:0|0:0,0:0:0
403,168,98765,2,0,P|337:127|256:128,1,160,0|0,0:0|0:0,0:0:0
285,257,99408,2,0,P|256:240|208:232,1,80,8|0,0:0|0:0,0:0:0
160,160,99836,1,0,0:0:0
97,97,100050,2,0,P|64:128|32:144,1,80,0|8,0:0|0:0,0:0:0
48,232,100479,5,0,0:0:0
128,264,100693,1,0,0:0:0
200,312,100908,1,0,0:0:0
256,248,101122,2,0,P|256:168,1,80,8|0,0:0|0:0,0:0:0
256,80,101550,1,0,0:0:0
304,312,101979,5,8,0:0:0
392,288,102194,1,0,0:0:0
456,232,102408,1,0,0:0:0
456,144,102622,1,0,0:0:0
392,80,102836,2,0,P|328:32|216:40,2,160,8|0|8,0:0|0:0|0:0,0:0:0
320,136,103908,6,0,P|280:216,1,80
222,269,104336,1,0,0:0:0
134,269,104550,1,8,0:0:0
72,208,104765,1,0,0:0:0
72,208,104872,1,0,0:0:0
72,208,104979,6,0,P|48:136|72:56,1,160
184,56,105622,2,0,P|208:128|184:208,1,160,4|0,0:0|0:0,0:0:0
72,208,106265,1,8,0:0:0
144,288,106479,2,0,P|224:304|304:288,1,160
386,224,107122,1,8,0:0:0
256,61,107550,6,0,P|256:88,3,26.6666666666667
168,168,107979,2,0,P|144:208|120:232,1,80
184,296,108408,1,0,0:0:0
344,168,108836,2,0,P|368:208|392:232,1,80
328,296,109265,1,0,0:0:0
256,352,109479,1,0,0:0:0
256,264,109693,2,0,P|256:168,1,80,0|4,0:0|0:0,0:0:0
128,64,110336,6,0,P|96:112|64:128,2,80
216,64,110979,1,0,0:0:0
247,64,111086,1,0,0:0:0
277,73,111193,1,0,0:0:0
307,83,111300,1,0,0:0:0
339,83,111408,2,0,P|387:107|499:99,1,160,0|4,0:0|0:0,0:0:0
504,200,112050,5,0,0:0:0
415,200,112265,2,0,P|344:264,1,80,8|0,0:0|0:0,0:0:0
293,191,112693,1,0,0:0:0
204,191,112908,2,0,P|133:255,1,80,0|8,0:0|0:0,0:0:0
82,182,113336,2,0,P|40:120|32:32,1,160
119,36,113979,1,8,0:0:0
200,80,114193,5,0,0:0:0
272,32,114408,1,0,0:0:0
200,80,114622,2,0,P|200:160,1,80,0|8,0:0|0:0,0:0:0
288,160,115050,2,0,P|288:256,1,80
120,192,115693,5,8,0:0:0
168,264,115908,2,0,P|248:288|320:264,1,160
368,192,116550,1,8,0:0:0
305,129,116765,1,0,0:0:0
216,128,116979,1,0,0:0:0
153,190,117193,1,0,0:0:0
256,328,117622,5,0,0:0:0
256,328,117836,1,0,0:0:0
256,328,118050,2,0,P|256:152,1,160
192,96,118693,6,0,P|254:55|328:128,1,160,4|8,0:0|0:0,0:0:0
320,200,119336,2,0,P|258:241|184:168,1,160,4|0,0:0|0:0,0:0:0
256,144,119979,1,8,0:0:0
320,200,120193,2,0,P|400:232|400:232|400:320,1,160
318,339,120836,1,8,0:0:0
256,144,121265,1,8,0:0:0
318,339,121693,1,8,0:0:0
152,280,122122,6,0,P|128:320|96:336,2,80,4|0|8,0:0|0:0|0:0,0:0:0
74,237,122765,2,0,P|90:165|146:93,1,160
203,159,123408,1,8,0:0:0
280,200,123622,2,0,P|264:272|208:344,1,160,4|0,0:0|0:0,0:0:0
136,296,124265,1,8,0:0:0
88,224,124479,1,0,0:0:0
32,160,124693,1,0,0:0:0
120,144,124908,6,0,P|152:104|192:80,1,80
256,120,125336,2,0,P|256:216,1,80
344,192,125765,2,0,P|367:175|399:135,1,80
344,56,126193,2,0,P|264:32|184:48,1,160
104,24,126836,2,0,P|48:120,1,80,0|4,0:0|0:0,0:0:0
128,160,127265,5,8,0:0:0
256,280,127693,1,8,0:0:0
380,155,128122,1,8,0:0:0
256,32,128550,1,8,0:0:0
256,120,128765,1,0,0:0:0
256,208,128979,6,0,P|320:216|384:248|384:248|384:296,1,160,4|8,0:0|0:0,0:0:0
384,317,129515,2,0,P|384:368,1,40
340,357,129729,2,0,P|280:360|224:336,1,120
225,248,130265,1,8,0:0:0
162,185,130479,1,0,0:0:0
248,160,130693,6,0,P|288:136|312:112,1,80
400,104,131122,2,0,P|433:152,2,40,8|0|0,0:0|0:0|0:0,0:0:0
368,72,131443,2,0,P|337:24|273:16,1,120
192,40,131979,1,8,0:0:0
136,112,132193,1,0,0:0:0
198,174,132408,6,0,P|240:192|256:224,1,80,4|0,0:0|0:0,0:0:0
343,220,132836,2,0,P|358:191|400:173,1,80,8|0,0:0|0:0,0:0:0
400,84,133265,2,0,P|432:48,2,40
312,84,133693,2,0,P|208:84,1,80,8|0,0:0|0:0,0:0:0
152,128,134122,6,0,P|128:184|152:256,2,120,0|0|0,0:0|0:0|0:0,0:0:0
208,192,134979,2,0,P|220:247|196:303,2,120,0|0|0,0:0|0:0|0:0,0:0:0
296,200,135836,6,0,P|384:200,1,80,4|0,0:0|0:0,0:0:0
368,111,136265,2,0,P|408:80,2,40,8|0|0,0:0|0:0|0:0,0:0:0
324,111,136586,2,0,P|256:104|192:80,1,120
144,25,137122,2,0,P|72:88,1,80,8|0,0:0|0:0,0:0:0
145,139,137550,6,0,P|168:208|160:224,1,80,0|0,0:0|0:0,0:0:0
248,248,137979,1,8,0:0:0
248,248,138086,1,0,0:0:0
248,248,138193,1,0,0:0:0
248,248,138300,2,0,P|320:216|352:168,1,120
281,122,138836,2,0,P|320:96|336:64,1,80,8|0,0:0|0:0,0:0:0
256,32,139265,6,0,P|200:56|168:48,1,80,4|0,0:0|0:0,0:0:0
120,115,139693,1,8,0:0:0
182,177,139908,1,0,0:0:0
119,239,140122,1,0,0:0:0
181,301,140336,1,0,0:0:0
118,363,140550,1,8,0:0:0
56,296,140765,6,0,P|0:232,2,80
118,363,141408,1,8,0:0:0
181,301,141622,1,0,0:0:0
119,238,141836,1,0,0:0:0
182,177,142050,1,0,0:0:0
119,114,142265,1,8,0:0:0
181,51,142479,1,0,0:0:0
243,113,142693,6,0,P|288:152,1,40
341,193,143015,1,0,0:0:0
403,255,143229,2,0,P|376:296|336:320,1,80
262,313,143658,2,0,P|200:312,1,40
178,312,143872,2,0,P|112:312,1,40
138,224,144193,2,0,P|138:176,1,40,0|4,0:0|0:0,0:0:0
256,192,144408,12,0,147622,0:0:0
