osu file format v11

[General]
AudioFilename: Chinmoku Ormeta.mp3
AudioLeadIn: 0
PreviewTime: 97372
Countdown: 0
SampleSet: Normal
StackLeniency: 0.7
Mode: 0
LetterboxInBreaks: 0

[Editor]
DistanceSpacing: 0.9
BeatDivisor: 2
GridSize: 8

[Metadata]
Title:Hikyoumono no Elegy (Short Ver.)
TitleUnicode:Hikyoumono no Elegy (Short Ver.)
Artist:Toshinobu Iida
ArtistUnicode:Toshinobu Iida
Creator:Konei
Version:Easy
Source:Omerta ~Chinmoku no Okite~
Tags:yaoi visual novel boys love shonen ai Karin Chatnoir LunarSakuya opening
BeatmapID:155367
BeatmapSetID:50572

[Difficulty]
HPDrainRate:2
CircleSize:3
OverallDifficulty:1
ApproachRate:3
SliderMultiplier:0.9
SliderTickRate:1

[Events]
//Background and Video events
0,0,"Omerta Background.jpg"
Video,0,"Omerta OP.avi"
//Break Periods
//Storyboard Layer 0 (Background)
//Storyboard Layer 1 (Fail)
//Storyboard Layer 2 (Pass)
//Storyboard Layer 3 (Foreground)
//Storyboard Sound Samples
//Background Colour Transformations
3,100,163,162,255

[TimingPoints]
408,428.571428571429,4,1,1,53,1,0
31265,-100,4,2,1,53,0,0
32122,-100,4,1,1,53,0,0
38122,-100,4,2,1,53,0,0
38550,-100,4,1,1,53,0,0
43265,-100,4,2,1,53,0,0
57408,-100,4,2,1,52,0,0
63408,-100,4,2,1,53,0,0
70265,-100,4,1,1,59,0,0
70693,-100,4,1,2,50,0,0
71550,-100,4,1,1,50,0,0
77550,-100,4,1,2,40,0,0
77979,-100,4,1,1,40,0,0
84408,-100,4,1,2,45,0,0
84836,-100,4,1,1,45,0,0
98122,-100,4,1,1,60,0,1
104979,-100,4,1,2,60,0,1
105193,-100,4,1,1,60,0,1
110122,-100,4,1,1,56,0,0
111836,-100,4,1,1,56,0,1
116979,-100,4,1,1,56,0,0
118693,-100,4,1,1,58,0,1
125122,-100,4,1,1,54,0,1
128979,-100,4,1,1,50,0,0
144836,-100,4,1,1,45,0,0
145693,-100,4,1,1,40,0,0
146550,-100,4,1,1,35,0,0
147408,-100,4,1,1,30,0,0

[Colours]
Combo1 : 121,30,183
Combo2 : 196,11,11
Combo3 : 60,141,223
Combo4 : 57,78,149
SliderBorder : 255,255,255

[HitObjects]
184,192,29550,2,0,B|264:256|352:192,1,180,4|0,0:0|0:0,0:0:0
400,128,30836,1,8,0:0:0
432,200,31265,6,0,B|432:320|320:320,1,180,4|0,0:0|0:0,0:0:0
256,288,32550,1,8,0:0:0
200,232,32979,5,4,0:0:0
200,152,33407,2,0,B|256:80,1,90,8|0,0:0|0:0,0:0:0
324,124,34265,1,8,0:0:0
396,160,34693,6,0,B|340:231,1,90,0|8,0:0|0:0,0:0:0
272,272,35550,1,0,0:0:0
192,272,35979,2,0,B|64:272,1,90,8|4,0:0|0:0,0:0:0
64,200,36836,5,8,0:0:0
112,136,37265,1,0,0:0:0
192,120,37693,2,0,B|264:192,1,90,8|4,0:0|0:0,0:0:0
336,168,38550,2,0,B|336:72,2,90,8|0|8,0:0|0:0|0:0,0:0:0
336,249,39836,5,4,0:0:0
272,304,40265,2,0,B|168:336,2,90,8|0|8,0:0|0:0|0:0,0:0:0
336,248,41550,2,0,B|432:208,1,90,0|8,0:0|0:0,0:0:0
360,152,42408,2,0,B|472:96,2,90,0|8|4,0:0|0:0|0:0,0:0:0
208,88,44122,6,0,B|152:176|208:264,1,180,0|0,0:0|0:0,0:0:0
288,264,45408,1,0,0:0:0
288,184,45836,1,0,0:0:0
360,224,46265,5,8,0:0:0
440,224,46693,2,0,B|456:80,1,135,0|8,0:0|0:0,0:0:0
344,32,47979,2,0,B|328:128,1,90,2|0,0:0|0:0,0:0:0
248,104,48836,1,0,0:0:0
184,160,49265,1,0,0:0:0
128,224,49693,6,0,B|128:320,2,90,8|0|0,0:0|0:0|0:0,0:0:0
128,144,50979,1,0,0:0:0
128,64,51408,2,0,B|232:64,2,90,0|0|0,0:0|0:0|0:0,0:0:0
128,144,52693,2,0,B|32:144,2,90,0|8|0,0:0|0:0|0:0,0:0:0
200,176,53979,5,0,0:0:0
240,104,54408,2,0,B|328:136|328:96|424:112,2,180,0|0|0,0:0|0:0|0:0,0:0:0
240,184,56550,2,0,B|176:248|48:216,1,180
72,144,57836,5,0,0:0:0
144,104,58265,2,0,B|192:56|248:128|336:80,1,180
360,160,59550,1,0,0:0:0
440,160,59979,1,8,0:0:0
440,240,60408,6,0,B|344:240,1,90,4|0,0:0|0:0,0:0:0
280,280,61265,1,0,0:0:0
240,208,61693,2,0,B|176:160|144:224|64:192,1,180
104,120,62979,1,0,0:0:0
176,80,63408,5,8,0:0:0
256,72,63836,2,0,B|416:16|496:152,1,270,4|0,0:0|0:0,0:0:0
472,224,65550,2,0,B|312:280|232:136,1,270,4|8,0:0|0:0,0:0:0
240,64,67265,2,0,B|152:107|64:67,1,180,4|0,0:0|0:0,0:0:0
40,144,68550,1,2,0:0:0
96,200,68979,6,0,B|176:264,1,90,4|0,0:0|0:0,0:0:0
216,192,69836,2,0,B|144:136,1,90,0|0,0:0|0:0,0:0:0
176,64,70693,6,0,B|240:56|280:104|352:88,1,180,4|0,0:0|0:0,0:0:0
328,168,71979,2,0,B|360:216|344:280,1,90,8|0,0:0|0:0,0:0:0
312,328,72836,2,0,B|360:344|424:312,1,90,8|0,0:0|0:0,0:0:0
448,256,73693,6,0,B|472:208|432:160,1,90,8|0,0:0|0:0,0:0:0
368,216,74550,2,0,B|336:176|272:184,1,90,8|0,0:0|0:0,0:0:0
216,144,75408,2,0,B|168:192|248:272|200:320,2,180,8|8|8,0:0|0:0|0:0,0:0:0
290,175,77550,6,0,B|306:127|282:87,1,90,4|8,0:0|0:0,0:0:0
216,144,78408,1,0,0:0:0
136,136,78836,1,8,0:0:0
72,88,79265,2,0,B|48:126|64:174,1,90,0|8,0:0|0:0,0:0:0
96,248,80122,6,0,B|144:272|192:248,1,90,0|8,0:0|0:0,0:0:0
264,248,80979,1,0,0:0:0
336,288,81408,1,8,0:0:0
408,248,81836,1,0,0:0:0
428,168,82265,2,0,B|344:120|256:164,1,180,8|8,0:0|0:0,0:0:0
192,112,83550,2,0,B|144:128|128:176,1,90,0|8,0:0|0:0,0:0:0
208,192,84408,5,4,0:0:0
208,272,84836,2,0,B|288:336,2,90,8|0|8,0:0|0:0|0:0,0:0:0
208,192,86122,2,0,B|120:112,1,90,0|8,0:0|0:0,0:0:0
192,72,86979,6,0,B|232:104|288:64,1,90,0|8,0:0|0:0,0:0:0
360,72,87836,1,0,0:0:0
416,136,88265,2,0,B|416:248,2,90,8|0|8,0:0|0:0|0:0,0:0:0
336,136,89550,2,0,B|304:232|200:256,1,180,0|0,0:0|0:0,0:0:0
144,200,90836,6,0,B|192:120|192:24,1,180,8|8,0:0|0:0,0:0:0
272,56,92122,1,0,0:0:0
344,88,92550,1,8,0:0:0
368,168,92979,6,0,B|256:168|224:280,1,180
160,312,94265,2,0,B|56:312,1,90,8|0,0:0|0:0,0:0:0
256,192,95122,12,0,97050,0:0:0
352,304,98122,6,0,B|304:272|240:336|176:304,1,180,4|0,0:0|0:0,0:0:0
176,224,99407,1,8,0:0:0
176,144,99836,2,0,B|238:175|302:111|350:143,1,180,0|0,0:0|0:0,0:0:0
432,144,101122,5,8,0:0:0
432,224,101550,2,0,B|432:328,1,90,0|8,0:0|0:0,0:0:0
352,320,102407,2,0,B|256:320,1,90,0|8,0:0|0:0,0:0:0
256,240,103265,1,0,0:0:0
256,160,103693,6,0,B|272:112|320:96,1,90,8|0,0:0|0:0,0:0:0
392,64,104550,2,0,B|472:128,1,90,8|4,0:0|0:0,0:0:0
472,200,105407,1,8,0:0:0
392,208,105836,6,0,B|312:144,1,90,0|8,0:0|0:0,0:0:0
256,200,106693,2,0,B|256:296,1,90,0|8,0:0|0:0,0:0:0
176,296,107550,2,0,B|128:312|88:280,1,90,0|8,0:0|0:0,0:0:0
80,200,108408,6,0,B|200:104|328:192,1,270,0|8,0:0|0:0,0:0:0
408,208,110122,1,0,0:0:0
408,288,110550,6,0,B|312:288,1,90,8|0,0:0|0:0,0:0:0
240,288,111407,1,8,0:0:0
200,216,111836,5,4,0:0:0
232,144,112265,2,0,B|328:144,2,90,8|0|8,0:0|0:0|0:0,0:0:0
152,144,113550,2,0,B|152:256,2,90,0|8|0,0:0|0:0|0:0,0:0:0
104,80,114836,1,8,0:0:0
32,112,115265,5,0,0:0:0
32,192,115693,2,0,B|32:304,2,90,8|0|8,0:0|0:0|0:0,0:0:0
112,168,116979,1,0,0:0:0
184,208,117407,1,8,0:0:0
256,168,117836,1,0,0:0:0
336,176,118265,2,0,B|344:224|312:264,1,90,8|4,0:0|0:0,0:0:0
256,312,119122,5,8,0:0:0
176,312,119550,2,0,B|80:312|80:224|80:176,1,180,0|0,0:0|0:0,0:0:0
80,104,120836,2,0,B|16:104,2,45,8|0|0,0:0|0:0|0:0,0:0:0
152,64,121693,6,0,B|248:64,1,90,8|4,0:0|0:0,0:0:0
296,120,122550,1,8,0:0:0
376,120,122979,2,0,B|456:120,2,45,0|0|8,0:0|0:0|0:0,0:0:0
376,200,123836,2,0,B|376:296,1,90,0|8,0:0|0:0,0:0:0
294,290,124693,1,0,0:0:0
294,208,125122,5,8,0:0:0
294,127,125550,1,0,0:0:0
294,45,125979,2,0,B|358:21,1,45,8|0,0:0|0:0,0:0:0
393,86,126622,6,0,B|392:200,1,90,0|4,0:0|0:0,0:0:0
328,280,127693,1,8,0:0:0
256,320,128122,1,0,0:0:0
184,280,128550,1,8,0:0:0
256,240,128979,6,0,B|328:168|432:184,1,180,4|0,0:0|0:0,0:0:0
400,264,130265,1,8,0:0:0
472,304,130693,6,0,B|408:384|296:344,1,180
256,288,131979,1,8,0:0:0
192,232,132407,6,0,B|144:248|104:208,1,90,4|8,0:0|0:0,0:0:0
128,136,133265,2,0,B|176:120|216:160,1,90,0|8,0:0|0:0,0:0:0
292,155,134122,6,0,B|388:155,1,90,4|0,0:0|0:0,0:0:0
382,236,134979,2,0,B|270:236,1,90
232,288,135836,6,0,B|288:376|384:360,1,180,4|0,0:0|0:0,0:0:0
440,304,137122,1,8,0:0:0
464,232,137550,6,0,B|424:136|320:136,1,180,0|0,0:0|0:0,0:0:0
264,192,138836,1,8,0:0:0
184,184,139265,6,0,B|144:176|112:128,1,90,4|8,0:0|0:0,0:0:0
192,104,140122,2,0,B|224:72|280:64,1,90,0|8,0:0|0:0,0:0:0
344,104,140979,6,0,B|456:104,1,90,0|8,0:0|0:0,0:0:0
432,184,141836,1,0,0:0:0
360,224,142265,1,8,0:0:0
288,256,142693,5,0,0:0:0
288,336,143122,1,0,0:0:0
368,312,143550,1,0,0:0:0
256,192,144408,12,8,147622,0:0:0
