osu file format v14

[General]
AudioFilename: Main_Theme.mp3
AudioLeadIn: 0
PreviewTime: 32477
Countdown: 0
SampleSet: Normal
StackLeniency: 0.7
Mode: 1
LetterboxInBreaks: 0
WidescreenStoryboard: 0

[Editor]
DistanceSpacing: 1.6
BeatDivisor: 4
GridSize: 4
TimelineZoom: 1.6

[Metadata]
Title:Main Theme
TitleUnicode:Main Theme
Artist:Toshiki Aida, Ryosuke Asami
ArtistUnicode:俊樹アイーダ、涼介麻美
Creator:Niko-nyan
Version:Futsuu
Source:マリオパーティ9
Tags:Mario Party opening nintendo Gero xtrem3x Hanjamon Collaboration Raiden Nwolf - Magic Bomb - 任天堂
BeatmapID:715037
BeatmapSetID:321429

[Difficulty]
HPDrainRate:6
CircleSize:4
OverallDifficulty:4
ApproachRate:8
SliderMultiplier:1.4
SliderTickRate:1

[Events]
//Background and Video events
0,0,"mp9.jpg",0,40
//Break Periods
//Storyboard Layer 0 (Background)
//Storyboard Layer 1 (Fail)
//Storyboard Layer 2 (Pass)
//Storyboard Layer 3 (Foreground)
//Storyboard Sound Samples

[TimingPoints]
376,382.165605095541,4,1,0,70,1,0
1904,-100,4,1,0,70,0,0
32477,-100,4,1,0,70,0,1
43178,-100,4,1,0,70,0,0

[HitObjects]
244,192,1904,5,0,0:0:0:0:
244,192,2477,1,0,0:0:0:0:
244,192,2860,1,8,0:0:0:0:
244,192,3051,1,0,0:0:0:0:
236,192,3433,1,8,0:0:0:0:
244,192,4006,1,8,0:0:0:0:
236,192,4961,1,8,0:0:0:0:
236,192,5535,1,8,0:0:0:0:
236,192,6108,1,8,0:0:0:0:
236,192,6681,1,0,0:0:0:0:
236,192,7254,1,0,0:0:0:0:
236,192,8019,1,0,0:0:0:0:
236,192,8592,1,8,0:0:0:0:
236,192,8974,1,0,0:0:0:0:
236,192,9547,1,8,0:0:0:0:
236,192,10121,1,8,0:0:0:0:
236,192,11076,1,0,0:0:0:0:
236,192,11649,1,0,0:0:0:0:
236,192,12032,1,8,0:0:0:0:
236,192,12414,1,8,0:0:0:0:
236,192,13369,1,8,0:0:0:0:
236,192,14133,1,0,0:0:0:0:
236,192,14707,1,8,0:0:0:0:
236,192,15280,1,8,0:0:0:0:
236,192,15662,1,0,0:0:0:0:
236,192,16235,1,8,0:0:0:0:
236,192,16618,1,8,0:0:0:0:
236,192,17191,1,0,0:0:0:0:
236,192,18146,1,8,0:0:0:0:
236,192,18337,1,8,0:0:0:0:
236,192,18719,1,8,0:0:0:0:
236,192,20248,1,0,0:0:0:0:
236,192,20821,1,8,0:0:0:0:
236,192,21204,1,0,0:0:0:0:
236,192,21777,1,8,0:0:0:0:
236,192,22350,1,8,0:0:0:0:
236,192,23305,1,0,0:0:0:0:
236,192,23879,1,0,0:0:0:0:
236,192,24261,1,8,0:0:0:0:
236,192,24643,1,8,0:0:0:0:
236,192,25598,1,8,0:0:0:0:
236,192,26363,1,0,0:0:0:0:
236,192,26936,1,8,0:0:0:0:
236,192,27318,1,8,0:0:0:0:
236,192,27509,1,0,0:0:0:0:
236,192,27891,1,0,0:0:0:0:
236,192,28465,1,8,0:0:0:0:
236,192,28847,1,8,0:0:0:0:
236,192,29420,1,8,0:0:0:0:
236,192,30184,1,0,0:0:0:0:
236,192,30567,1,0,0:0:0:0:
236,192,30949,1,8,0:0:0:0:
236,192,32477,1,12,0:0:0:0:
236,192,33242,1,0,0:0:0:0:
236,192,34006,1,8,0:0:0:0:
236,192,34388,1,8,0:0:0:0:
236,192,34770,1,0,0:0:0:0:
236,192,35535,1,8,0:0:0:0:
236,192,36299,1,0,0:0:0:0:
236,192,37063,1,8,0:0:0:0:
236,192,37446,1,0,0:0:0:0:
236,192,37828,1,0,0:0:0:0:
236,192,38592,1,8,0:0:0:0:
236,192,39356,1,0,0:0:0:0:
236,192,40121,1,0,0:0:0:0:
236,192,40503,1,0,0:0:0:0:
236,192,40694,1,8,0:0:0:0:
236,192,41076,1,8,0:0:0:0:
236,192,41267,1,8,0:0:0:0:
236,192,41649,1,0,0:0:0:0:
236,192,42223,1,0,0:0:0:0:
236,192,42796,1,0,0:0:0:0:
236,192,43178,1,8,0:0:0:0:
232,196,44707,1,0,0:0:0:0:
236,192,45280,1,8,0:0:0:0:
236,192,45662,1,0,0:0:0:0:
232,196,46235,1,8,0:0:0:0:
232,196,46809,1,8,0:0:0:0:
232,196,47764,1,0,0:0:0:0:
232,196,48337,1,0,0:0:0:0:
232,196,48719,1,8,0:0:0:0:
232,196,49102,1,8,0:0:0:0:
232,196,50057,1,8,0:0:0:0:
232,196,50821,1,0,0:0:0:0:
232,196,51395,1,8,0:0:0:0:
232,196,51968,1,8,0:0:0:0:
232,196,52350,1,0,0:0:0:0:
232,196,52923,1,8,0:0:0:0:
232,196,53305,1,8,0:0:0:0:
232,204,53879,1,8,0:0:0:0:
232,204,54643,1,0,0:0:0:0:
232,204,55025,1,0,0:0:0:0:
232,204,55407,1,8,0:0:0:0:
232,204,56936,1,0,0:0:0:0:
232,192,57509,1,8,0:0:0:0:
232,192,58083,1,8,0:0:0:0:
232,204,58465,1,0,0:0:0:0:
232,192,59038,1,8,0:0:0:0:
232,192,59420,1,8,0:0:0:0:
232,204,59993,1,8,0:0:0:0:
232,204,60758,1,0,0:0:0:0:
232,204,61140,1,0,0:0:0:0:
232,204,61522,1,8,0:0:0:0:
232,204,63051,1,0,0:0:0:0:
232,192,63624,1,8,0:0:0:0:
232,192,64197,1,8,0:0:0:0:
232,204,64579,1,0,0:0:0:0:
232,192,65153,1,8,0:0:0:0:
232,192,65535,1,8,0:0:0:0:
232,204,66108,1,8,0:0:0:0:
232,204,67254,1,8,0:0:0:0:
232,204,67446,1,0,0:0:0:0:
232,204,67637,1,0,0:0:0:0:
232,204,68401,1,0,0:0:0:0:
232,204,69165,1,0,0:0:0:0:
232,204,69739,1,0,0:0:0:0:
232,204,70121,1,8,0:0:0:0:
232,204,70312,1,0,0:0:0:0:
232,204,70694,1,8,0:0:0:0:
232,204,71076,1,0,0:0:0:0:
232,204,71267,1,8,0:0:0:0:
232,204,72223,1,8,0:0:0:0:
232,204,72796,1,8,0:0:0:0:
232,204,73369,1,8,0:0:0:0:
232,204,73942,1,0,0:0:0:0:
232,204,74516,1,0,0:0:0:0:
232,204,74898,1,8,0:0:0:0:
232,204,75280,1,4,0:0:0:0:
