osu file format v14

[General]
AudioFilename: Main_Theme.mp3
AudioLeadIn: 0
PreviewTime: 32477
Countdown: 0
SampleSet: Normal
StackLeniency: 0.7
Mode: 1
LetterboxInBreaks: 0
WidescreenStoryboard: 1

[Editor]
Bookmarks: 1904,8019,14133,20248,26363,32477,38592,44707,50821,56936,63051,69165
DistanceSpacing: 1.6
BeatDivisor: 4
GridSize: 4
TimelineZoom: 2.1

[Metadata]
Title:Main Theme
TitleUnicode:Main Theme
Artist:Toshiki Aida, Ryosuke Asami
ArtistUnicode:俊樹アイーダ、涼介麻美
Creator:Niko-nyan
Version:Collab Oni
Source:マリオパーティ9
Tags:Mario Party opening nintendo Gero xtrem3x Hanjamon Collaboration Raiden Nwolf - Magic Bomb - 任天堂
BeatmapID:715022
BeatmapSetID:321429

[Difficulty]
HPDrainRate:6
CircleSize:4
OverallDifficulty:6
ApproachRate:8
SliderMultiplier:1.4
SliderTickRate:1

[Events]
//Background and Video events
0,0,"mp9.jpg",0,160
//Break Periods
//Storyboard Layer 0 (Background)
//Storyboard Layer 1 (Fail)
//Storyboard Layer 2 (Pass)
//Storyboard Layer 3 (Foreground)
Sprite,Foreground,Centre,"Niko.png",320,240 M,0,1522,,375,357 S,0,1522,,0.6928002 F,0,1522,1904,0.07840011,1 F,0,7637,8019,1,0 F,0,68783,69165,0,1 F,0,74898,75280,1,0
Sprite,Foreground,Centre,"Gero.png",320,240 M,0,7637,,344,375 S,0,7637,,0.6252158 F,0,7637,8019,0,1 F,0,13751,14133,1,0 F,0,32095,32477,0,1 F,0,38210,38592,1,0
Sprite,Foreground,Centre,"Nwolf.png",320,240 M,0,13751,,341,354 S,0,13751,,0.920128 F,0,13751,14133,0,1 F,0,19866,20248,1,0 F,0,25981,26363,0,1 F,0,32095,32477,1,0
Sprite,Foreground,Centre,"xtrem3x.png",320,240 M,0,19866,,319,347 S,0,19866,,0.913984 F,0,19866,20248,0,1 F,0,25981,26363,1,0 F,0,38210,38592,0,1 F,0,44325,44707,0.674368,0
Sprite,Foreground,Centre,"Hanjamon.png",320,240 M,0,44325,,323,367 S,0,44325,,0.5760639 F,0,44325,44707,0,1 F,0,56554,56936,0.8232959,0
Sprite,Foreground,Centre,"Raiden.png",320,240 M,0,56554,,313,367 S,0,56554,,0.5269122 F,0,56554,56936,0,1 F,0,68783,69165,1,0
//Storyboard Sound Samples

[TimingPoints]
376,382.165605095541,4,1,0,70,1,0
1904,-100,4,1,0,70,0,0
32477,-83.3333333333333,4,1,0,70,0,1
43178,-83.3333333333333,4,1,0,70,0,0
43751,-100,4,1,0,30,0,0
44707,-100,4,1,0,70,0,0

[HitObjects]
244,192,1904,5,0,0:0:0:0:
244,192,2095,1,0,0:0:0:0:
244,192,2286,1,8,0:0:0:0:
244,192,2477,1,0,0:0:0:0:
244,192,2860,1,8,0:0:0:0:
244,192,3051,1,0,0:0:0:0:
244,192,3433,1,8,0:0:0:0:
244,192,3624,1,8,0:0:0:0:
244,192,3815,1,0,0:0:0:0:
244,192,4006,1,8,0:0:0:0:
244,192,4388,1,0,0:0:0:0:
244,192,4579,1,8,0:0:0:0:
244,192,4675,1,0,0:0:0:0:
244,192,4770,1,0,0:0:0:0:
244,192,4866,1,0,0:0:0:0:
244,192,4961,1,8,0:0:0:0:
244,192,5153,1,0,0:0:0:0:
244,192,5344,1,0,0:0:0:0:
244,192,5535,1,8,0:0:0:0:
244,192,5726,1,0,0:0:0:0:
244,192,5917,1,0,0:0:0:0:
244,192,6108,1,8,0:0:0:0:
244,192,6299,1,0,0:0:0:0:
244,192,6395,1,0,0:0:0:0:
244,192,6490,1,8,0:0:0:0:
244,192,6681,1,0,0:0:0:0:
244,192,6777,1,0,0:0:0:0:
244,192,6872,1,8,0:0:0:0:
244,192,7063,1,8,0:0:0:0:
244,192,7254,1,0,0:0:0:0:
244,192,7446,1,0,0:0:0:0:
244,192,7541,1,0,0:0:0:0:
244,192,7637,1,8,0:0:0:0:
244,192,7732,1,0,0:0:0:0:
244,192,7828,1,8,0:0:0:0:
416,64,8019,5,12,0:0:0:0:
416,64,8210,1,0,0:0:0:0:
416,64,8401,1,0,0:0:0:0:
416,64,8592,1,8,0:0:0:0:
416,64,8974,1,8,0:0:0:0:
416,64,9165,1,0,0:0:0:0:
415,64,9356,1,8,0:0:0:0:
416,64,9452,1,8,0:0:0:0:
416,64,9547,1,0,0:0:0:0:
416,64,10121,1,0,0:0:0:0:
415,64,10503,1,8,0:0:0:0:
415,64,10598,1,8,0:0:0:0:
416,64,10694,1,0,0:0:0:0:
416,64,10885,1,0,0:0:0:0:
416,64,11076,1,8,0:0:0:0:
416,64,11267,1,0,0:0:0:0:
416,64,11458,1,0,0:0:0:0:
416,64,11649,1,8,0:0:0:0:
416,64,12032,1,8,0:0:0:0:
416,64,12223,1,0,0:0:0:0:
416,64,12414,1,8,0:0:0:0:
416,64,12509,1,8,0:0:0:0:
416,64,12605,1,0,0:0:0:0:
416,64,12796,1,8,0:0:0:0:
416,64,12987,1,0,0:0:0:0:
416,64,13178,1,8,0:0:0:0:
415,64,13274,1,8,0:0:0:0:
416,64,13369,1,0,0:0:0:0:
415,64,13656,1,8,0:0:0:0:
416,64,13751,1,0,0:0:0:0:
415,64,13942,1,8,0:0:0:0:
415,64,14038,1,8,0:0:0:0:
416,64,14133,5,0,0:0:0:0:
224,160,14325,1,0,0:0:0:0:
224,160,14516,1,0,0:0:0:0:
288,160,14707,1,8,0:0:0:0:
288,160,14802,1,8,0:0:0:0:
224,160,14898,1,0,0:0:0:0:
288,160,15089,1,8,0:0:0:0:
280,168,15280,1,8,0:0:0:0:
288,160,15471,1,8,0:0:0:0:
224,224,15662,1,4,0:0:0:0:
288,160,15853,1,8,0:0:0:0:
224,160,16044,1,0,0:0:0:0:
288,224,16235,1,12,0:0:0:0:
224,160,16618,1,0,0:0:0:0:
288,224,17191,1,12,0:0:0:0:
288,160,18146,1,8,0:0:0:0:
288,160,18337,1,8,0:0:0:0:
288,160,18528,1,8,0:0:0:0:
288,160,18624,1,8,0:0:0:0:
224,160,18719,1,0,0:0:0:0:
216,160,18911,1,0,0:0:0:0:
224,160,19102,1,0,0:0:0:0:
288,160,19293,1,8,0:0:0:0:
224,160,19484,1,0,0:0:0:0:
288,160,19675,5,8,0:0:0:0:
288,160,19866,1,8,0:0:0:0:
256,188,20248,5,12,0:0:0:0:
256,188,20439,1,0,0:0:0:0:
256,188,20630,1,0,0:0:0:0:
256,188,20821,1,8,0:0:0:0:
276,188,21204,1,2,0:0:0:0:
276,188,21395,1,0,0:0:0:0:
256,188,21586,1,2,0:0:0:0:
256,188,21681,1,2,0:0:0:0:
256,188,21777,1,2,0:0:0:0:
256,188,22159,1,0,0:0:0:0:
256,188,22350,1,2,0:0:0:0:
256,188,22732,1,2,0:0:0:0:
256,188,22828,1,2,0:0:0:0:
256,188,22923,1,2,0:0:0:0:
256,188,23114,1,2,0:0:0:0:
256,188,23305,1,8,0:0:0:0:
256,188,23497,1,0,0:0:0:0:
256,188,23688,1,0,0:0:0:0:
256,188,23879,1,8,0:0:0:0:
256,188,24261,1,0,0:0:0:0:
256,188,24452,1,8,0:0:0:0:
256,188,24643,1,8,0:0:0:0:
256,188,24739,1,8,0:0:0:0:
256,188,24834,1,8,0:0:0:0:
256,188,25025,1,0,0:0:0:0:
256,188,25216,1,0,0:0:0:0:
256,188,25407,1,8,0:0:0:0:
256,188,25503,1,8,0:0:0:0:
256,188,25598,1,0,0:0:0:0:
256,188,25885,1,8,0:0:0:0:
256,188,26172,1,8,0:0:0:0:
256,188,26267,1,8,0:0:0:0:
256,188,26363,1,8,0:0:0:0:
224,160,26554,1,0,0:0:0:0:
224,160,26745,1,0,0:0:0:0:
288,160,26936,1,8,0:0:0:0:
288,160,27032,1,8,0:0:0:0:
224,160,27127,1,0,0:0:0:0:
288,160,27318,1,8,0:0:0:0:
224,160,27509,1,0,0:0:0:0:
288,160,27700,1,8,0:0:0:0:
224,224,27891,1,4,0:0:0:0:
224,160,28083,1,0,0:0:0:0:
288,160,28274,1,8,0:0:0:0:
288,224,28465,1,12,0:0:0:0:
288,224,28847,1,12,0:0:0:0:
224,160,29229,1,0,0:0:0:0:
288,224,29420,1,12,0:0:0:0:
288,160,29993,1,8,0:0:0:0:
288,160,30089,1,8,0:0:0:0:
288,160,30184,1,8,0:0:0:0:
224,160,30567,1,0,0:0:0:0:
288,224,30949,1,12,0:0:0:0:
224,160,31522,1,0,0:0:0:0:
224,160,31713,1,8,0:0:0:0:
224,160,31904,1,0,0:0:0:0:
224,160,32095,1,8,0:0:0:0:
224,160,32191,1,0,0:0:0:0:
224,160,32286,1,8,0:0:0:0:
416,64,32477,5,4,0:0:0:0:
416,64,32668,1,8,0:0:0:0:
416,64,32764,1,8,0:0:0:0:
416,64,32860,1,0,0:0:0:0:
416,64,33051,1,8,0:0:0:0:
416,64,33242,1,0,0:0:0:0:
416,64,33337,1,0,0:0:0:0:
416,64,33433,1,8,0:0:0:0:
416,64,33624,1,0,0:0:0:0:
416,64,33815,1,8,0:0:0:0:
416,64,33911,1,8,0:0:0:0:
416,64,34006,1,0,0:0:0:0:
416,64,34197,1,8,0:0:0:0:
416,64,34388,1,0,0:0:0:0:
416,64,34484,1,0,0:0:0:0:
416,64,34579,1,8,0:0:0:0:
416,64,34770,1,0,0:0:0:0:
416,64,34961,1,8,0:0:0:0:
416,64,35057,1,8,0:0:0:0:
416,64,35153,1,0,0:0:0:0:
416,64,35248,1,0,0:0:0:0:
416,64,35344,1,8,0:0:0:0:
416,64,35535,1,0,0:0:0:0:
416,64,35726,1,8,0:0:0:0:
416,64,35917,1,0,0:0:0:0:
416,64,36012,1,0,0:0:0:0:
416,64,36108,1,8,0:0:0:0:
416,64,36204,1,8,0:0:0:0:
416,64,36299,1,0,0:0:0:0:
416,64,36490,1,8,0:0:0:0:
416,64,36681,1,0,0:0:0:0:
416,64,36872,1,8,0:0:0:0:
416,64,36967,1,8,0:0:0:0:
416,64,37063,1,0,0:0:0:0:
416,64,37254,1,8,0:0:0:0:
416,64,37446,1,0,0:0:0:0:
416,64,37541,1,8,0:0:0:0:
416,64,37637,1,0,0:0:0:0:
416,64,37732,1,0,0:0:0:0:
415,64,37828,1,8,0:0:0:0:
416,64,38019,1,8,0:0:0:0:
416,64,38114,1,8,0:0:0:0:
416,64,38210,1,0,0:0:0:0:
416,64,38305,1,8,0:0:0:0:
416,64,38401,1,0,0:0:0:0:
416,64,38592,5,4,0:0:0:0:
256,192,38783,1,0,0:0:0:0:
256,192,38974,1,8,0:0:0:0:
256,192,39165,1,0,0:0:0:0:
256,192,39261,1,0,0:0:0:0:
256,192,39356,1,8,0:0:0:0:
256,192,39547,1,8,0:0:0:0:
256,192,39739,1,8,0:0:0:0:
256,192,39930,1,0,0:0:0:0:
256,192,40025,1,0,0:0:0:0:
256,192,40121,1,8,0:0:0:0:
256,192,40312,1,0,0:0:0:0:
256,192,40503,1,8,0:0:0:0:
256,192,40694,1,8,0:0:0:0:
256,192,40885,1,0,0:0:0:0:
256,192,40981,1,2,0:0:0:0:
256,192,41076,1,2,0:0:0:0:
256,192,41172,1,0,0:0:0:0:
256,192,41267,1,2,0:0:0:0:
256,192,41363,1,2,0:0:0:0:
256,192,41458,1,0,0:0:0:0:
256,192,41649,1,12,0:0:0:0:
256,192,41840,1,4,0:0:0:0:
256,192,42223,1,4,0:0:0:0:
256,192,42605,1,4,0:0:0:0:
256,192,42796,1,12,0:0:0:0:
256,192,43178,1,8,0:0:0:0:
256,192,43815,1,8,0:0:0:0:
256,192,43879,1,8,0:0:0:0:
260,196,43942,1,8,0:0:0:0:
340,160,44707,5,4,0:0:0:0:
236,212,44898,1,0,0:0:0:0:
300,232,44993,1,0,0:0:0:0:
340,160,45089,1,8,0:0:0:0:
232,212,45280,1,8,0:0:0:0:
436,116,45662,1,0,0:0:0:0:
340,160,45853,1,8,0:0:0:0:
232,212,46044,1,0,0:0:0:0:
288,184,46140,1,0,0:0:0:0:
340,164,46235,1,8,0:0:0:0:
152,308,46618,1,0,0:0:0:0:
244,240,46809,1,8,0:0:0:0:
420,100,47191,1,0,0:0:0:0:
380,132,47286,1,0,0:0:0:0:
352,152,47382,1,8,0:0:0:0:
272,216,47573,1,8,0:0:0:0:
356,152,47764,1,4,0:0:0:0:
272,216,47955,1,0,0:0:0:0:
280,272,48051,1,8,0:0:0:0:
356,152,48146,1,8,0:0:0:0:
268,216,48337,1,0,0:0:0:0:
452,88,48719,1,8,0:0:0:0:
396,188,48911,1,0,0:0:0:0:
264,220,49102,1,8,0:0:0:0:
308,188,49197,1,8,0:0:0:0:
348,220,49293,1,8,0:0:0:0:
372,256,49961,1,8,0:0:0:0:
348,232,50057,1,0,0:0:0:0:
212,108,50344,1,8,0:0:0:0:
344,232,50630,1,8,0:0:0:0:
300,192,50726,1,8,0:0:0:0:
504,384,50821,1,0,0:0:0:0:
132,172,51012,1,8,0:0:0:0:
248,160,51204,1,0,0:0:0:0:
180,164,51299,1,0,0:0:0:0:
128,168,51395,1,0,0:0:0:0:
236,160,51490,1,0,0:0:0:0:
236,160,51586,1,8,0:0:0:0:
236,160,51777,1,8,0:0:0:0:
236,160,51968,1,0,0:0:0:0:
236,160,52159,1,0,0:0:0:0:
236,160,52254,1,8,0:0:0:0:
236,160,52350,1,8,0:0:0:0:
236,160,52541,1,8,0:0:0:0:
236,160,52732,1,0,0:0:0:0:
236,160,52828,1,0,0:0:0:0:
236,160,52923,1,8,0:0:0:0:
236,160,53305,1,8,0:0:0:0:
236,160,53688,1,8,0:0:0:0:
236,160,53783,5,0,0:0:0:0:
236,160,53879,1,8,0:0:0:0:
236,160,54070,1,0,0:0:0:0:
236,160,54261,1,8,0:0:0:0:
236,160,54356,1,0,0:0:0:0:
236,160,54452,1,8,0:0:0:0:
236,160,54547,1,8,0:0:0:0:
236,160,54643,1,0,0:0:0:0:
236,160,55025,1,0,0:0:0:0:
236,160,55216,1,0,0:0:0:0:
236,160,55407,1,12,0:0:0:0:
420,292,55790,1,0,0:0:0:0:
328,228,55981,1,0,0:0:0:0:
284,208,56076,1,0,0:0:0:0:
328,228,56172,1,8,0:0:0:0:
328,228,56363,5,8,0:0:0:0:
328,228,56554,1,0,0:0:0:0:
328,228,56649,1,0,0:0:0:0:
328,228,56745,1,0,0:0:0:0:
328,228,56840,1,0,0:0:0:0:
328,228,56936,5,8,0:0:0:0:
324,280,57127,5,0,0:0:0:0:
324,280,57318,1,0,0:0:0:0:
324,280,57509,1,8,0:0:0:0:
268,272,57891,1,0,0:0:0:0:
256,296,58083,1,8,0:0:0:0:
248,312,58274,1,8,0:0:0:0:
248,312,58369,1,8,0:0:0:0:
248,312,58465,1,0,0:0:0:0:
264,312,58656,1,8,0:0:0:0:
264,312,58847,1,0,0:0:0:0:
268,332,59038,1,8,0:0:0:0:
268,332,59420,1,0,0:0:0:0:
208,240,59611,1,8,0:0:0:0:
224,248,59802,1,0,0:0:0:0:
204,276,59898,1,0,0:0:0:0:
224,248,59993,1,8,0:0:0:0:
220,288,60375,1,0,0:0:0:0:
216,308,60567,1,8,0:0:0:0:
188,300,60662,1,0,0:0:0:0:
188,300,60758,1,0,0:0:0:0:
216,296,61140,1,0,0:0:0:0:
208,296,61331,1,0,0:0:0:0:
216,296,61522,1,8,0:0:0:0:
256,192,61713,12,8,62860,0:0:0:0:
200,244,63051,5,8,0:0:0:0:
216,284,63242,1,8,0:0:0:0:
240,264,63337,1,8,0:0:0:0:
216,284,63433,1,8,0:0:0:0:
216,284,63624,1,8,0:0:0:0:
188,216,64006,1,0,0:0:0:0:
196,284,64197,1,8,0:0:0:0:
196,284,64388,1,0,0:0:0:0:
204,224,64579,1,0,0:0:0:0:
272,252,64675,1,0,0:0:0:0:
204,228,64770,1,8,0:0:0:0:
204,228,64961,1,8,0:0:0:0:
204,228,65153,1,8,0:0:0:0:
220,268,65535,1,8,0:0:0:0:
232,280,65917,1,8,0:0:0:0:
232,280,66108,1,0,0:0:0:0:
172,204,67254,1,8,0:0:0:0:
172,204,67446,1,0,0:0:0:0:
172,204,67637,1,0,0:0:0:0:
176,208,68401,1,0,0:0:0:0:
212,180,69165,5,0,0:0:0:0:
212,180,69356,1,0,0:0:0:0:
212,180,69547,1,8,0:0:0:0:
212,180,69739,1,0,0:0:0:0:
212,180,70121,1,8,0:0:0:0:
212,180,70312,1,0,0:0:0:0:
212,180,70694,1,8,0:0:0:0:
212,180,70885,1,8,0:0:0:0:
212,180,71076,1,0,0:0:0:0:
212,180,71267,1,8,0:0:0:0:
212,180,71649,1,0,0:0:0:0:
212,180,71840,1,8,0:0:0:0:
212,180,71936,1,0,0:0:0:0:
216,184,72032,1,0,0:0:0:0:
212,180,72127,1,0,0:0:0:0:
212,180,72223,1,8,0:0:0:0:
212,180,72414,1,0,0:0:0:0:
212,180,72605,1,0,0:0:0:0:
212,180,72796,1,8,0:0:0:0:
212,180,72987,1,0,0:0:0:0:
212,180,73178,1,0,0:0:0:0:
212,180,73369,1,8,0:0:0:0:
212,180,73560,1,0,0:0:0:0:
204,184,73656,1,0,0:0:0:0:
212,180,73751,1,8,0:0:0:0:
212,180,73942,1,0,0:0:0:0:
204,184,74038,1,0,0:0:0:0:
212,180,74133,1,8,0:0:0:0:
212,180,74325,1,8,0:0:0:0:
212,180,74516,1,0,0:0:0:0:
204,184,74707,1,0,0:0:0:0:
204,184,74802,1,0,0:0:0:0:
212,180,74898,1,8,0:0:0:0:
204,184,74993,1,0,0:0:0:0:
204,184,75089,1,8,0:0:0:0:
212,180,75280,1,4,0:0:0:0:
