osu file format v9

[General]
AudioFilename: 27 - Tsuna Awakes.mp3
AudioLeadIn: 3000
PreviewTime: 23356
Countdown: 0
SampleSet: Normal
StackLeniency: 0.7
Mode: 0
LetterboxInBreaks: 1

[Editor]
Bookmarks: 5184,14597,24009,33422,42835,47541,56954,66366,75779,85192,92251
DistanceSpacing: 1
BeatDivisor: 4
GridSize: 8

[Metadata]
Title:Tsuna Awakens
Artist:Toshihiko Sahashi
Creator:YGOkid8
Version:Normal
Source:Katekyo Hitman REBORN!
Tags:akira amano kateikyoushi home tutor khr ost original soundtrack mafia awakes kakusei

[Difficulty]
HPDrainRate:3
CircleSize:3
OverallDifficulty:4
ApproachRate:5
SliderMultiplier:2.1
SliderTickRate:2

[Events]
//Background and Video events
0,0,"Katekyo-Hitman-Reborn-Wallpapers-100.jpg"
//Break Periods
2,43035,43988
2,85392,86345
//Storyboard Layer 0 (Background)
//Storyboard Layer 1 (Fail)
//Storyboard Layer 2 (Pass)
//Storyboard Layer 3 (Foreground)
//Storyboard Sound Samples
//Background Colour Transformations
3,100,163,162,255

[TimingPoints]
478,588.29296989901,4,1,0,50,1,0
625,-100,4,1,1,25,0,0
2684,-100,4,1,1,50,0,0
2978,-100,4,1,0,25,0,0
4743,-100,4,1,0,50,0,0
24009,-100,4,1,0,50,0,1
42835,-100,4,1,0,50,0,0
66366,-100,4,1,0,50,0,1
85192,-100,4,1,0,50,0,0
89898,-100,4,1,0,50,0,1
92251,-100,4,1,0,50,0,0

[Colours]
Combo1 : 232,111,21
Combo2 : 210,49,49
Combo3 : 153,123,83
Combo4 : 207,184,48
Combo5 : 80,134,163

[HitObjects]
336,32,478,2,0,B|440:56|496:192|440:328|336:352,1,420,4|0
200,192,2242,1,0
256,280,2537,1,0
176,352,2831,6,0,B|72:328|16:192|72:56|176:32,1,420,4|0
312,192,4596,1,0
256,104,4891,1,0
336,40,5184,6,0,B|424:32|464:104|448:192,1,210,4|8
432,280,6066,1,0
360,360,6360,2,0,B|312:336|256:352,2,105,0|0|8
360,360,7243,1,0
336,256,7537,6,0,B|319:205|268:176,1,105
280,72,8125,2,0,B|248:192|104:184,1,210,8|0
24,160,9008,1,0
24,160,9302,1,8
0,264,9596,2,0,B|48:360,1,105,0|4
240,272,10478,5,8
336,320,10773,1,0
440,296,11067,2,0,B|528:216|464:104,1,210,0|8
384,40,11949,1,0
320,120,12243,6,0,B|240:208|128:144,1,210,0|8
112,40,13126,1,0
208,72,13420,2,0,B|296:152|232:264,2,210,0|8|4
48,208,15185,5,8
88,304,15479,1,0
176,360,15773,2,0,B|288:416|392:352,1,210,0|8
448,288,16656,1,0
480,184,16950,6,0,B|488:128|448:88,1,105
352,40,17538,2,0,B|296:32|256:72,1,105,8|0
216,168,18126,2,0,B|208:224|248:264,1,105
344,312,18714,2,0,B|400:320|440:280,1,105,8|0
376,192,19303,5,4
232,40,19891,2,0,B|184:88|104:72,1,105,8|0
40,40,20479,1,0
40,40,20774,1,0
0,136,21068,2,0,B|32:248,1,105,8|0
112,304,21656,1,4
256,192,21803,12,6,24009
256,288,24598,5,8
164,100,25186,2,2,B|200:56|256:44|312:56|348:100,1,210,2|8
408,192,26068,1,2
304,192,26362,5,2
164,348,26951,2,0,B|200:304|256:292|312:304|348:348,1,210,10|2
448,304,27833,1,2
464,200,28127,1,10
464,200,28421,2,0,B|424:88,1,105,2|6
224,40,29304,6,0,B|161:147|31:119,1,210,8|2
16,328,30480,1,8
96,264,30775,1,2
192,304,31069,6,2,B|311:336|384:223,1,210,2|10
408,136,31951,1,0
312,96,32245,2,0,B|192:64|120:176,2,210,2|10|6
416,280,34010,5,8
416,280,34304,1,2
416,280,34598,2,2,B|352:344|288:216|224:280,1,210,2|8
144,352,35481,1,2
64,288,35775,6,0,B|0:184|96:88,1,210,2|10
288,40,36952,1,2
328,136,37246,1,2
424,88,37540,1,10
424,88,37834,2,0,B|488:120|496:208,1,105,2|6
496,272,38422,5,0
432,352,38717,2,0,B|336:288|216:336,1,210,8|2
128,296,39599,1,0
56,224,39893,2,0,B|40:96,1,105,8|2
112,40,40481,5,6
288,152,41070,1,6
376,104,41364,1,0
448,176,41658,1,6
392,376,42246,2,0,B|288:360,1,105,6|0
224,272,42835,1,6
256,192,45188,5,6
256,192,45335,12,4,47541
144,80,48129,6,0,B|80:176|152:288,1,210,8|0
224,344,49012,1,0
328,352,49306,1,8
424,304,49600,2,0,B|456:200,1,105
408,112,50188,1,0
336,184,50482,6,0,B|256:280|136:216,1,210,8|0
80,144,51365,1,0
184,120,51659,2,0,B|280:200|216:320,1,210,8|4
432,352,52836,5,8
496,272,53130,1,0
432,192,53424,2,0,B|448:80,2,105,0|0|8
328,216,54306,1,0
248,144,54600,6,0,B|136:104|40:200,1,210,0|8
16,288,55483,1,0
96,360,55777,2,0,B|208:400|304:304,1,210,0|8
344,112,56954,5,6
136,72,57542,1,10
192,160,57836,1,0
136,248,58130,2,2,B|176:352,1,105,2|0
272,312,58719,1,10
352,376,59013,2,0,B|408:352|424:296,1,105,0|2
448,200,59601,5,0
432,96,59895,2,2,B|376:0|240:8,2,210,10|2|10
336,288,61660,5,6
200,128,62248,1,10
120,192,62542,1,0
16,176,62837,2,2,B|32:288,1,105,2|0
112,344,63425,1,10
216,320,63719,1,0
216,320,64013,1,6
256,192,64160,12,6,66366
256,96,66955,5,8
348,284,67543,2,2,B|312:328|256:340|200:328|164:284,1,210,2|8
104,192,68425,1,2
208,192,68719,5,2
348,36,69308,2,0,B|312:80|256:92|200:80|164:36,1,210,10|2
64,80,70190,1,2
48,184,70484,1,10
48,184,70778,2,0,B|88:296,1,105,2|6
288,344,71661,6,0,B|351:237|481:265,1,210,8|2
496,56,72837,1,8
416,120,73132,1,2
320,80,73426,6,2,B|201:48|128:161,1,210,2|10
104,248,74308,1,0
200,288,74602,2,0,B|320:320|392:208,2,210,2|10|6
96,104,76367,5,8
96,104,76661,1,2
96,104,76955,2,2,B|160:40|224:168|288:104,1,210,2|8
368,32,77838,1,2
448,96,78132,6,0,B|512:200|416:296,1,210,2|10
224,344,79309,1,2
184,248,79603,1,2
88,296,79897,1,10
88,296,80191,2,0,B|24:264|16:176,1,105,2|6
16,112,80779,5,0
80,32,81074,2,0,B|176:96|296:48,1,210,8|2
384,88,81956,1,0
456,160,82250,2,0,B|472:288,1,105,8|2
400,344,82838,5,6
224,232,83427,1,6
136,280,83721,1,0
64,208,84015,1,6
120,8,84603,2,0,B|224:24,1,105,6|0
288,112,85192,1,6
256,192,87545,5,6
256,192,87692,12,6,89898
304,64,90486,5,6
336,168,90780,1,0
432,136,91075,1,6
208,320,91663,5,4
176,216,91957,1,2
80,248,92252,1,6
