osu file format v9

[General]
AudioFilename: 27 - Tsuna Awakes.mp3
AudioLeadIn: 3000
PreviewTime: 23356
Countdown: 0
SampleSet: Normal
StackLeniency: 0.7
Mode: 0
LetterboxInBreaks: 1

[Editor]
Bookmarks: 478,5184,14597,24009,33422,42835,47541,56954,66366,75779,85192,92251
DistanceSpacing: 1
BeatDivisor: 4
GridSize: 4

[Metadata]
Title:Tsuna Awakens
Artist:Toshihiko Sahashi
Creator:YGOkid8
Version:Insane
Source:Katekyo Hitman REBORN!
Tags:akira amano kateikyoushi home tutor khr ost original soundtrack mafia awakes kakusei

[Difficulty]
HPDrainRate:6
CircleSize:4
OverallDifficulty:7
ApproachRate:8
SliderMultiplier:3.2
SliderTickRate:2

[Events]
//Background and Video events
0,0,"Katekyo-Hitman-Reborn-Wallpapers-100.jpg"
//Break Periods
2,43035,44144
//Storyboard Layer 0 (Background)
//Storyboard Layer 1 (Fail)
//Storyboard Layer 2 (Pass)
//Storyboard Layer 3 (Foreground)
//Storyboard Sound Samples
//Background Colour Transformations
3,100,163,162,255

[TimingPoints]
478,588.29296989901,4,1,0,50,1,0
625,-100,4,1,0,0,0,0
2757,-100,4,1,0,50,0,0
2978,-100,4,1,0,0,0,0
4816,-100,4,1,0,50,0,0
24009,-100,4,1,0,50,0,1
42835,-100,4,1,0,50,0,0
56954,-80,4,1,0,50,0,0
66366,-66.6666666666667,4,1,0,50,0,1
85192,-100,4,1,0,50,0,0
85339,-100,4,1,0,30,0,0
85927,-100,4,1,0,35,0,0
86515,-100,4,1,0,40,0,0
87104,-100,4,1,0,45,0,0
87692,-100,4,1,0,50,0,0
89898,-100,4,1,0,50,0,1
92251,-100,4,1,0,50,0,0

[Colours]
Combo1 : 232,111,21
Combo2 : 210,49,49
Combo3 : 153,123,83
Combo4 : 207,184,48
Combo5 : 80,134,163

[HitObjects]
256,192,478,1,4
256,192,625,12,0,2684
256,192,2831,5,4
256,192,2978,12,0,4743
108,44,4890,5,0
117,124,5037,1,0
157,196,5184,2,0,B|205:276|325:260,1,160,4|0
359,220,5625,1,0
359,220,5772,2,0,B|279:268|295:388,1,160,8|0
216,384,6213,1,0
216,384,6360,2,0,B|125:406|51:310,1,160
40,264,6802,1,0
40,264,6949,1,8
80,112,7243,5,0
128,176,7390,1,0
184,120,7537,2,0,B|256:72|344:104,1,160
392,40,7978,1,0
392,40,8125,2,0,B|344:112|376:200,1,160,8|0
408,264,8567,1,0
408,264,8714,2,0,B|336:216|248:248,1,160
184,280,9155,1,0
184,280,9302,1,8
120,48,9596,5,0
120,48,9743,1,0
120,48,9890,2,0,B|88:136|160:208,1,160,4|0
232,184,10331,1,0
192,112,10478,2,0,B|104:79|32:152,1,160,8|0
0,208,10920,1,0
40,280,11067,2,0,B|128:312|200:240,1,160
232,184,11508,1,0
232,184,11655,1,8
368,104,11949,5,0
336,176,12096,1,0
384,240,12243,1,0
144,280,12538,5,0
176,208,12685,1,0
128,144,12832,1,8
256,32,13126,5,0
256,112,13273,1,0
256,192,13420,1,0
336,328,13714,2,0,B|256:360|176:328,2,160,0|8|0
408,296,14449,1,0
464,232,14597,6,0,B|432:152|344:136,1,160,4|0
336,56,15038,1,0
408,88,15185,2,0,B|376:168|288:184,1,160,8|0
208,184,15626,1,0
152,128,15773,2,0,B|64:128|16:200,1,160
0,280,16214,1,0
0,280,16361,1,8
136,368,16656,5,0
136,368,16803,1,0
136,368,16950,2,0,B|192:296|296:304,1,160
328,360,17391,1,0
248,384,17538,2,0,B|236:293|315:225,1,160,8|0
368,192,17979,1,0
448,168,18126,2,0,B|459:258|380:326,1,160
328,360,18568,1,0
328,360,18715,1,8
256,128,19009,5,0
256,128,19156,1,0
256,128,19303,2,0,B|168:128|104:192,1,160,4|0
48,136,19744,1,0
48,136,19891,2,0,B|110:198|110:288,1,160,8|0
56,336,20332,1,0
56,336,20479,2,0,B|118:273|208:273,1,160
256,328,20921,1,0
256,328,21068,1,8
336,104,21362,5,0
432,168,21509,1,0
360,264,21656,1,4
256,192,21803,12,8,23421
200,152,23862,5,0
200,152,24009,2,2,B|144:88|56:96,2,160,6|0|8
312,264,24892,1,2
312,264,25039,1,2
312,264,25186,2,2,B|368:200|456:208,2,160,2|0|8
160,304,26068,5,2
160,304,26215,1,2
72,248,26362,2,2,B|88:208|136:200,1,80,2|0
160,304,26657,1,0
160,304,26804,1,0
232,336,26951,2,2,B|216:376|168:384,1,80,10|0
160,304,27245,1,0
160,304,27392,1,0
152,224,27539,6,2,B|168:184|216:168,1,80,2|0
288,200,27833,2,2,B|272:240|224:256,1,80,2|0
272,120,28127,2,2,B|288:80|336:64,1,80,10|0
408,96,28421,2,2,B|392:136|344:152,1,80,2|0
392,16,28716,6,2,B|488:16|512:128,2,160,6|0|8
272,120,29598,1,2
272,120,29745,1,2
272,120,29892,2,2,B|176:120|152:232,2,160,2|0|8
344,264,30775,1,2
344,264,30922,1,2
376,336,31069,6,2,B|336:352|296:344,1,80,2|0
224,320,31363,1,2
160,272,31510,1,2
120,208,31657,1,10
256,128,31951,1,2
256,128,32098,1,2
224,56,32245,6,2,B|264:40|304:48,1,80,2|0
376,72,32539,1,2
440,120,32687,1,2
480,184,32834,1,10
440,296,32981,5,8
368,200,33128,1,0
312,304,33275,1,0
240,208,33422,6,2,B|176:272|88:248,2,160,6|0|8
304,64,34304,1,2
304,64,34451,1,2
304,64,34598,2,2,B|368:128|456:104,2,160,2|0|8
152,120,35481,5,2
152,120,35628,1,2
104,184,35775,2,2,B|64:168|56:120,1,80,2|0
152,120,36069,1,0
152,120,36216,1,0
184,48,36363,2,2,B|224:64|232:112,1,80,10|0
152,120,36658,1,0
152,120,36805,1,0
176,240,36952,6,2,B|168:288|200:320,1,80,2|0
312,344,37246,2,2,B|320:296|288:264,1,80,2|0
232,120,37540,2,2,B|224:168|256:200,1,80,10|0
368,224,37834,2,2,B|376:176|344:144,1,80,2|0
288,0,38128,6,2,B|344:56|440:48,2,160,6|0|8
160,96,39011,1,2
160,96,39158,1,2
160,96,39305,2,2,B|104:152|8:144,2,160,2|0|8
296,160,40187,1,2
296,160,40334,1,2
352,104,40481,6,2,B|392:120|400:168,1,80,6|2
392,248,40776,1,2
352,320,40923,1,2
280,352,41070,2,0,B|192:368|128:312,1,160,6|2
88,248,41511,1,2
72,168,41658,6,2,B|80:120|120:96,1,80,6|0
184,64,41952,1,0
264,56,42099,1,0
328,104,42246,2,2,B|348:148|328:190,1,80,6|0
293,252,42540,1,0
215,266,42688,1,0
215,266,42835,1,6
256,112,44894,5,2
256,192,45041,1,2
256,272,45188,1,6
256,192,45335,12,8,46953
72,96,47247,5,0
128,152,47394,1,0
192,104,47541,2,0,B|280:104|328:184,1,160,4|0
296,256,47982,1,0
248,192,48129,2,0,B|310:129|400:152,1,160,8|0
464,184,48570,1,0
512,248,48718,2,0,B|449:310|359:287,1,160
296,256,49159,1,0
296,256,49306,1,8
184,368,49600,5,0
112,328,49747,1,0
72,256,49894,2,0,B|40:168|104:104,1,160
32,72,50335,1,0
32,72,50482,2,0,B|120:104|184:40,1,160,8|0
256,24,50924,1,0
320,72,51071,2,0,B|352:160|288:224,1,160
232,272,51512,1,0
232,272,51659,1,8
440,152,51953,5,0
408,224,52100,1,0
352,168,52247,2,0,B|280:120|192:144,1,160,4|0
128,176,52689,1,0
112,256,52836,2,0,B|184:304|272:280,1,160,8|0
336,248,53277,1,0
352,168,53424,2,0,B|436:184|482:264,1,160
504,332,53865,1,0
504,332,54012,1,8
344,352,54306,5,0
304,280,54453,1,0
336,204,54600,1,0
168,32,54895,5,0
208,104,55042,1,0
176,180,55189,1,8
304,80,55483,5,0
304,80,55630,1,0
376,40,55777,1,0
456,56,55924,1,8
512,112,56071,2,0,B|544:192|472:272,1,160,0|8
256,344,56659,5,0
256,344,56807,1,0
256,344,56954,2,0,B|192:256|72:272,1,199.999997019768,6|2
16,352,57395,1,0
112,376,57542,2,0,B|200:312|184:192,1,199.999997019768,10|2
128,120,57983,1,0
128,120,58130,2,2,B|192:208|312:192,1,199.999997019768,2|0
392,152,58571,1,0
392,152,58719,1,10
224,40,59013,5,0
224,40,59160,1,0
224,40,59307,2,0,B|272:136|192:240,1,199.999997019768,2|2
112,272,59748,1,0
112,272,59895,2,0,B|208:224|312:304,1,199.999997019768,10|2
376,360,60336,1,0
472,320,60483,2,2,B|520:224|440:120,1,199.999997019768,2|0
384,56,60925,1,0
384,56,61072,1,10
192,288,61366,5,0
192,288,61513,1,0
192,288,61660,2,0,B|72:272|56:160,1,199.999997019768,6|2
48,64,62101,1,0
140,24,62248,2,0,B|260:40|276:152,1,199.999997019768,10|2
280,248,62689,1,0
352,320,62837,2,2,B|472:304|488:192,1,199.999997019768,2|0
496,96,63278,1,0
496,96,63425,1,10
304,32,63719,5,0
192,128,63866,1,0
280,248,64013,1,6
256,192,64160,12,2,65778
168,64,65925,5,0
168,64,66072,1,2
168,64,66219,1,0
168,64,66366,2,2,B|304:24|400:128,2,239.999992847443,6|0|8
352,216,67249,1,2
352,216,67396,1,2
352,216,67543,2,2,B|216:176|120:280,2,239.999992847443,2|0|8
120,152,68425,5,2
120,152,68572,1,2
152,40,68719,2,2,B|216:56|240:128,1,119.999996423721,2|0
120,152,69014,1,0
120,152,69161,1,0
88,264,69308,2,2,B|24:248|0:176,1,119.999996423721,10|0
120,152,69602,1,0
120,152,69749,1,0
160,264,69896,6,2,B|224:248|248:176,1,119.999996423721,2|0
320,96,70190,2,2,B|353:152|320:220,1,119.999996423721,2|0
320,328,70484,2,2,B|384:312|408:240,1,119.999996423721,10|0
480,160,70779,2,2,B|513:216|480:284,1,119.999996423721,2|0
424,384,71073,6,2,B|336:288|192:320,2,239.999992847443,6|0|8
288,184,71955,1,2
288,184,72102,1,2
288,184,72249,2,2,B|376:88|520:120,2,239.999992847443,2|0|8
96,40,73132,1,2
96,40,73279,1,2
0,112,73426,6,2,B|-24:192|40:264,1,119.999996423721,2|0
88,320,73720,1,2
208,344,73867,1,2
320,304,74014,1,10
472,120,74308,1,2
472,120,74455,1,2
400,24,74602,6,2,B|320:0|248:64,1,119.999996423721,2|0
192,112,74897,1,2
168,232,75044,1,2
208,344,75191,1,10
328,376,75338,1,8
432,320,75485,1,0
464,208,75632,1,0
400,104,75779,6,2,B|264:160|144:40,2,239.999992847443,6|0|8
208,304,76661,1,2
208,304,76809,1,2
208,304,76956,2,2,B|344:360|464:240,2,239.999992847443,2|0|8
0,184,77838,1,2
0,184,77985,1,2
56,80,78132,6,2,B|97:28|172:37,1,119.999996423721,2|0
143,156,78426,1,0
143,156,78573,1,0
231,232,78720,2,2,B|189:283|114:274,1,119.999996423721,10|0
143,156,79015,1,0
143,156,79162,1,0
256,120,79309,6,2,B|323:97|391:142,1,119.999996423721,2|0
432,32,79603,2,2,B|496:64|512:144,1,119.999996423721,2|0
512,240,79897,2,2,B|444:262|376:217,1,119.999996423721,10|0
336,328,80191,2,2,B|271:296|256:216,1,119.999996423721,2|0
256,120,80485,6,2,B|168:24|16:56,2,239.999992847443,6|0|8
72,280,81368,1,2
72,280,81515,1,2
72,280,81662,2,2,B|160:184|312:216,2,239.999992847443,2|0|8
288,384,82544,1,2
288,384,82691,1,2
400,336,82839,6,2,B|453:288|458:212,1,119.999996423721,6|2
440,112,83133,1,2
352,24,83280,1,2
232,8,83427,2,2,B|80:24|48:176,1,239.999992847443,6|2
64,264,83868,1,2
144,352,84015,6,2,B|208:384|272:344,1,119.999996423721,6|0
352,272,84309,1,0
368,152,84456,1,0
280,72,84603,2,2,B|208:56|136:104,1,119.999996423721,6|0
80,176,84898,1,0
48,288,85045,1,0
48,288,85192,1,6
192,352,85486,5,0
192,352,85633,1,0
192,352,85780,1,0
288,224,86074,1,0
288,224,86221,1,0
288,224,86368,1,0
192,96,86662,1,0
192,96,86809,1,0
192,96,86956,1,0
32,128,87251,1,2
32,128,87398,1,2
32,128,87545,1,6
256,192,87692,12,0,89310
384,80,89604,5,2
344,192,89751,1,2
432,272,89898,1,6
128,304,90192,5,0
168,192,90339,1,0
80,112,90486,1,6
256,272,90780,5,0
344,192,90928,1,0
432,272,91075,1,6
256,112,91369,5,0
168,192,91516,1,0
80,112,91663,1,4
256,272,91957,5,2
256,272,92104,1,2
256,272,92251,1,6
