osu file format v6

[General]
AudioFilename: Tsuna Awakes.mp3
AudioLeadIn: 1004
PreviewTime: -1
Countdown: 0
SampleSet: None
StackLeniency: 0.7
Mode: 0
LetterboxInBreaks: 1

[Editor]
DistanceSpacing: 0.800000011920929
BeatDivisor: 3
GridSize: 32

[Metadata]
Title:Tsuna Awakens
Artist:Toshihiko Sahashi
Creator:PitchDarkEdge
Version:Hard
Source:Kateikyoushi Hitman Reborn
Tags:reborn tsuna anime awakens hitman epic music japan sawada tsunayoshi awesome

[Difficulty]
HPDrainRate:4
CircleSize:6
OverallDifficulty:6
SliderMultiplier:1.4
SliderTickRate:1

[Events]
//Background and Video events
0,0,"Tsuna Pic.jpg"
//Break Periods
2,42930,46158
2,85301,88480
//Storyboard Layer 0 (Background)
//Storyboard Layer 1 (Fail)
//Storyboard Layer 2 (Pass)
//Storyboard Layer 3 (Foreground)
//Storyboard Sound Samples
//Background Colour Transformations
3,100,0,128,255

[TimingPoints]
4934.15492957746,144.445070422535,4,0,0,100,1,0

[HitObjects]
34,37,4886,1,0
54,97,5030,1,0
93,40,5174,1,0
137,84,5415,1,0
137,84,5560,1,0
137,84,5704,1,0
192,119,6041,1,0
213,75,6186,1,0
226,107,6330,1,0
289,92,6571,1,0
289,92,6715,1,0
289,92,6860,1,0
371,124,7148,5,0
394,171,7293,1,0
378,197,7437,1,0
322,266,7726,1,0
322,266,7871,1,0
322,266,8015,1,0
251,273,8352,1,0
227,237,8497,1,0
204,255,8641,1,0
139,257,8930,1,0
139,257,9074,1,0
139,257,9219,1,0
138,185,9556,5,0
154,117,9700,1,0
127,104,9845,1,0
206,69,10134,1,0
206,69,10278,1,0
206,69,10423,1,0
286,69,10711,1,0
338,57,10856,1,0
356,94,11000,1,0
358,160,11289,1,0
358,160,11434,1,0
358,160,11578,1,0
349,226,11867,5,0
370,258,12011,1,0
346,283,12156,1,0
274,272,12445,1,0
274,272,12589,1,0
274,272,12734,1,0
214,295,13023,1,0
182,224,13167,1,0
155,294,13311,1,0
458,77,14274,5,0
436,36,14419,1,0
408,57,14563,1,0
354,53,14804,1,0
354,53,14949,1,0
354,53,15093,1,0
286,73,15382,1,0
255,39,15526,1,0
232,55,15671,1,0
167,49,15960,1,0
167,49,16104,1,0
167,49,16249,1,0
114,92,16586,5,0
90,106,16730,1,0
91,131,16874,1,0
35,181,17163,1,0
35,181,17308,1,0
35,181,17452,1,0
27,257,17741,1,0
28,301,17886,1,0
85,276,18030,1,0
151,275,18319,1,0
151,275,18463,1,0
151,275,18608,1,0
218,301,18897,5,0
248,266,19041,1,0
270,294,19186,1,0
331,286,19523,1,0
331,286,19667,1,0
331,286,19811,1,0
423,304,20149,1,0
452,276,20293,1,0
444,239,20437,1,0
401,171,20678,1,0
401,171,20823,1,0
401,171,20967,1,0
381,116,21256,1,0
374,68,21400,1,0
256,192,21545,12,0,23952
316,192,24867,5,0
315,137,25012,1,0
249,167,25156,1,0
254,111,25974,1,0
267,54,26119,1,0
310,47,26263,1,0
377,92,26408,1,0
377,92,26552,1,0
377,92,26697,1,0
397,147,26889,1,0
397,147,27034,1,0
397,147,27130,1,0
397,147,27274,1,0
391,223,27467,1,0
411,254,27708,1,0
364,289,27997,1,0
301,287,28286,1,0
224,283,28574,5,0
164,280,29537,1,0
181,229,29682,1,0
242,212,29826,1,0
185,154,30741,1,0
175,107,30886,1,0
149,78,31030,1,0
109,68,31175,1,0
84,74,31271,1,0
59,89,31463,1,0
54,112,31608,1,0
55,144,31897,1,0
55,144,32041,1,0
61,178,32186,1,0
61,178,32330,1,0
70,214,32475,1,0
75,236,32619,1,0
75,236,32763,1,0
254,281,33341,5,0
318,267,34256,1,0
299,195,34400,1,0
232,179,34545,1,0
280,131,35460,1,0
284,91,35652,1,0
318,70,35749,1,0
358,114,35893,1,0
358,114,36086,1,0
358,114,36230,1,0
378,190,36375,1,0
378,190,36519,1,0
378,190,36663,1,0
384,251,36808,1,0
372,293,37145,1,0
348,313,37434,1,0
325,279,37771,1,0
314,217,38012,5,0
222,220,38926,1,0
193,182,39071,1,0
169,197,39215,1,0
208,102,40082,1,0
186,48,40226,1,0
134,46,40371,1,0
94,67,40515,1,0
84,94,40660,1,0
77,135,40852,1,0
74,161,40949,1,0
75,216,41286,1,0
75,243,41430,1,0
98,282,41575,1,0
98,282,41719,1,0
156,279,41863,1,0
183,245,42056,1,0
202,160,42152,1,0
194,134,42297,1,0
184,99,42441,1,0
186,62,42634,1,0
173,34,42730,1,0
42,334,47208,5,0
79,343,47352,1,0
75,261,47497,1,0
64,196,47786,1,0
64,196,47930,1,0
64,196,48075,1,0
104,129,48363,1,0
117,89,48508,1,0
84,70,48652,1,0
198,70,48941,1,0
198,70,49086,1,0
198,70,49230,1,0
269,100,49519,5,0
289,70,49663,1,0
318,102,49808,1,0
372,74,50097,1,0
372,74,50241,1,0
372,74,50386,1,0
416,121,50675,1,0
426,147,50819,1,0
419,176,50963,1,0
413,234,51252,1,0
413,234,51397,1,0
413,234,51541,1,0
403,317,51830,5,0
374,284,51975,1,0
354,298,52119,1,0
286,291,52456,1,0
286,291,52601,1,0
286,291,52745,1,0
203,296,53034,1,0
171,274,53178,1,0
143,298,53323,1,0
67,286,53612,1,0
67,286,53756,1,0
67,286,53901,1,0
91,211,54189,5,0
101,181,54334,1,0
72,165,54478,1,0
171,170,54767,1,0
171,170,54912,1,0
171,170,55056,1,0
247,185,55393,1,0
279,159,55538,1,0
312,188,55682,1,0
466,323,56597,5,0
437,284,56741,1,0
413,306,56886,1,0
343,303,57175,1,0
343,303,57319,1,0
343,303,57464,1,0
261,315,57752,1,0
224,273,57897,1,0
184,293,58041,1,0
111,294,58330,1,0
111,294,58475,1,0
111,294,58619,1,0
91,230,58908,5,0
110,200,59052,1,0
68,178,59197,1,0
111,118,59486,1,0
111,118,59630,1,0
111,118,59775,1,0
179,90,60112,1,0
199,42,60256,1,0
230,60,60401,1,0
296,69,60689,1,0
296,69,60834,1,0
296,69,60978,1,0
376,53,61267,5,0
393,106,61412,1,0
390,129,61556,1,0
386,202,61845,1,0
386,202,61989,1,0
386,202,62134,1,0
347,262,62471,1,0
359,294,62615,1,0
298,316,62760,1,0
213,292,63049,1,0
213,292,63193,1,0
213,292,63338,1,0
262,234,63627,1,0
256,181,63771,1,0
256,192,63915,12,0,66227
313,191,67189,5,0
297,138,67334,1,0
301,74,67478,1,0
338,80,68345,1,0
363,52,68489,1,0
394,47,68634,1,0
419,95,68730,1,0
419,95,68875,1,0
419,95,69019,1,0
422,184,69164,1,0
422,184,69308,1,0
422,184,69452,1,0
422,184,69549,1,0
411,243,69741,1,0
397,277,70030,1,0
344,278,70319,1,0
319,227,70656,1,0
278,162,70993,5,0
199,122,71908,1,0
171,52,72052,1,0
131,116,72197,1,0
83,84,73064,1,0
62,97,73208,1,0
49,125,73352,1,0
47,202,73497,1,0
46,232,73593,1,0
50,261,73738,1,0
57,286,73882,1,0
133,301,74219,1,0
155,295,74364,1,0
199,298,74508,1,0
222,298,74652,1,0
244,295,74749,1,0
272,293,74941,1,0
326,293,75086,1,0
460,294,75712,5,0
446,151,76578,1,0
419,119,76723,1,0
388,173,76867,1,0
326,84,77782,1,0
300,72,77927,1,0
278,92,78071,1,0
265,159,78215,1,0
265,159,78360,1,0
265,159,78456,1,0
267,222,78649,1,0
267,222,78841,1,0
267,222,78938,1,0
267,222,79082,1,0
241,308,79227,1,0
336,298,79564,1,0
346,232,79852,1,0
339,187,80141,1,0
331,117,80430,5,0
182,64,81249,1,0
131,32,81393,1,0
134,99,81538,1,0
40,133,82356,1,0
34,177,82501,1,0
38,214,82645,1,0
68,281,82838,1,0
90,302,82982,1,0
119,306,83127,1,0
142,301,83319,1,0
193,267,83656,1,0
195,236,83801,1,0
186,211,83945,1,0
145,133,84090,1,0
179,129,84234,1,0
203,139,84378,1,0
246,158,84523,1,0
298,224,84667,1,0
298,255,84812,1,0
298,255,84956,1,0
299,282,85101,1,0
48,97,89530,5,0
48,97,89675,1,0
48,97,89819,1,0
120,97,90108,5,0
120,97,90253,1,0
120,97,90397,1,0
197,97,90686,5,0
197,97,90830,1,0
197,97,90975,1,0
268,97,91264,5,0
268,97,91408,1,0
268,97,91553,1,0
336,119,91841,5,0
359,70,91986,1,0
396,117,92130,1,0
