osu file format v5

[General]
AudioFilename: 18 - REBORN! The Dying Will Time!.mp3
AudioLeadIn: 0
PreviewTime: -1
Countdown: 1
SampleSet: Normal
StackLeniency: 0.7
Mode: 0
LetterboxInBreaks: 1

[Metadata]
Title:REBORN! The Dying Will Time!
Artist:Toshihiko Sahashi
Creator:zeroid
Version:Hard
Source:
Tags:

[Difficulty]
HPDrainRate:5
CircleSize:5
OverallDifficulty:5
SliderMultiplier:1.4
SliderTickRate:1

[Events]
//Background and Video events
0,0,"04.jpg"
//Break Periods
//Storyboard Layer 0 (Background)
//Storyboard Layer 1 (Failing)
//Storyboard Layer 2 (Passing)
//Storyboard Layer 3 (Foreground)
//Storyboard Sound Samples
//Background Colour Transformations
3,100,163,162,255

[TimingPoints]
10,461.538461538462,4,1,0,100,1,0

[HitObjects]
189,158,3875,1,0
224,140,4221,1,0
272,127,4625,1,0
300,132,4740,1,0
328,150,4913,1,0
334,204,5317,1,0
280,225,5548,1,0
190,211,7221,1,0
161,168,7625,1,0
152,122,8029,1,0
186,95,8202,1,0
186,95,8375,1,0
226,77,8663,1,0
262,87,8894,1,0
255,126,10567,1,0
244,166,11029,1,0
221,212,11433,1,0
224,248,11606,1,0
254,260,11779,1,0
288,224,12067,1,0
318,197,12298,1,0
306,148,13106,1,0
280,132,13394,1,0
246,122,13740,1,0
221,136,13913,1,0
307,141,17317,1,0
264,118,17952,1,0
234,110,18067,1,0
189,119,18183,1,0
173,185,18817,1,0
188,223,18933,1,0
236,243,19048,1,0
164,236,20721,2,0,B|296:176,1,140
341,202,22048,2,0,B|214:207,1,122.5
202,160,24125,2,0,B|315:157,1,105
314,110,24990,2,0,B|191:115,3,105
200,176,26721,2,0,B|315:172,1,105
305,122,27529,2,0,B|194:129,1,105
195,201,28336,2,0,B|325:189,1,122.5
328,135,29144,2,0,B|199:147,1,122.5
256,192,30413,12,0,33413
328,77,34683,1,0
264,80,35086,1,0
225,106,35721,1,0
192,143,35894,1,0
208,194,37394,5,0
243,180,37567,1,0
270,146,37798,1,0
313,144,38490,1,0
323,188,39298,1,0
282,212,40971,5,0
240,221,41433,1,0
202,228,41836,1,0
174,217,41952,1,0
144,184,42183,1,0
110,162,42471,1,0
99,210,42702,1,0
111,243,43106,5,0
133,268,43510,1,0
173,284,43971,1,0
205,269,44375,1,0
231,236,44779,1,0
251,202,45183,1,0
270,172,45356,1,0
290,140,45529,1,0
319,110,45817,1,0
348,99,46106,1,0
371,183,46510,1,0
357,241,46913,1,0
341,291,47317,1,0
252,285,47779,1,0
244,244,48183,1,0
232,207,48586,1,0
220,172,48702,1,0
217,136,48933,1,0
210,98,49221,1,0
180,77,49510,1,0
118,127,49913,1,0
111,179,50260,1,0
112,223,50548,1,0
116,261,50894,1,0
135,300,51125,1,0
209,291,51529,1,0
218,239,51933,1,0
215,179,52336,1,0
218,124,52798,1,0
243,77,53202,1,0
307,98,53663,1,0
323,176,54125,1,0
382,193,54529,2,0,B|230:216,1,140
221,267,55798,2,0,B|376:243,1,140
358,185,57933,2,0,B|236:189,1,105
204,249,59144,2,0,B|343:252,1,122.5
339,184,60010,2,0,B|209:192,1,122.5
204,255,61279,2,0,B|326:252,1,105
323,188,62144,2,0,B|180:204,1,140
165,160,63010,2,0,B|296:143,1,122.5
323,216,63817,2,0,B|156:247,1,157.5
256,192,64740,12,0,65894
334,140,66356,1,0
275,136,66760,1,0
231,133,67221,1,0
189,151,67625,1,0
337,195,68086,5,0
280,195,68490,1,0
232,199,68894,1,0
181,207,69298,1,0
180,267,69760,5,0
232,263,70163,1,0
284,258,70567,1,0
332,252,70971,1,0
348,306,71433,5,0
306,315,71836,1,0
276,316,72067,1,0
244,316,72298,1,0
200,313,72471,1,0
132,108,73106,5,0
175,99,73510,1,0
212,66,73971,1,0
258,57,74375,1,0
292,88,74779,1,0
287,136,75413,5,0
256,166,75644,1,0
216,200,75875,1,0
208,256,76510,5,0
257,270,76913,1,0
291,242,77317,1,0
308,211,77490,1,0
308,211,77606,1,0
334,160,77721,1,0
334,160,77836,1,0
339,117,77952,1,0
314,84,78240,5,0
231,80,78586,1,0
200,111,79048,1,0
188,140,79163,1,0
170,210,79336,1,0
224,251,79625,1,0
266,222,79798,1,0
281,140,80721,5,0
304,97,81183,1,0
337,146,81586,1,0
336,172,81644,1,0
320,214,81760,1,0
276,255,81990,1,0
276,255,82048,1,0
240,265,82163,1,0
179,264,82394,1,0
179,264,82510,1,0
152,224,82625,1,0
149,185,82798,1,0
173,135,83260,1,0
