osu file format v5

[General]
AudioFilename: 18 - REBORN! The Dying Will Time!.mp3
AudioLeadIn: 0
PreviewTime: -1
Countdown: 1
SampleSet: Normal
StackLeniency: 0.7
Mode: 0
LetterboxInBreaks: 1

[Metadata]
Title:REBORN! The Dying Will Time!
Artist:Toshihiko Sahashi
Creator:zeroid
Version:Easy
Source:
Tags:

[Difficulty]
HPDrainRate:5
CircleSize:5
OverallDifficulty:5
SliderMultiplier:1.4
SliderTickRate:1

[Events]
//Background and Video events
0,0,"04.jpg"
//Break Periods
//Storyboard Layer 0 (Background)
//Storyboard Layer 1 (Failing)
//Storyboard Layer 2 (Passing)
//Storyboard Layer 3 (Foreground)
//Storyboard Sound Samples
//Background Colour Transformations
3,100,163,162,255

[TimingPoints]
1165.28571428571,419.58041958042,4,1,0,100,1,0

[HitObjects]
216,152,3840,1,0
261,133,4207,1,0
303,126,4679,1,0
328,171,5098,1,0
280,184,5518,1,0
238,210,5885,1,0
210,224,6357,1,0
196,265,6777,1,0
240,276,7196,1,0
290,276,7616,1,0
319,248,8035,1,0
321,215,8455,1,0
299,185,8875,1,0
250,185,9294,1,0
223,232,9661,1,0
252,263,10133,1,0
292,244,10553,1,0
300,202,10972,1,0
296,165,11392,1,0
283,130,11864,1,0
235,131,12284,1,0
206,224,13070,1,0
236,249,13542,1,0
280,244,13962,1,0
236,141,14854,1,0
257,95,15273,1,0
317,98,15693,1,0
296,219,16532,1,0
210,220,16951,1,0
256,192,17319,12,0,19049
256,192,19207,12,0,20675
256,192,20728,12,0,22354
331,181,22773,2,0,B|146:192,1,175
158,191,24137,2,0,B|240:168,2,70
303,196,24976,2,0,B|146:191,1,140
157,231,25763,2,0,B|292:240,1,122.5
285,304,26654,2,0,B|112:279,1,157.5
153,213,27493,2,0,B|301:227,1,140
291,297,28228,2,0,B|169:269,1,122.5
183,209,29119,2,0,B|324:236,1,140
324,249,30850,2,0,B|435:153,1,140
427,159,31689,2,0,B|229:82,1,210
217,131,34626,5,0
262,121,35046,1,0
286,149,35780,1,0
302,182,35990,1,0
277,270,37354,5,0
232,263,37721,1,0
183,234,38507,1,0
280,144,39294,1,0
295,185,40133,1,0
269,224,40553,1,0
260,266,40972,1,0
246,298,41392,1,0
307,172,41759,5,0
295,127,42231,1,0
252,132,42703,1,0
200,152,43123,1,0
202,193,43542,1,0
203,235,43962,1,0
253,232,44382,1,0
290,211,44801,1,0
283,160,45221,1,0
283,114,45640,1,0
180,125,46060,1,0
191,175,46479,1,0
205,223,46899,1,0
268,214,47319,1,0
261,165,47791,1,0
258,111,48210,1,0
322,104,48630,1,0
328,149,48892,1,0
334,200,49259,1,0
336,243,49521,1,0
283,234,50256,5,0
311,194,50570,1,0
322,153,50885,1,0
328,123,51095,1,0
248,112,51986,5,0
223,128,52249,1,0
196,159,52563,1,0
184,184,52826,1,0
195,256,53665,5,0
214,241,53927,1,0
247,220,54294,1,0
274,188,54556,1,0
348,203,55396,5,0
301,241,55763,1,0
275,268,56077,1,0
248,288,56287,1,0
197,283,57074,5,0
195,254,57389,1,0
190,214,57703,1,0
188,186,57913,1,0
231,132,58752,5,0
238,179,59067,1,0
244,220,59382,1,0
248,256,59591,1,0
296,278,60431,5,0
293,241,60693,1,0
290,194,61007,1,0
284,150,61270,1,0
208,136,62161,1,0
209,184,62476,1,0
210,224,62791,1,0
212,257,63053,1,0
258,269,63840,5,0
256,232,64154,1,0
252,196,64469,1,0
252,154,64679,1,0
307,136,65518,1,0
316,176,65833,1,0
323,217,66147,1,0
324,252,66410,1,0
260,271,67249,5,0
255,243,67563,1,0
252,209,67878,1,0
241,180,68088,1,0
188,154,68822,5,0
193,190,69189,1,0
199,220,69504,1,0
204,248,69714,1,0
269,261,70605,5,0
267,223,70868,1,0
261,182,71182,1,0
247,140,71445,1,0
306,124,72284,5,0
319,176,72651,1,0
322,217,72965,1,0
326,256,73175,1,0
256,275,73962,5,0
250,236,74277,1,0
239,203,74539,1,0
228,158,74801,1,0
283,128,75745,5,0
305,172,76007,1,0
319,210,76322,1,0
329,248,76584,1,0
246,284,77371,5,0
236,236,77686,1,0
220,182,77948,1,0
204,131,78158,1,0
225,243,79626,1,0
242,212,79836,1,0
281,171,80780,5,0
312,175,81147,1,0
365,176,81567,1,0
