osu file format v11

[General]
AudioFilename: 25. Fuuki Iinchou Hibari Kyoya.mp3
AudioLeadIn: 3000
PreviewTime: -1
Countdown: 2
SampleSet: None
StackLeniency: 0.7
Mode: 0
LetterboxInBreaks: 1
CountdownOffset: 3

[Editor]
DistanceSpacing: 0.6
BeatDivisor: 4
GridSize: 8

[Metadata]
Title:Fuuki Iinchou Hibari Kyoya
TitleUnicode:
Artist:Toshihiko Sahashi
ArtistUnicode:
Creator:Pure Force
Version:Normal
Source:Katekyo Hitman Reborn
Tags:khr Tony SuperMIC Hibari Kyoya
BeatmapID:206647
BeatmapSetID:72267

[Difficulty]
HPDrainRate:3
CircleSize:4
OverallDifficulty:3
ApproachRate:5
SliderMultiplier:1.2
SliderTickRate:1

[Events]
//Background and Video events
0,0,"Hibari-Kyoya-katekyo-hitman-reborn-9051168-1280-960.jpg"
//Break Periods
//Storyboard Layer 0 (Background)
//Storyboard Layer 1 (Fail)
//Storyboard Layer 2 (Pass)
//Storyboard Layer 3 (Foreground)
//Storyboard Sound Samples
//Background Colour Transformations
3,100,0,0,0

[TimingPoints]
495,441.176470588235,4,2,1,100,1,0
18142,-100,4,1,1,45,0,1
25200,-100,4,2,1,60,0,0
27627,-153.846153846154,4,2,1,100,0,0
28289,-100,4,2,1,100,0,0
31156,-153.846153846154,4,2,1,60,0,0
32259,-100,4,2,1,60,0,0
53436,-100,4,1,1,45,0,1
55200,-200,4,1,1,45,0,1
56083,-100,4,1,1,45,0,1
58730,-200,4,1,1,45,0,1
59612,-100,4,1,1,45,0,1
60494,-100,4,1,1,45,0,0
66450,-153.846153846154,4,1,1,45,0,0
67333,-100,4,1,1,45,0,0
74612,-100,4,2,1,60,0,0
88730,-100,4,2,1,60,0,1
92700,-100,4,2,1,5,0,0

[Colours]
Combo1 : 255,128,0
Combo2 : 0,255,0
Combo3 : 0,0,255
Combo4 : 255,0,0

[HitObjects]
88,64,18142,1,4,0:0:0
160,64,18583,1,0,0:0:0
232,64,19024,1,0,0:0:0
304,64,19465,1,0,0:0:0
304,136,19906,2,0,B|440:136,2,120,0|0|8,0:0|0:0|0:0,0:0:0
304,136,21671,5,4,0:0:0
376,136,22112,1,0,0:0:0
448,136,22553,1,0,0:0:0
448,208,22995,1,0,0:0:0
376,208,23436,2,0,B|248:208,3,120,0|0|0|8,0:0|0:0|0:0|0:0,0:0:0
64,240,25200,6,2,B|184:240,1,120,2|8,0:0|0:0,0:0:0
256,240,26083,2,2,B|392:240,1,120,2|8,0:0|0:0,0:0:0
376,168,26965,2,2,B|376:296,1,120,2|8,0:0|0:0,0:0:0
352,288,27627,2,0,B|296:288,3,38.9999993026257
232,216,28730,6,0,B|352:216,1,120
424,216,29612,2,2,B|400:160|320:136,1,120
288,200,30495,1,0,0:0:0
216,176,30936,1,0,0:0:0
216,152,31156,2,0,B|264:152,4,40
192,128,32259,1,4,0:0:0
56,120,32921,5,0,0:0:0
64,144,33142,2,0,B|88:200|64:280,1,120,2|4,0:0|0:0,0:0:0
136,264,34024,2,0,B|160:200|128:128,1,120,2|4,0:0|0:0,0:0:0
216,144,34906,1,2,0:0:0
216,216,35347,1,2,0:0:0
216,288,35789,1,0,0:0:0
384,312,36450,5,0,0:0:0
400,296,36671,2,0,B|424:232|400:184|392:160,1,120,2|4,0:0|0:0,0:0:0
320,176,37553,2,0,B|352:224|320:304,1,120,2|4,0:0|0:0,0:0:0
264,256,38435,1,2,0:0:0
216,200,38877,1,2,0:0:0
48,56,39318,5,4,0:0:0
120,56,39759,1,2,0:0:0
192,56,40200,2,2,B|256:80|264:152,1,120
192,144,41083,5,0,0:0:0
120,144,41524,1,2,0:0:0
48,144,41965,2,2,B|48:208|120:248,1,120
72,304,42847,5,0,0:0:0
152,296,43289,1,2,0:0:0
176,224,43730,2,2,B|224:248|232:328,1,120
336,344,44612,5,0,0:0:0
336,272,45053,1,2,0:0:0
336,200,45494,2,2,B|392:160|344:80,1,120
296,144,46377,6,0,B|184:96,1,120,4|8,0:0|0:0,0:0:0
136,152,47259,2,0,B|40:232,1,120,2|8,0:0|0:0,0:0:0
96,280,48142,2,0,B|208:344,1,120,2|8,0:0|0:0,0:0:0
272,312,49024,1,2,0:0:0
320,256,49465,1,8,0:0:0
224,280,50347,5,2,0:0:0
152,280,50789,1,2,0:0:0
80,280,51230,1,2,0:0:0
80,208,51671,2,4,B|200:208,1,120
272,208,52553,2,2,B|400:208,1,120
440,88,53436,5,4,0:0:0
368,88,53877,2,0,B|240:88,1,120,2|0,0:0|0:0,0:0:0
176,88,54759,1,0,0:0:0
176,160,55200,6,0,B|296:160,1,120,0|8,0:0|0:0,0:0:0
456,256,56965,5,4,0:0:0
384,256,57406,2,0,B|256:256,1,120,2|0,0:0|0:0,0:0:0
192,256,58289,1,0,0:0:0
192,328,58730,6,0,B|312:328,1,120,0|8,0:0|0:0,0:0:0
312,328,60494,5,2,0:0:0
424,328,60936,1,8,0:0:0
424,240,61377,1,2,0:0:0
312,240,61818,1,8,0:0:0
216,240,62259,6,0,B|96:240,1,120,2|8,0:0|0:0,0:0:0
96,240,63142,1,2,0:0:0
96,168,63583,1,8,0:0:0
168,168,64024,2,0,B|288:168,1,120,2|8,0:0|0:0,0:0:0
328,232,64906,2,0,B|456:160,1,120,2|8,0:0|0:0,0:0:0
472,80,65789,5,0,0:0:0
400,80,66230,1,0,0:0:0
376,80,66450,2,0,B|376:120,4,38.9999993026257
352,80,67553,1,0,0:0:0
256,192,67664,12,0,68877,0:0:0
256,160,69318,5,2,0:0:0
256,232,69759,1,8,0:0:0
256,304,70200,1,2,0:0:0
328,304,70642,1,8,0:0:0
328,232,71083,5,0,0:0:0
328,160,71524,1,8,0:0:0
328,88,71965,1,2,0:0:0
256,88,72406,1,8,0:0:0
184,88,72847,2,0,B|56:96,3,120,2|8|2|8,0:0|0:0|0:0|0:0,0:0:0
48,168,74612,5,4,0:0:0
120,168,75053,1,2,0:0:0
192,168,75494,2,0,B|192:256|264:256,1,120
352,232,76377,5,0,0:0:0
280,232,76818,1,2,0:0:0
208,232,77259,2,2,B|80:232,1,120
56,336,78142,5,4,0:0:0
128,336,78583,1,2,0:0:0
200,336,79024,2,2,B|280:336|328:304,1,120
384,256,79906,5,0,0:0:0
312,256,80347,1,2,0:0:0
240,256,80789,2,2,B|120:256,1,120
88,192,81671,5,4,0:0:0
160,192,82112,1,8,0:0:0
160,264,82553,2,0,B|288:264,1,120,0|8,0:0|0:0,0:0:0
280,264,83436,1,4,0:0:0
280,192,83877,2,0,B|160:192,1,120,2|0,0:0|0:0,0:0:0
160,192,84759,1,2,0:0:0
192,264,85200,5,2,0:0:0
112,264,85642,1,2,0:0:0
112,184,86083,1,2,0:0:0
192,184,86524,1,8,0:0:0
192,184,86965,2,0,B|432:184,1,240,2|4,0:0|0:0,0:0:0
432,184,88730,5,2,0:0:0
432,216,88950,1,0,0:0:0
424,256,89171,2,0,B|416:296|352:264|320:304,1,120
248,304,90053,1,8,0:0:0
256,192,90495,12,2,92700,0:0:0
