osu file format v11

[General]
AudioFilename: 25. Fuuki Iinchou Hibari Kyoya.mp3
AudioLeadIn: 3000
PreviewTime: -1
Countdown: 1
SampleSet: Normal
StackLeniency: 0.7
Mode: 0
LetterboxInBreaks: 1
CountdownOffset: 3

[Editor]
DistanceSpacing: 1.6
BeatDivisor: 4
GridSize: 8

[Metadata]
Title:Fuuki Iinchou Hibari Kyoya
TitleUnicode:Fuuki Iinchou Hibari Kyoya
Artist:Toshihiko Sahashi
ArtistUnicode:Toshihiko Sahashi
Creator:Pure Force
Version:Insane
Source:Katekyo Hitman Reborn
Tags:khr Tony SuperMIC Hibari Kyoya
BeatmapID:206646
BeatmapSetID:72267

[Difficulty]
HPDrainRate:7
CircleSize:4
OverallDifficulty:8
ApproachRate:8
SliderMultiplier:1.2
SliderTickRate:2

[Events]
//Background and Video events
0,0,"Hibari-Kyoya-katekyo-hitman-reborn-9051168-1280-960.jpg"
//Break Periods
2,14812,15627
2,16577,17392
//Storyboard Layer 0 (Background)
//Storyboard Layer 1 (Fail)
//Storyboard Layer 2 (Pass)
//Storyboard Layer 3 (Foreground)
//Storyboard Sound Samples
//Background Colour Transformations
3,100,0,0,0

[TimingPoints]
495,441.176470588235,4,1,1,100,1,0
495,-100,4,2,1,15,0,0
12847,-100,4,2,1,20,0,0
13178,-100,4,2,1,30,0,0
13509,-100,4,2,1,40,0,0
13840,-100,4,2,1,50,0,0
14171,-100,4,2,1,60,0,0
14502,-100,4,2,1,70,0,0
18142,-100,4,1,1,45,0,1
25200,-100,4,1,1,45,0,0
32254,-100,4,2,1,60,0,0
39754,-100,4,1,1,45,0,0
40085,-100,4,2,1,60,0,0
40637,-100,4,1,1,45,0,0
40967,-100,4,2,1,60,0,0
45494,-100,4,2,1,60,0,0
45825,-100,4,2,1,45,0,0
47034,-100,4,1,1,45,0,0
48026,-100,4,2,1,60,0,0
48798,-100,4,1,1,45,0,0
49791,-100,4,2,1,60,0,0
50017,-100,4,2,1,63,0,0
50127,-100,4,2,1,66,0,0
50237,-100,4,2,1,69,0,0
50347,-100,4,2,1,72,0,0
50458,-100,4,2,1,75,0,0
50568,-100,4,2,1,78,0,0
50673,-100,4,2,1,81,0,0
50789,-100,4,2,1,84,0,0
50899,-100,4,2,1,87,0,0
51009,-100,4,2,1,90,0,0
51119,-100,4,2,1,93,0,0
51230,-100,4,2,1,96,0,0
51340,-100,4,2,1,99,0,0
51450,-100,4,2,1,100,0,0
53436,-100,4,1,1,45,0,1
59276,-100,4,2,1,60,0,0
60489,-100,4,1,1,45,0,0
60820,-100,4,2,1,60,0,0
61372,-100,4,1,1,45,0,0
61703,-100,4,2,1,60,0,0
62254,-100,4,1,1,45,0,0
62585,-100,4,2,1,60,0,0
64019,-100,4,1,1,45,0,0
64350,-100,4,2,1,60,0,0
64901,-100,4,1,1,45,0,0
65232,-100,4,2,1,60,0,0
65784,-100,4,1,1,45,0,0
66114,-100,4,2,1,60,0,0
79901,-100,4,1,1,45,0,0
80232,-100,4,2,1,60,0,0
80784,-100,4,1,1,45,0,0
81114,-100,4,2,1,60,0,0
82328,-100,4,1,1,45,0,0
83320,-100,4,2,1,60,0,0
84092,-100,4,1,1,45,0,0
85085,-100,4,2,1,60,0,0
85857,-100,4,1,1,45,0,0
86850,-100,4,2,1,60,0,0
89392,-100,4,1,1,45,0,1
89492,-100,4,1,1,45,0,1
90605,-100,4,2,1,60,0,1
92590,-100,4,2,1,5,0,0

[Colours]
Combo1 : 255,128,0
Combo2 : 0,255,0
Combo3 : 0,0,255
Combo4 : 255,0,0

[HitObjects]
56,312,495,1,2,0:0:0
56,312,605,1,2,0:0:0
56,312,715,1,2,0:0:0
136,256,936,2,2,B|96:256,2,30
216,312,1377,5,2,0:0:0
216,312,1487,1,2,0:0:0
216,312,1597,1,2,0:0:0
296,256,1818,2,2,B|328:256,2,30
376,312,2259,5,2,0:0:0
376,312,2369,1,2,0:0:0
376,312,2480,1,2,0:0:0
456,256,2700,2,2,B|408:256,2,30
416,168,3142,5,2,0:0:0
416,168,3252,1,2,0:0:0
416,168,3362,1,2,0:0:0
352,96,3583,2,2,B|384:96,2,30
200,104,4024,6,2,B|168:80,2,30
192,200,4465,2,2,B|168:232,2,30
304,104,4906,2,2,B|328:72,2,30
312,200,5347,2,2,B|328:232,2,30
208,144,5789,1,2,0:0:0
176,144,5899,1,2,0:0:0
144,144,6009,1,2,0:0:0
176,224,6230,6,2,B|144:224,2,30
160,296,6671,2,2,B|128:296,2,30
472,264,7112,5,2,0:0:0
464,232,7222,1,2,0:0:0
456,192,7333,1,2,0:0:0
448,161,7443,1,2,0:0:0
432,136,7553,6,2,B|352:80|256:104,1,180
232,112,8325,1,2,0:0:0
200,136,8436,1,2,0:0:0
176,152,8546,1,2,0:0:0
152,176,8656,1,2,0:0:0
128,208,8767,1,2,0:0:0
104,232,8877,2,2,B|80:264,2,30
96,128,9318,6,2,B|184:96|296:112,1,180
304,128,10090,1,2,0:0:0
328,152,10200,1,2,0:0:0
344,184,10311,1,2,0:0:0
360,216,10421,1,2,0:0:0
368,248,10531,1,2,0:0:0
376,288,10642,2,2,B|384:320,2,30
40,200,11083,6,2,B|240:200,1,180
256,200,11855,1,2,0:0:0
288,200,11965,1,2,0:0:0
328,200,12075,1,2,0:0:0
360,200,12186,1,2,0:0:0
400,200,12296,1,2,0:0:0
432,200,12406,1,2,0:0:0
464,200,12517,1,2,0:0:0
496,200,12627,1,2,0:0:0
280,288,12847,6,2,B|248:280,3,30
224,280,13289,2,2,B|192:296,3,30
168,280,13730,2,2,B|136:264,3,30
120,288,14171,2,2,B|96:312,3,30
88,320,14612,1,2,0:0:0
256,192,16377,5,0,0:0:0
56,80,18142,5,4,0:0:0
152,80,18362,1,8,0:0:0
152,80,18472,1,8,0:0:0
152,80,18583,1,0,0:0:0
104,160,18803,2,0,B|104:112,2,30
104,128,19245,5,0,0:0:0
176,184,19465,1,0,0:0:0
256,136,19686,1,0,0:0:0
256,136,19906,2,0,B|256:320,1,180
344,208,20789,5,0,0:0:0
256,136,21009,1,0,0:0:0
168,200,21230,1,0,0:0:0
256,280,21450,1,4,0:0:0
432,56,21671,5,4,0:0:0
344,128,21892,1,8,0:0:0
336,160,22002,1,8,0:0:0
352,192,22112,1,0,0:0:0
432,272,22333,1,8,0:0:0
416,304,22443,1,8,0:0:0
392,328,22553,1,0,0:0:0
256,280,22774,5,0,0:0:0
344,208,22995,1,0,0:0:0
256,136,23215,1,0,0:0:0
168,200,23436,1,12,0:0:0
256,192,23656,12,4,24759,0:0:0
96,80,25200,5,2,0:0:0
72,112,25311,1,2,0:0:0
96,152,25421,1,2,0:0:0
160,120,25642,1,8,0:0:0
416,80,26083,5,2,0:0:0
440,120,26193,1,2,0:0:0
424,152,26303,1,2,0:0:0
352,128,26524,1,8,0:0:0
352,240,26965,6,2,B|320:240,2,30
352,240,27406,1,0,0:0:0
240,232,27627,1,0,0:0:0
240,120,27847,1,0,0:0:0
352,120,28068,2,0,B|352:184,2,60
408,192,28730,6,2,B|360:192,2,30
408,192,29171,1,8,0:0:0
80,192,29612,6,2,B|112:192,2,30
80,192,30053,1,8,0:0:0
256,96,30495,2,2,B|256:136,2,30
256,96,30936,5,4,0:0:0
352,176,31156,1,8,0:0:0
256,256,31377,1,8,0:0:0
160,184,31597,1,8,0:0:0
256,96,31818,2,4,B|256:176,1,60
256,160,32259,1,4,0:0:0
144,288,32921,5,8,0:0:0
144,288,33142,2,4,B|272:288,1,120
144,80,34024,2,0,B|280:80,1,120
200,152,34906,2,0,B|200:288,1,120,4|0,0:0|0:0,0:0:0
384,96,36450,5,8,0:0:0
384,96,36671,2,4,B|240:96,1,120
384,304,37553,2,0,B|256:304,1,120
320,232,38436,2,0,B|320:112,1,120
136,152,39318,5,0,0:0:0
136,152,39428,1,0,0:0:0
136,152,39539,1,8,0:0:0
72,80,39759,2,0,B|72:24,2,30
136,152,40200,1,0,0:0:0
136,152,40311,1,0,0:0:0
136,152,40421,1,8,0:0:0
200,80,40642,2,0,B|200:40,2,30
136,152,41083,1,0,0:0:0
136,152,41193,1,0,0:0:0
136,152,41303,1,8,0:0:0
208,184,41524,6,0,B|208:216,2,30
304,176,41965,2,0,B|304:144,2,30,0|0|8,0:0|0:0|0:0,0:0:0
200,120,42406,2,0,B|200:88,2,30
312,264,42847,2,0,B|312:320,2,30,0|0|8,0:0|0:0|0:0,0:0:0
312,64,43289,6,0,B|344:64,2,30
192,64,43730,2,0,B|144:64,2,30,0|0|8,0:0|0:0|0:0,0:0:0
256,168,44171,2,0,B|256:200,2,30
160,136,44612,5,4,0:0:0
160,264,44833,1,4,0:0:0
296,200,45053,1,8,0:0:0
88,304,45494,5,2,0:0:0
88,304,45605,1,2,0:0:0
88,304,45715,1,2,0:0:0
168,304,45936,1,0,0:0:0
168,304,46156,1,8,0:0:0
448,312,46377,6,0,B|376:248|272:248,1,180
240,240,47149,2,0,B|216:216,7,30,0|0|0|0|0|0|0|8,0:0|0:0|0:0|0:0|0:0|0:0|0:0|0:0,0:0:0
64,72,48142,6,0,B|136:136|240:136,1,180
272,152,48914,2,0,B|304:144,7,30,0|0|0|0|0|0|0|8,0:0|0:0|0:0|0:0|0:0|0:0|0:0|0:0,0:0:0
472,144,49906,6,2,B|440:152,3,30
416,152,50348,2,0,B|384:136,3,30
360,152,50789,2,2,B|328:168,3,30
312,144,51230,2,0,B|288:120,3,30
256,192,51671,12,4,52994,0:0:0
120,296,53436,5,0,0:0:0
152,120,53877,1,4,0:0:0
48,104,54097,1,0,0:0:0
48,104,54208,1,0,0:0:0
48,104,54318,1,8,0:0:0
256,104,54539,1,0,0:0:0
256,104,54649,1,0,0:0:0
256,104,54759,1,8,0:0:0
256,104,54980,5,4,0:0:0
256,296,55200,1,0,0:0:0
256,104,55421,1,0,0:0:0
256,296,55642,1,0,0:0:0
152,192,55862,1,0,0:0:0
368,192,56083,1,8,0:0:0
456,288,56965,5,4,0:0:0
456,288,57186,1,0,0:0:0
456,288,57296,1,0,0:0:0
456,288,57406,1,8,0:0:0
256,296,57627,1,0,0:0:0
256,296,57737,1,0,0:0:0
256,296,57847,1,8,0:0:0
256,296,58068,5,4,0:0:0
256,88,58289,1,0,0:0:0
144,192,58509,1,0,0:0:0
368,192,58730,1,4,0:0:0
256,192,58950,12,0,60053,0:0:0
376,80,60494,6,0,B|344:80,2,30,2|2|2,0:0|0:0|0:0,0:0:0
376,80,60936,1,8,0:0:0
88,80,61377,2,2,B|120:80,2,30
88,80,61818,1,8,0:0:0
256,96,62259,2,2,B|256:128,2,30
256,96,62700,1,8,0:0:0
256,96,62921,5,4,0:0:0
160,96,63142,1,4,0:0:0
160,192,63362,1,4,0:0:0
256,192,63583,1,4,0:0:0
424,320,64024,6,2,B|384:320,2,30
424,320,64465,1,8,0:0:0
104,320,64906,2,2,B|152:320,2,30
104,320,65347,1,8,0:0:0
256,304,65789,2,2,B|256:248,2,30
256,304,66230,1,8,0:0:0
352,248,66450,5,4,0:0:0
296,168,66671,1,4,0:0:0
216,216,66892,1,4,0:0:0
272,296,67112,1,0,0:0:0
272,296,67333,1,0,0:0:0
272,296,67553,1,8,0:0:0
80,120,68215,5,8,0:0:0
80,120,68436,2,4,B|192:208,1,120
80,304,69318,2,0,B|200:232,1,120
72,192,70200,2,0,B|200:192,1,120,4|0,0:0|0:0,0:0:0
432,120,71744,5,8,0:0:0
432,120,71965,2,4,B|328:184,1,120
432,296,72847,2,0,B|320:224,1,120
448,192,73730,2,0,B|328:192,1,120
320,208,74612,6,0,B|352:208,2,30,0|0|0,0:0|0:0|0:0,0:0:0
232,240,75053,2,0,B|232:288,2,30,0|0|8,0:0|0:0|0:0,0:0:0
168,176,75494,2,0,B|136:176,2,30,0|0|0,0:0|0:0|0:0,0:0:0
256,152,75936,2,0,B|256:120,2,30,0|0|8,0:0|0:0|0:0,0:0:0
96,288,76377,6,0,B|152:288,2,30,0|0|0,0:0|0:0|0:0,0:0:0
96,200,76818,2,0,B|96:160,2,30,0|0|8,0:0|0:0|0:0,0:0:0
184,200,77259,2,0,B|216:200,2,30,0|0|0,0:0|0:0|0:0,0:0:0
176,112,77700,2,0,B|176:80,2,30,0|0|8,0:0|0:0|0:0,0:0:0
80,80,78142,5,0,0:0:0
56,104,78252,1,0,0:0:0
64,136,78362,1,0,0:0:0
136,192,78583,1,0,0:0:0
136,232,78693,1,0,0:0:0
112,248,78803,1,8,0:0:0
328,296,79024,5,0,0:0:0
304,272,79134,1,0,0:0:0
312,240,79244,1,0,0:0:0
376,176,79465,1,0,0:0:0
392,152,79575,1,0,0:0:0
376,120,79686,1,8,0:0:0
440,304,79906,6,0,B|440:344,2,30
376,240,80347,1,0,0:0:0
376,240,80458,1,0,0:0:0
376,240,80568,1,8,0:0:0
312,304,80789,2,0,B|312:336,2,30
248,240,81230,1,0,0:0:0
248,240,81340,1,0,0:0:0
248,240,81450,1,8,0:0:0
48,328,81671,6,0,B|144:296|192:216,1,180
216,184,82443,2,0,B|240:160,7,30,0|0|0|0|0|0|0|8,0:0|0:0|0:0|0:0|0:0|0:0|0:0|0:0,0:0:0
48,56,83436,6,0,B|144:88|192:168,1,180
216,200,84208,2,0,B|256:232,7,30,0|0|0|0|0|0|0|8,0:0|0:0|0:0|0:0|0:0|0:0|0:0|0:0,0:0:0
464,56,85200,6,0,B|368:88|320:168,1,180
288,192,85972,2,0,B|256:224,7,30,0|0|0|0|0|0|0|8,0:0|0:0|0:0|0:0|0:0|0:0|0:0|0:0,0:0:0
216,280,86965,6,4,B|328:224|400:112,1,240
200,128,88289,1,4,0:0:0
32,32,88730,1,4,0:0:0
32,32,89171,1,4,0:0:0
104,96,89392,6,0,B|128:112,2,30,0|0|8,0:0|0:0|0:0,0:0:0
224,96,89833,2,0,B|200:112,2,30,0|0|8,0:0|0:0|0:0,0:0:0
160,200,90274,1,0,0:0:0
160,200,90384,1,0,0:0:0
160,200,90495,1,0,0:0:0
256,192,90605,12,2,92590,0:0:0
