osu file format v5

[General]
AudioFilename: 17 - Magic.mp3
AudioLeadIn: 0
PreviewTime: -1
Countdown: 0
SampleSet: Normal
StackLeniency: 0
Mode: 0
LetterboxInBreaks: 1

[Metadata]
Title:Magic!
Artist:Toshihiko Horiyama
Creator:Gladi
Version:Apprentice
Source:
Tags:

[Difficulty]
HPDrainRate:5
CircleSize:4
OverallDifficulty:5
SliderMultiplier:1.4
SliderTickRate:1

[Events]
//Background and Video events
0,0,"n8825022_38734272_1025.jpg"
//Break Periods
2,54762,61127
2,80377,82900
//Storyboard Layer 0 (Background)
//Storyboard Layer 1 (Failing)
//Storyboard Layer 2 (Passing)
//Storyboard Layer 3 (Foreground)
//Storyboard Sound Samples
//Background Colour Transformations
3,100,163,162,255

[TimingPoints]
1013,461.538461538462,4,1,0,100,1

[Colours]
Combo1 : 255,150,0
Combo2 : 5,240,5
Combo3 : 5,5,240
Combo4 : 240,5,5

[HitObjects]
144,136,6551,1,0
200,136,6782,1,0
256,136,7012,1,0
312,136,7243,2,0,B|392:136,1,70
384,216,7820,1,0
296,216,8166,1,4
184,216,8628,5,0
128,216,8859,1,0
72,216,9089,1,0
72,272,9320,1,0
136,320,9666,2,0,B|264:320,1,105,0|4
241,320,10243,5,0
320,320,10589,2,0,B|376:320|392:280|376:232,1,105
376,144,11397,1,0
320,144,11628,1,0
264,144,11859,2,0,B|184:144,1,70,0|4
256,304,12782,2,0,B|200:304,2,35,0|0|0
368,304,13474,6,2,B|312:240,1,70
216,200,14166,5,0
264,176,14397,1,0
312,152,14628,2,0,B|384:112,1,70
296,80,15205,2,2,B|160:80,1,105,2|6
128,168,16012,5,0
176,192,16243,1,0
224,216,16474,2,0,B|296:256,1,70
208,288,17051,2,2,B|72:288,1,105,2|6
103,288,17628,5,0
256,192,17859,12,0,20859
224,168,28936,5,0
168,168,29166,2,0,B|80:168,2,70
168,248,29974,1,0
168,328,30320,1,4
288,328,30782,5,0
344,328,31013,2,0,B|432:328,2,70
344,248,31820,1,0
344,168,32166,1,4
288,168,32397,6,0,B|176:168,2,105
256,272,33551,1,0
200,272,33782,1,0
144,272,34013,1,0
88,272,34243,2,0,B|88:112,3,140
200,136,36089,5,0
240,96,36320,2,0,B|296:48,1,70
328,88,36782,2,0,B|264:144,1,70
312,176,37243,2,0,B|384:184|384:296|288:320|248:296,1,210
216,288,38166,2,0,B|152:256,1,70
256,192,38628,12,0,42551
256,104,43474,5,4
256,272,44166,2,0,B|256:232,2,35
256,328,44628,6,0,B|336:344|408:312|440:256|424:232,1,210,0|4
328,112,46013,2,0,B|272:112,2,35
328,168,46474,6,0,B|304:240|192:152|152:160|120:224,1,210,0|6
288,272,47859,1,6
288,272,48089,1,6
288,104,48782,1,6
288,104,49013,1,6
256,192,49474,12,0,54551
256,192,62166,5,0
312,192,62397,2,0,B|384:192,1,70
382,192,62859,1,0
384,104,63205,1,0
384,16,63551,1,4
280,64,64013,5,0
224,64,64243,2,0,B|152:64,1,70
154,64,64705,1,0
152,152,65051,1,0
152,240,65397,1,4
256,192,65628,12,0,67474
256,192,67936,5,0
256,192,68397,5,0
256,192,68859,5,0
256,192,69320,5,0
312,192,69551,2,0,B|416:192,3,70
344,264,70589,1,0
344,264,70936,1,4
256,192,71397,5,0
200,192,71628,2,0,B|96:192,2,70
168,264,72436,1,0
168,264,72782,1,4
256,192,73013,12,0,74397
256,192,74859,5,0
256,24,75551,2,0,B|256:64,2,35
256,136,76243,1,0
256,136,76474,1,0
344,200,76936,5,0
344,256,77166,2,0,B|304:328,1,70
256,320,77628,2,0,B|144:320,2,105
256,224,78782,5,0
256,168,79013,2,0,B|296:96,1,70
344,104,79474,2,0,B|456:104,2,105
184,192,84089,6,0,B|328:192,1,140
256,120,85012,6,0,B|256:272,2,140
328,192,86397,6,0,B|184:192,1,140
256,264,87320,6,0,B|256:112,2,140
184,192,88705,6,0,B|328:192,1,140
432,192,89628,5,0
432,80,90089,6,0,B|432:32,4,35
208,72,91474,5,0
120,144,91936,1,0
200,216,92397,1,0
312,208,92859,1,0
224,280,93320,1,0
224,168,93782,1,0
304,88,94243,1,0
192,104,94705,1,0
88,104,95166,5,0
88,272,95859,1,0
88,272,96089,1,0
256,272,96782,1,0
256,272,97012,1,0
256,104,97705,2,0,B|424:104,2,140
256,104,98859,5,4
256,192,99089,12,4,102551
