osu file format v12

[General]
AudioFilename: 14 Kyouya Garyuu ~ LOVE LOVE GUILTY.mp3
AudioLeadIn: 1880
PreviewTime: 44981
Countdown: 0
SampleSet: Normal
StackLeniency: 0.7
Mode: 0
LetterboxInBreaks: 0
EpilepsyWarning: 1

[Editor]
Bookmarks: 3629,19177,30645,36159,77400
DistanceSpacing: 1.5
BeatDivisor: 6
GridSize: 4

[Metadata]
Title:Kyouya Garyuu ~LOVE LOVE GUILTY
TitleUnicode:Kyouya Garyuu ~LOVE LOVE GUILTY
Artist:Toshihiko Horiyama
ArtistUnicode:堀山俊彦
Creator:Kei
Version:Hard
Source:Apollo Justice: Ace Attorney
Tags:Gyakuten Saiban 4 klavier gavin phoenix wright capcom 逆転裁判
BeatmapID:158322
BeatmapSetID:51505

[Difficulty]
HPDrainRate:6
CircleSize:4
OverallDifficulty:6
ApproachRate:8
SliderMultiplier:1.7
SliderTickRate:1

[Events]
//Background and Video events
0,0,"Klavierrrrrrrrr.jpg",0,0
//Break Periods
//Storyboard Layer 0 (Background)
//Storyboard Layer 1 (Fail)
//Storyboard Layer 2 (Pass)
//Storyboard Layer 3 (Foreground)
//Storyboard Sound Samples
//Background Colour Transformations
3,100,163,162,255

[TimingPoints]
650,441.176470588235,4,1,1,40,1,0
30650,-100,4,2,1,55,0,0
43002,-100,4,1,1,40,0,0
44767,-100,4,1,1,40,0,1
73002,-100,4,2,1,55,0,0
85355,-100,4,1,1,40,0,0
87120,-100,4,1,1,45,0,1
87230,-100,4,1,1,40,0,0

[Colours]
Combo1 : 239,152,95
Combo2 : 118,3,47
Combo3 : 239,220,146

[HitObjects]
256,192,650,12,4,2414,0:0:0:0:
408,76,2855,6,0,P|400:128|380:156,1,85,2|0,0:0|0:0,0:0:0:0:
324,92,3297,2,0,P|288:128|252:140,1,85,2|0,0:0|0:0,0:0:0:0:
248,56,3738,2,0,P|192:72|152:56,1,85,2|0,0:0|0:0,0:0:0:0:
84,48,4179,2,0,P|56:136|64:172,1,127.5,2|0,0:0|0:0,0:0:0:0:
76,208,4620,2,0,P|120:208|160:240,1,85,2|0,0:0|0:0,0:0:0:0:
224,280,5061,2,0,P|288:288|368:232,2,127.5,2|2|0,0:0|0:0|0:0,0:0:0:0:
184,140,5944,5,2,0:0:0:0:
256,96,6164,1,2,0:0:0:0:
340,112,6385,1,0,0:0:0:0:
396,176,6605,2,0,B|456:244|456:244|480:216|536:216,2,170,2|0|0,0:0|0:0|0:0,0:0:0:0:
316,208,7708,6,0,L|392:296,1,85,2|0,0:0|0:0,0:0:0:0:
420,344,8149,2,0,P|380:376|348:376,1,85,0|2,0:0|0:0,0:0:0:0:
264,364,8591,1,0,0:0:0:0:
264,364,8811,1,0,0:0:0:0:
160,248,9032,1,2,0:0:0:0:
316,208,9252,1,0,0:0:0:0:
316,208,9363,1,2,0:0:0:0:
316,208,9473,5,4,0:0:0:0:
272,44,9914,2,0,P|328:28|368:36,1,85,2|0,0:0|0:0,0:0:0:0:
328,112,10355,2,0,P|376:120|404:144,1,85,2|0,0:0|0:0,0:0:0:0:
336,196,10797,2,0,P|372:232|376:272,1,85,2|0,0:0|0:0,0:0:0:0:
340,340,11238,2,0,P|272:356|220:320,1,127.5,2|0,0:0|0:0,0:0:0:0:
196,296,11679,2,0,L|136:356,1,85,2|0,0:0|0:0,0:0:0:0:
56,324,12120,2,0,L|68:192,2,127.5,2|2|0,0:0|0:0|0:0,0:0:0:0:
152,232,13002,6,0,P|248:152|296:160,1,170,2|0,0:0|0:0,0:0:0:0:
260,236,13664,2,0,P|188:176|168:96,1,170,2|2,0:0|0:0,0:0:0:0:
188,24,14326,1,0,0:0:0:0:
272,24,14547,1,0,0:0:0:0:
304,104,14767,6,0,P|372:144|468:80,1,170,2|0,0:0|0:0,0:0:0:0:
380,60,15429,2,0,L|372:236,1,170,2|0,0:0|0:0,0:0:0:0:
316,372,16091,1,2,0:0:0:0:
176,300,16311,1,0,0:0:0:0:
176,300,16422,1,2,0:0:0:0:
176,300,16532,5,4,0:0:0:0:
112,188,16973,2,0,P|100:136|112:92,1,85,2|0,0:0|0:0,0:0:0:0:
184,136,17414,2,0,P|204:80|224:60,1,85,2|0,0:0|0:0,0:0:0:0:
272,132,17855,2,0,P|324:100|356:100,1,85,2|0,0:0|0:0,0:0:0:0:
412,156,18297,2,0,P|396:220|344:264,1,127.5,2|0,0:0|0:0,0:0:0:0:
312,272,18738,2,0,L|224:212,1,85,2|0,0:0|0:0,0:0:0:0:
156,216,19179,2,0,P|104:160|80:108,2,127.5,2|2|0,0:0|0:0|0:0,0:0:0:0:
176,328,20061,6,0,P|256:352|336:328,1,170,2|0,0:0|0:0,0:0:0:0:
336,244,20723,2,0,P|256:220|176:244,1,170,2|2,0:0|0:0,0:0:0:0:
92,264,21385,2,0,P|116:188|208:152,1,170,0|2,0:0|0:0,0:0:0:0:
276,148,22047,5,2,0:0:0:0:
316,72,22267,1,0,0:0:0:0:
364,144,22488,1,2,0:0:0:0:
404,68,22708,1,0,0:0:0:0:
448,140,22929,1,2,0:0:0:0:
456,292,23149,1,0,0:0:0:0:
312,272,23370,1,0,0:0:0:0:
312,272,23480,1,2,0:0:0:0:
312,272,23591,5,4,0:0:0:0:
164,180,24032,2,0,P|116:192|84:224,1,85,2|0,0:0|0:0,0:0:0:0:
160,264,24473,2,0,P|136:304|136:348,1,85,2|0,0:0|0:0,0:0:0:0:
216,324,24914,2,0,P|236:360|276:380,1,85,2|0,0:0|0:0,0:0:0:0:
296,296,25355,2,0,P|344:300|376:280,1,85,2|0,0:0|0:0,0:0:0:0:
324,212,25797,2,0,P|360:180|372:140,1,85,2|0,0:0|0:0,0:0:0:0:
288,136,26238,2,0,P|292:80|280:52,1,85,2|0,0:0|0:0,0:0:0:0:
212,104,26679,2,0,P|168:84|116:92,1,85,2|0,0:0|0:0,0:0:0:0:
156,168,27120,6,0,P|204:228|320:232,1,170,2|0,0:0|0:0,0:0:0:0:
372,212,27782,1,0,0:0:0:0:
448,172,28002,2,0,P|408:132|304:160,2,170,2|0|2,0:0|0:0|0:0,0:0:0:0:
444,256,29105,1,0,0:0:0:0:
404,328,29326,1,0,0:0:0:0:
320,344,29547,1,0,0:0:0:0:
240,316,29767,2,0,B|184:272|184:272|148:240|144:184,1,170,2|0,0:0|0:0,0:0:0:0:
264,184,30429,1,0,0:0:0:0:
264,184,30539,1,0,0:0:0:0:
264,184,30649,5,4,0:0:0:0:
348,180,30870,1,0,0:0:0:0:
428,148,31091,2,0,P|448:128|496:108,4,42.5,8|0|0|0|8,0:0|0:0|0:0|0:0|0:0,0:0:0:0:
412,232,31752,1,0,0:0:0:0:
388,316,31973,2,0,P|368:336|320:356,4,42.5,8|0|0|0|8,0:0|0:0|0:0|0:0|0:0,0:0:0:0:
264,200,32855,1,8,0:0:0:0:
132,308,33297,1,8,0:0:0:0:
56,156,33738,1,8,0:0:0:0:
204,72,34179,6,0,L|235:44,4,42.5,8|0|0|0|8,0:0|0:0|0:0|0:0|0:0,0:0:0:0:
164,148,34841,1,0,0:0:0:0:
204,224,35061,2,0,L|235:251,4,42.5,8|0|0|0|8,0:0|0:0|0:0|0:0|0:0,0:0:0:0:
248,152,35723,1,0,0:0:0:0:
324,112,35944,2,0,L|384:76,4,42.5,8|0|0|0|8,0:0|0:0|0:0|0:0|0:0,0:0:0:0:
324,196,36605,1,0,0:0:0:0:
320,280,36826,2,0,L|260:316,4,42.5,8|0|0|0|8,0:0|0:0|0:0|0:0|0:0,0:0:0:0:
396,240,37488,1,0,0:0:0:0:
412,116,37708,6,0,P|348:60|304:64,1,127.5,8|0,0:0|0:0,0:0:0:0:
288,96,38149,2,0,B|277:119|277:119|252:123|252:123|244:141|244:141|221:140|221:140|209:160|209:160|187:162|187:162|168:186,3,170,8|8|8|8,0:0|0:0|0:0|0:0,0:0:0:0:
116,252,39694,1,0,0:0:0:0:
156,324,39914,1,8,0:0:0:0:
240,308,40135,1,0,0:0:0:0:
256,224,40355,1,8,0:0:0:0:
340,204,40576,1,0,0:0:0:0:
380,280,40797,1,8,0:0:0:0:
320,340,41017,1,0,0:0:0:0:
320,340,41127,1,0,0:0:0:0:
320,340,41238,6,0,L|288:384,4,42.5,8|0|0|0|8,0:0|0:0|0:0|0:0|0:0,0:0:0:0:
380,280,41899,1,0,0:0:0:0:
300,256,42120,2,0,L|252:212,4,42.5,8|0|0|0|8,0:0|0:0|0:0|0:0|0:0,0:0:0:0:
360,196,42782,1,0,0:0:0:0:
320,76,43002,5,4,2:0:0:0:
256,288,43297,1,0,0:0:0:0:
192,76,43591,1,0,1:0:0:0:
360,196,43885,1,4,2:0:0:0:
152,192,44179,1,0,0:0:0:0:
256,192,44473,1,4,2:0:0:0:
256,192,44767,5,4,0:0:0:0:
256,192,45208,2,0,P|248:248|232:288,1,85,2|0,0:0|0:0,0:0:0:0:
172,212,45649,2,0,P|152:252|120:284,1,85,2|0,0:0|0:0,0:0:0:0:
88,204,46091,2,0,P|52:236|16:248,1,85,2|0,0:0|0:0,0:0:0:0:
88,204,46532,2,0,P|136:136|184:128,1,127.5,2|0,0:0|0:0,0:0:0:0:
216,132,46973,2,0,L|256:220,1,85,2|0,0:0|0:0,0:0:0:0:
336,188,47414,2,0,L|352:48,2,127.5,2|2|0,0:0|0:0|0:0,0:0:0:0:
352,272,48297,5,2,0:0:0:0:
248,180,48517,1,2,0:0:0:0:
276,312,48738,1,0,0:0:0:0:
336,188,48958,1,2,0:0:0:0:
212,256,49179,2,0,P|152:256|112:228,1,85,0|2,0:0|0:0,0:0:0:0:
96,168,49620,6,0,P|156:168|196:196,1,85,0|0,0:0|0:0,0:0:0:0:
260,200,50061,2,0,P|276:136|380:124,1,170,2|0,0:0|0:0,0:0:0:0:
348,200,50723,2,0,L|240:68,1,170,2|0,0:0|0:0,0:0:0:0:
88,20,51385,1,2,0:0:0:0:
48,144,51605,1,0,0:0:0:0:
48,144,51716,1,2,0:0:0:0:
48,144,51826,5,4,0:0:0:0:
140,292,52267,2,0,P|208:300|236:288,1,85,2|0,0:0|0:0,0:0:0:0:
188,216,52708,2,0,P|244:200|268:172,1,85,2|0,0:0|0:0,0:0:0:0:
192,132,53149,2,0,P|232:92|244:48,1,85,2|0,0:0|0:0,0:0:0:0:
304,8,53591,2,0,P|324:72|408:112,1,127.5,2|0,0:0|0:0,0:0:0:0:
412,120,54032,2,0,L|416:220,1,85,2|0,0:0|0:0,0:0:0:0:
468,272,54473,2,0,P|364:272|348:252,2,127.5,2|2|0,0:0|0:0|0:0,0:0:0:0:
416,204,55355,6,0,P|352:176|272:236,1,170,2|0,0:0|0:0,0:0:0:0:
228,300,56017,2,0,P|176:320|96:248,1,170,2|2,0:0|0:0,0:0:0:0:
104,168,56679,1,0,0:0:0:0:
184,136,56899,1,0,0:0:0:0:
252,188,57120,2,0,P|320:188|372:100,1,170,2|0,0:0|0:0,0:0:0:0:
288,108,57782,2,0,P|320:176|376:260,1,170,2|0,0:0|0:0,0:0:0:0:
512,200,58444,1,2,0:0:0:0:
500,348,58664,1,0,0:0:0:0:
500,348,58774,1,2,0:0:0:0:
500,348,58885,5,4,0:0:0:0:
280,316,59326,2,0,P|224:292|208:272,1,85,2|0,0:0|0:0,0:0:0:0:
284,232,59767,2,0,P|252:200|244:148,1,85,2|0,0:0|0:0,0:0:0:0:
328,160,60208,2,0,P|332:100|352:76,1,85,2|0,0:0|0:0,0:0:0:0:
408,140,60649,2,0,P|400:212|356:248,1,127.5,2|0,0:0|0:0,0:0:0:0:
324,272,61091,2,0,P|296:296|276:344,1,85,2|0,0:0|0:0,0:0:0:0:
196,308,61532,2,0,P|228:240|272:200,2,127.5,2|2|0,0:0|0:0|0:0,0:0:0:0:
132,364,62414,6,0,P|64:336|64:240,1,170,2|0,0:0|0:0,0:0:0:0:
132,204,63076,2,0,P|200:232|200:328,1,170,2|2,0:0|0:0,0:0:0:0:
128,288,63738,2,0,L|280:204,1,170,0|2,0:0|0:0,0:0:0:0:
348,160,64399,5,2,0:0:0:0:
340,16,64620,1,0,0:0:0:0:
256,128,64841,1,2,0:0:0:0:
396,84,65061,1,0,0:0:0:0:
256,40,65282,1,2,0:0:0:0:
144,140,65502,1,0,0:0:0:0:
52,28,65723,1,0,0:0:0:0:
52,28,65833,1,2,0:0:0:0:
52,28,65944,5,4,0:0:0:0:
68,224,66385,2,0,P|128:272|216:256,1,170,2|2,0:0|0:0,0:0:0:0:
256,184,67047,1,0,0:0:0:0:
320,128,67267,2,0,P|406:112|466:160,1,170,2|2,0:0|0:0,0:0:0:0:
504,236,67929,1,0,0:0:0:0:
440,292,68149,2,0,P|353:307|293:259,1,170,2|2,0:0|0:0,0:0:0:0:
256,184,68811,1,0,0:0:0:0:
220,260,69032,6,0,P|160:308|73:292,1,170,2|6,0:0|0:0,0:0:0:0:
120,128,69914,1,0,0:0:0:0:
332,292,70355,1,6,0:0:0:0:
256,28,70797,1,0,1:0:0:0:
180,292,71238,1,6,0:0:0:0:
392,128,71679,1,0,0:0:0:0:
256,28,72120,2,0,B|232:104|276:128|256:200,1,170,6|0,0:0|0:0,0:0:0:0:
256,280,72782,1,0,0:0:0:0:
256,280,72892,1,0,0:0:0:0:
256,280,73002,5,4,0:0:0:0:
328,328,73223,1,0,0:0:0:0:
396,276,73444,2,0,L|464:236,4,42.5,8|0|0|0|8,0:0|0:0|0:0|0:0|0:0,0:0:0:0:
324,228,74105,1,0,0:0:0:0:
248,192,74326,2,0,L|180:152,4,42.5,8|0|0|0|8,0:0|0:0|0:0|0:0|0:0,0:0:0:0:
392,104,75208,1,8,0:0:0:0:
248,16,75649,1,8,0:0:0:0:
188,176,76091,1,8,0:0:0:0:
64,60,76532,6,0,L|4:12,4,42.5,8|0|0|0|8,0:0|0:0|0:0|0:0|0:0,0:0:0:0:
128,116,77194,1,0,0:0:0:0:
72,176,77414,2,0,L|12:224,4,42.5,8|0|0|0|8,0:0|0:0|0:0|0:0|0:0,0:0:0:0:
156,196,78076,1,0,0:0:0:0:
208,128,78297,2,0,L|268:80,4,42.5,8|0|0|0|8,0:0|0:0|0:0|0:0|0:0,0:0:0:0:
236,208,78958,1,0,0:0:0:0:
304,260,79179,2,0,L|364:308,4,42.5,8|0|0|0|8,0:0|0:0|0:0|0:0|0:0,0:0:0:0:
312,176,79841,1,0,0:0:0:0:
416,292,80061,6,0,P|372:360|328:364,1,127.5,8|0,0:0|0:0,0:0:0:0:
288,356,80502,2,0,B|277:333|277:333|252:329|252:329|244:311|244:311|221:312|221:312|209:292|209:292|187:290|187:290|168:266,3,170,8|8|8|8,0:0|0:0|0:0|0:0,0:0:0:0:
100,212,82047,1,0,0:0:0:0:
136,136,82267,1,8,0:0:0:0:
204,188,82488,1,0,0:0:0:0:
236,108,82708,1,8,0:0:0:0:
304,160,82929,1,0,0:0:0:0:
340,84,83149,1,8,0:0:0:0:
396,148,83370,1,0,0:0:0:0:
396,148,83480,1,0,0:0:0:0:
396,148,83591,6,0,L|428:104,4,42.5,8|0|0|0|8,0:0|0:0|0:0|0:0|0:0,0:0:0:0:
360,224,84252,1,0,0:0:0:0:
380,308,84473,2,0,L|412:352,4,42.5,8|0|0|0|8,0:0|0:0|0:0|0:0|0:0,0:0:0:0:
296,296,85135,1,0,0:0:0:0:
144,188,85355,5,4,2:0:0:0:
324,312,85649,1,0,1:0:0:0:
256,88,85944,1,0,1:0:0:0:
188,312,86238,1,4,2:0:0:0:
368,188,86532,1,0,1:0:0:0:
256,216,86826,1,4,2:0:0:0:
256,216,87120,5,4,1:0:0:0:
