osu file format v14

[General]
AudioFilename: [SDVX III] Hustle Beat!! [NOFX].mp3
AudioLeadIn: 0
PreviewTime: 3490
Countdown: 0
SampleSet: Normal
StackLeniency: 0.7
Mode: 3
LetterboxInBreaks: 0
SpecialStyle: 0
WidescreenStoryboard: 0

[Editor]
DistanceSpacing: 2
BeatDivisor: 4
GridSize: 16
TimelineZoom: 1.8

[Metadata]
Title:Hustle Beat!!
TitleUnicode:Hustle Beat!!
Artist:Toromaru
ArtistUnicode:とろまる
Creator:Starry-
Version:NOVICE Lv.9
Source:SOUND VOLTEX III GRAVITY WARS
Tags:sdvx 3rd gw bemani konami puxtu Ryu_Sei LNP-
BeatmapID:641989
BeatmapSetID:243494

[Difficulty]
HPDrainRate:7
CircleSize:4
OverallDifficulty:7
ApproachRate:5
SliderMultiplier:1.4
SliderTickRate:1

[Events]
//Background and Video events
0,0,"HustleBeat!!bg.png",0,0
//Break Periods
//Storyboard Layer 0 (Background)
//Storyboard Layer 1 (Fail)
//Storyboard Layer 2 (Pass)
//Storyboard Layer 3 (Foreground)
//Storyboard Sound Samples

[TimingPoints]
653,405.405405405405,4,1,1,35,1,0
3896,-100,4,1,1,35,0,1
16869,-100,4,1,1,35,0,0
87004,-100,4,1,1,35,0,1
106058,-100,4,1,1,35,0,0

[HitObjects]
64,192,653,5,2,0:0:0:0:
320,192,653,1,0,0:0:0:0:
448,192,1058,1,0,0:0:0:0:
192,192,1058,1,2,0:0:0:0:
320,192,1463,1,2,0:0:0:0:
192,192,1565,1,2,0:0:0:0:
64,192,1767,1,8,0:0:0:0:
192,192,1970,1,2,0:0:0:0:
320,192,2071,1,2,0:0:0:0:
64,192,2274,1,2,0:0:0:0:
448,192,2274,1,2,0:0:0:0:
320,192,2680,1,4,0:0:0:0:
192,192,2680,1,2,0:0:0:0:
64,192,3085,1,2,0:0:0:0:
448,192,3288,1,2,0:0:0:0:
64,192,3490,128,0,3896:0:0:0:0:
320,192,3490,1,8,0:0:0:0:
192,192,3693,1,2,0:0:0:0:
320,192,3896,1,2,0:0:0:0:
448,192,3896,128,4,5517:0:0:0:0:
192,192,4301,1,8,0:0:0:0:
64,192,4301,1,0,0:0:0:0:
64,192,4707,1,2,0:0:0:0:
320,192,5112,1,0,0:0:0:0:
192,192,5112,1,8,0:0:0:0:
64,192,5517,128,0,6328:0:0:0:0:
192,192,5517,1,2,0:0:0:0:
448,192,5923,1,0,0:0:0:0:
320,192,5923,1,8,0:0:0:0:
448,192,6328,128,0,7139:0:0:0:0:
192,192,6328,1,2,0:0:0:0:
192,192,6734,1,0,0:0:0:0:
320,192,6734,1,8,0:0:0:0:
64,192,7139,128,0,8761:0:0:0:0:
320,192,7139,1,2,0:0:0:0:
448,192,7544,1,0,0:0:0:0:
320,192,7544,1,8,0:0:0:0:
192,192,7950,1,2,0:0:0:0:
192,192,8355,1,0,0:0:0:0:
320,192,8355,1,8,0:0:0:0:
448,192,8761,1,0,0:0:0:0:
320,192,8761,1,2,0:0:0:0:
64,192,8963,1,2,0:0:0:0:
448,192,9166,1,8,0:0:0:0:
192,192,9369,1,2,0:0:0:0:
320,192,9470,1,2,0:0:0:0:
448,192,9571,1,2,0:0:0:0:
64,192,9571,1,0,0:0:0:0:
192,192,9875,1,8,0:0:0:0:
320,192,9875,1,0,0:0:0:0:
64,192,10180,1,0,0:0:0:0:
448,192,10180,1,2,0:0:0:0:
320,192,10382,128,2,12004:0:0:0:0:
192,192,10382,1,4,0:0:0:0:
64,192,10788,1,0,0:0:0:0:
448,192,10788,1,8,0:0:0:0:
64,192,11193,1,2,0:0:0:0:
192,192,11598,1,8,0:0:0:0:
448,192,11598,1,0,0:0:0:0:
64,192,12004,128,0,12815:0:0:0:0:
448,192,12004,1,2,0:0:0:0:
320,192,12409,1,8,0:0:0:0:
192,192,12409,1,0,0:0:0:0:
448,192,12815,128,0,13625:0:0:0:0:
192,192,12815,1,2,0:0:0:0:
64,192,13220,1,8,0:0:0:0:
320,192,13220,1,0,0:0:0:0:
192,192,13625,128,0,13828:0:0:0:0:
320,192,13625,1,2,0:0:0:0:
64,192,13828,128,0,15247:0:0:0:0:
320,192,14031,1,8,0:0:0:0:
448,192,14031,1,0,0:0:0:0:
192,192,14436,1,2,0:0:0:0:
320,192,14639,1,2,0:0:0:0:
448,192,14842,1,8,0:0:0:0:
320,192,14943,1,2,0:0:0:0:
192,192,15044,1,2,0:0:0:0:
448,192,15247,1,2,0:0:0:0:
320,192,15247,1,0,0:0:0:0:
192,192,15450,128,0,15652:0:0:0:0:
64,192,15652,1,8,0:0:0:0:
448,192,15652,1,0,0:0:0:0:
320,192,15855,1,0,0:0:0:0:
448,192,16058,1,2,0:0:0:0:
320,192,16159,1,0,0:0:0:0:
192,192,16261,1,8,0:0:0:0:
64,192,16362,1,2,0:0:0:0:
320,192,16565,1,2,0:0:0:0:
192,192,16666,1,2,0:0:0:0:
64,192,16869,1,2,0:0:0:0:
448,192,16869,1,4,0:0:0:0:
192,192,17274,1,8,0:0:0:0:
64,192,17274,1,0,0:0:0:0:
448,192,17477,1,2,0:0:0:0:
320,192,17680,1,0,0:0:0:0:
192,192,17781,1,0,0:0:0:0:
64,192,17882,1,2,0:0:0:0:
320,192,18085,1,0,0:0:0:0:
448,192,18085,1,8,0:0:0:0:
192,192,18490,1,0,0:0:0:0:
320,192,18490,1,2,0:0:0:0:
64,192,18896,1,0,0:0:0:0:
448,192,18896,1,8,0:0:0:0:
320,192,19200,1,2,0:0:0:0:
320,192,19504,1,2,0:0:0:0:
64,192,19707,128,0,19909:0:0:0:0:
448,192,19707,1,8,0:0:0:0:
192,192,19909,1,2,0:0:0:0:
320,192,20112,1,2,0:0:0:0:
448,192,20112,1,4,0:0:0:0:
64,192,20517,1,0,0:0:0:0:
448,192,20517,1,8,0:0:0:0:
320,192,20720,1,2,0:0:0:0:
64,192,20923,1,0,0:0:0:0:
192,192,21024,1,0,0:0:0:0:
320,192,21125,1,2,0:0:0:0:
448,192,21328,1,8,0:0:0:0:
64,192,21328,1,0,0:0:0:0:
192,192,21734,1,0,0:0:0:0:
320,192,21734,1,2,0:0:0:0:
448,192,22139,1,8,0:0:0:0:
64,192,22139,1,0,0:0:0:0:
192,192,22443,1,2,0:0:0:0:
192,192,22747,1,2,0:0:0:0:
64,192,22950,1,0,0:0:0:0:
448,192,22950,1,8,0:0:0:0:
320,192,23152,1,2,0:0:0:0:
192,192,23254,1,2,0:0:0:0:
64,192,23355,1,2,0:0:0:0:
448,192,23355,1,4,0:0:0:0:
320,192,23761,1,8,0:0:0:0:
192,192,23761,1,0,0:0:0:0:
64,192,23963,1,2,0:0:0:0:
448,192,24369,1,2,0:0:0:0:
320,192,24571,1,8,0:0:0:0:
192,192,24571,1,0,0:0:0:0:
64,192,24977,1,0,0:0:0:0:
448,192,24977,1,2,0:0:0:0:
64,192,25382,1,0,0:0:0:0:
192,192,25382,1,8,0:0:0:0:
320,192,25686,1,2,0:0:0:0:
320,192,25990,1,2,0:0:0:0:
64,192,26193,128,0,26396:0:0:0:0:
448,192,26193,1,8,0:0:0:0:
192,192,26396,1,2,0:0:0:0:
320,192,26598,1,2,0:0:0:0:
448,192,26598,1,4,0:0:0:0:
64,192,27004,1,0,0:0:0:0:
192,192,27004,1,8,0:0:0:0:
448,192,27207,1,2,0:0:0:0:
320,192,27612,1,2,0:0:0:0:
192,192,27612,1,0,0:0:0:0:
64,192,27815,1,0,0:0:0:0:
448,192,28017,1,2,0:0:0:0:
320,192,28119,1,2,0:0:0:0:
192,192,28220,1,2,0:0:0:0:
64,192,28220,1,0,0:0:0:0:
192,192,28625,1,0,0:0:0:0:
320,192,28625,1,8,0:0:0:0:
320,192,29031,1,0,0:0:0:0:
448,192,29031,1,2,0:0:0:0:
192,192,29436,1,2,0:0:0:0:
448,192,29436,1,0,0:0:0:0:
64,192,29639,128,2,29842:0:0:0:0:
192,192,29842,1,4,0:0:0:0:
320,192,29842,1,2,0:0:0:0:
448,192,30044,1,0,0:0:0:0:
320,192,30146,1,0,0:0:0:0:
192,192,30247,1,8,0:0:0:0:
320,192,30450,1,0,0:0:0:0:
320,192,30652,1,2,0:0:0:0:
64,192,30855,1,0,0:0:0:0:
192,192,30957,1,0,0:0:0:0:
320,192,31058,1,8,0:0:0:0:
192,192,31261,1,0,0:0:0:0:
192,192,31463,1,2,0:0:0:0:
64,192,31666,1,0,0:0:0:0:
320,192,31767,1,0,0:0:0:0:
448,192,31869,1,8,0:0:0:0:
192,192,32071,1,0,0:0:0:0:
448,192,32274,1,2,0:0:0:0:
64,192,32477,1,0,0:0:0:0:
320,192,32680,1,8,0:0:0:0:
192,192,32882,1,0,0:0:0:0:
320,192,33085,1,2,0:0:0:0:
448,192,33085,1,0,0:0:0:0:
64,192,33288,1,0,0:0:0:0:
192,192,33389,1,0,0:0:0:0:
320,192,33490,1,8,0:0:0:0:
64,192,33693,1,0,0:0:0:0:
64,192,33896,1,2,0:0:0:0:
192,192,34098,1,0,0:0:0:0:
320,192,34200,1,0,0:0:0:0:
448,192,34301,1,8,0:0:0:0:
192,192,34504,1,0,0:0:0:0:
192,192,34707,1,2,0:0:0:0:
448,192,34909,1,2,0:0:0:0:
320,192,35011,1,2,0:0:0:0:
192,192,35112,1,2,0:0:0:0:
64,192,35213,1,2,0:0:0:0:
448,192,35315,1,2,0:0:0:0:
192,192,35517,1,2,0:0:0:0:
64,192,35517,1,0,0:0:0:0:
320,192,35821,1,0,0:0:0:0:
448,192,35821,128,2,36328:0:0:0:0:
64,192,36328,1,4,0:0:0:0:
192,192,36328,1,2,0:0:0:0:
448,192,36531,1,0,0:0:0:0:
320,192,36632,1,0,0:0:0:0:
192,192,36734,1,8,0:0:0:0:
64,192,36936,1,0,0:0:0:0:
64,192,37139,1,2,0:0:0:0:
192,192,37342,1,0,0:0:0:0:
320,192,37443,1,0,0:0:0:0:
448,192,37544,1,8,0:0:0:0:
192,192,37747,1,0,0:0:0:0:
192,192,37950,1,2,0:0:0:0:
64,192,38152,1,0,0:0:0:0:
320,192,38254,1,0,0:0:0:0:
448,192,38355,1,8,0:0:0:0:
192,192,38558,1,0,0:0:0:0:
448,192,38761,1,2,0:0:0:0:
64,192,38963,1,0,0:0:0:0:
320,192,39166,1,8,0:0:0:0:
192,192,39369,1,0,0:0:0:0:
448,192,39571,1,2,0:0:0:0:
320,192,39571,1,0,0:0:0:0:
64,192,39774,1,0,0:0:0:0:
192,192,39875,1,0,0:0:0:0:
320,192,39977,1,8,0:0:0:0:
448,192,40180,1,0,0:0:0:0:
448,192,40382,1,2,0:0:0:0:
192,192,40585,1,0,0:0:0:0:
320,192,40686,1,0,0:0:0:0:
448,192,40788,1,8,0:0:0:0:
64,192,40990,1,0,0:0:0:0:
64,192,41193,1,2,0:0:0:0:
448,192,41396,1,0,0:0:0:0:
64,192,41598,1,2,0:0:0:0:
192,192,41700,1,2,0:0:0:0:
320,192,41801,1,2,0:0:0:0:
448,192,41902,1,2,0:0:0:0:
64,192,42004,1,2,0:0:0:0:
192,192,42105,1,2,0:0:0:0:
320,192,42308,1,0,0:0:0:0:
448,192,42308,1,8,0:0:0:0:
192,192,42511,1,2,0:0:0:0:
320,192,42612,1,2,0:0:0:0:
448,192,42815,128,2,43220:0:0:0:0:
64,192,42815,128,4,43220:0:0:0:0:
192,192,43220,1,0,0:0:0:0:
320,192,43220,1,2,0:0:0:0:
320,192,43625,1,0,0:0:0:0:
448,192,43625,1,2,0:0:0:0:
192,192,43930,1,0,0:0:0:0:
320,192,43930,1,8,0:0:0:0:
64,192,44234,1,0,0:0:0:0:
192,192,44234,1,2,0:0:0:0:
64,192,44639,1,2,0:0:0:0:
320,192,44639,1,0,0:0:0:0:
192,192,44842,1,2,0:0:0:0:
448,192,44842,1,0,0:0:0:0:
64,192,45044,128,0,45247:0:0:0:0:
448,192,45247,1,2,0:0:0:0:
320,192,45348,1,0,0:0:0:0:
192,192,45450,1,2,0:0:0:0:
64,192,45551,1,0,0:0:0:0:
448,192,45652,1,8,0:0:0:0:
320,192,45754,1,0,0:0:0:0:
192,192,45855,1,2,0:0:0:0:
64,192,45957,1,0,0:0:0:0:
192,192,46058,1,6,0:0:0:0:
320,192,46159,1,0,0:0:0:0:
448,192,46362,128,0,46565:0:0:0:0:
64,192,46565,1,0,0:0:0:0:
192,192,46666,1,0,0:0:0:0:
320,192,46869,1,2,0:0:0:0:
448,192,47071,1,0,0:0:0:0:
320,192,47274,128,0,47477:0:0:0:0:
192,192,47477,1,0,0:0:0:0:
64,192,47680,1,2,0:0:0:0:
192,192,47781,1,0,0:0:0:0:
320,192,47882,1,0,0:0:0:0:
448,192,47984,1,0,0:0:0:0:
64,192,48186,1,0,0:0:0:0:
192,192,48288,1,0,0:0:0:0:
320,192,48389,1,2,0:0:0:0:
448,192,48490,1,0,0:0:0:0:
320,192,48592,1,0,0:0:0:0:
192,192,48693,1,0,0:0:0:0:
64,192,48794,1,0,0:0:0:0:
448,192,48896,1,8,0:0:0:0:
320,192,48997,1,0,0:0:0:0:
448,192,49301,1,6,0:0:0:0:
320,192,49402,1,0,0:0:0:0:
192,192,49504,1,0,0:0:0:0:
64,192,49605,1,0,0:0:0:0:
320,192,49808,1,0,0:0:0:0:
192,192,49909,1,0,0:0:0:0:
320,192,50112,1,2,0:0:0:0:
448,192,50315,1,0,0:0:0:0:
64,192,50517,1,8,0:0:0:0:
192,192,50619,128,0,50923:0:0:0:0:
448,192,50923,1,2,0:0:0:0:
320,192,51024,1,0,0:0:0:0:
64,192,51125,1,0,0:0:0:0:
192,192,51227,1,0,0:0:0:0:
320,192,51328,1,8,0:0:0:0:
448,192,51531,1,0,0:0:0:0:
320,192,51632,1,0,0:0:0:0:
64,192,51835,1,0,0:0:0:0:
192,192,51936,1,0,0:0:0:0:
320,192,52038,1,0,0:0:0:0:
448,192,52139,1,8,0:0:0:0:
64,192,52240,1,2,0:0:0:0:
192,192,52342,1,8,0:0:0:0:
320,192,52544,1,6,0:0:0:0:
448,192,52646,1,0,0:0:0:0:
64,192,52848,128,0,53051:0:0:0:0:
192,192,53051,1,0,0:0:0:0:
320,192,53152,1,0,0:0:0:0:
64,192,53355,1,2,0:0:0:0:
448,192,53558,1,0,0:0:0:0:
320,192,53761,128,8,53963:0:0:0:0:
192,192,53963,1,0,0:0:0:0:
64,192,54166,1,2,0:0:0:0:
192,192,54267,1,0,0:0:0:0:
320,192,54369,1,0,0:0:0:0:
448,192,54470,1,0,0:0:0:0:
64,192,54673,1,0,0:0:0:0:
192,192,54774,1,0,0:0:0:0:
320,192,54875,1,0,0:0:0:0:
448,192,54977,1,2,0:0:0:0:
320,192,55078,1,0,0:0:0:0:
192,192,55180,1,0,0:0:0:0:
64,192,55281,1,0,0:0:0:0:
448,192,55382,1,8,0:0:0:0:
320,192,55484,1,0,0:0:0:0:
448,192,55788,1,6,0:0:0:0:
320,192,55889,1,0,0:0:0:0:
192,192,55990,1,0,0:0:0:0:
64,192,56092,1,0,0:0:0:0:
192,192,56294,1,0,0:0:0:0:
320,192,56396,1,0,0:0:0:0:
64,192,56598,1,2,0:0:0:0:
448,192,56801,1,0,0:0:0:0:
192,192,57004,1,8,0:0:0:0:
320,192,57105,128,0,57409:0:0:0:0:
64,192,57409,1,2,0:0:0:0:
192,192,57511,1,0,0:0:0:0:
448,192,57612,1,0,0:0:0:0:
320,192,57713,1,0,0:0:0:0:
192,192,57815,1,8,0:0:0:0:
64,192,58017,1,0,0:0:0:0:
192,192,58119,1,0,0:0:0:0:
448,192,58220,1,2,0:0:0:0:
320,192,58321,1,0,0:0:0:0:
192,192,58423,1,0,0:0:0:0:
448,192,58524,1,2,0:0:0:0:
320,192,58625,1,0,0:0:0:0:
192,192,58727,1,0,0:0:0:0:
64,192,58828,1,2,0:0:0:0:
320,192,59031,1,2,0:0:0:0:
448,192,59031,1,4,0:0:0:0:
64,192,59436,1,8,0:0:0:0:
448,192,59842,1,2,0:0:0:0:
192,192,60247,1,8,0:0:0:0:
64,192,60450,1,0,0:0:0:0:
320,192,60450,1,2,0:0:0:0:
192,192,60652,1,0,0:0:0:0:
448,192,60652,1,2,0:0:0:0:
320,192,61058,1,8,0:0:0:0:
64,192,61463,1,2,0:0:0:0:
448,192,61666,128,2,62274:0:0:0:0:
320,192,61666,128,0,62274:0:0:0:0:
192,192,62274,1,2,0:0:0:0:
64,192,62274,1,4,0:0:0:0:
192,192,62680,1,8,0:0:0:0:
448,192,63085,1,2,0:0:0:0:
320,192,63490,1,8,0:0:0:0:
192,192,63693,1,2,0:0:0:0:
64,192,63693,1,0,0:0:0:0:
320,192,63896,1,2,0:0:0:0:
448,192,63896,1,0,0:0:0:0:
320,192,64200,1,2,0:0:0:0:
64,192,64200,1,0,0:0:0:0:
192,192,64504,1,0,0:0:0:0:
448,192,64504,1,2,0:0:0:0:
320,192,64909,1,2,0:0:0:0:
64,192,64909,1,0,0:0:0:0:
64,192,65315,1,0,0:0:0:0:
320,192,65315,1,2,0:0:0:0:
192,192,65517,1,2,0:0:0:0:
448,192,65517,1,4,0:0:0:0:
320,192,65923,1,8,0:0:0:0:
64,192,66328,1,2,0:0:0:0:
448,192,66734,1,10,0:0:0:0:
192,192,66936,1,2,0:0:0:0:
64,192,66936,1,0,0:0:0:0:
320,192,67139,1,2,0:0:0:0:
448,192,67139,1,0,0:0:0:0:
192,192,67544,1,8,0:0:0:0:
320,192,67950,1,2,0:0:0:0:
448,192,68152,128,2,68761:0:0:0:0:
64,192,68152,128,0,68761:0:0:0:0:
192,192,68761,1,4,0:0:0:0:
320,192,68761,1,2,0:0:0:0:
64,192,69166,1,8,0:0:0:0:
448,192,69571,1,2,0:0:0:0:
64,192,69977,1,8,0:0:0:0:
192,192,70180,1,0,0:0:0:0:
320,192,70180,1,2,0:0:0:0:
64,192,70382,1,0,0:0:0:0:
448,192,70382,1,2,0:0:0:0:
64,192,70686,1,0,0:0:0:0:
320,192,70686,1,2,0:0:0:0:
192,192,70990,1,0,0:0:0:0:
448,192,70990,1,2,0:0:0:0:
448,192,71396,128,2,72004:0:0:0:0:
320,192,71396,128,0,72004:0:0:0:0:
64,192,72004,1,4,0:0:0:0:
192,192,72004,1,2,0:0:0:0:
320,192,72409,1,0,0:0:0:0:
448,192,72409,1,8,0:0:0:0:
64,192,72612,1,2,0:0:0:0:
192,192,73017,1,2,0:0:0:0:
320,192,73220,1,0,0:0:0:0:
448,192,73220,1,8,0:0:0:0:
64,192,73423,1,2,0:0:0:0:
64,192,73625,1,2,0:0:0:0:
192,192,74031,1,0,0:0:0:0:
320,192,74031,1,8,0:0:0:0:
64,192,74234,1,2,0:0:0:0:
448,192,74436,1,0,0:0:0:0:
320,192,74538,1,0,0:0:0:0:
192,192,74639,1,2,0:0:0:0:
320,192,74842,1,0,0:0:0:0:
448,192,74842,1,8,0:0:0:0:
64,192,75044,1,2,0:0:0:0:
64,192,75247,1,2,0:0:0:0:
448,192,75652,1,0,0:0:0:0:
320,192,75652,1,8,0:0:0:0:
192,192,75855,1,2,0:0:0:0:
64,192,76261,1,2,0:0:0:0:
192,192,76463,1,0,0:0:0:0:
320,192,76463,1,8,0:0:0:0:
448,192,76666,1,2,0:0:0:0:
448,192,76869,1,2,0:0:0:0:
320,192,77274,1,0,0:0:0:0:
192,192,77274,1,8,0:0:0:0:
64,192,77477,1,2,0:0:0:0:
448,192,77680,1,0,0:0:0:0:
320,192,77781,1,0,0:0:0:0:
192,192,77882,1,2,0:0:0:0:
320,192,78085,1,0,0:0:0:0:
448,192,78085,1,8,0:0:0:0:
64,192,78288,1,2,0:0:0:0:
192,192,78490,1,2,0:0:0:0:
320,192,78490,1,4,0:0:0:0:
448,192,78896,1,8,0:0:0:0:
64,192,78896,1,0,0:0:0:0:
320,192,79098,1,2,0:0:0:0:
320,192,79504,1,2,0:0:0:0:
64,192,79707,1,0,0:0:0:0:
448,192,79707,1,8,0:0:0:0:
192,192,79909,1,2,0:0:0:0:
192,192,80112,1,2,0:0:0:0:
320,192,80517,1,8,0:0:0:0:
448,192,80517,1,0,0:0:0:0:
64,192,80720,1,2,0:0:0:0:
448,192,80923,1,0,0:0:0:0:
320,192,81024,1,0,0:0:0:0:
192,192,81125,1,2,0:0:0:0:
64,192,81328,1,0,0:0:0:0:
448,192,81328,1,8,0:0:0:0:
320,192,81531,1,2,0:0:0:0:
320,192,81734,1,2,0:0:0:0:
64,192,82139,1,0,0:0:0:0:
192,192,82139,1,8,0:0:0:0:
448,192,82342,1,2,0:0:0:0:
64,192,82747,1,2,0:0:0:0:
448,192,82950,1,0,0:0:0:0:
192,192,82950,1,8,0:0:0:0:
320,192,83152,1,2,0:0:0:0:
448,192,83355,1,2,0:0:0:0:
64,192,83355,1,4,0:0:0:0:
64,192,83659,1,0,0:0:0:0:
448,192,83659,1,2,0:0:0:0:
192,192,83963,1,0,0:0:0:0:
320,192,83963,1,2,0:0:0:0:
192,192,84267,1,0,0:0:0:0:
320,192,84267,1,2,0:0:0:0:
320,192,84571,1,2,0:0:0:0:
448,192,84571,1,0,0:0:0:0:
192,192,84774,1,2,0:0:0:0:
64,192,84774,1,0,0:0:0:0:
320,192,84977,1,2,0:0:0:0:
448,192,84977,1,0,0:0:0:0:
192,192,85382,1,8,0:0:0:0:
448,192,85788,128,2,86193:0:0:0:0:
64,192,86193,1,8,0:0:0:0:
64,192,86598,1,0,0:0:0:0:
192,192,86700,1,0,0:0:0:0:
320,192,86801,1,0,0:0:0:0:
448,192,86902,1,0,0:0:0:0:
192,192,87004,1,8,0:0:0:0:
64,192,87004,128,4,88220:0:0:0:0:
320,192,87409,1,2,0:0:0:0:
192,192,87815,1,0,0:0:0:0:
448,192,87815,1,8,0:0:0:0:
448,192,88220,128,2,89031:0:0:0:0:
320,192,88220,1,0,0:0:0:0:
320,192,88625,1,8,0:0:0:0:
64,192,88625,1,0,0:0:0:0:
64,192,89031,128,0,89842:0:0:0:0:
192,192,89031,1,2,0:0:0:0:
192,192,89436,1,0,0:0:0:0:
448,192,89436,1,8,0:0:0:0:
192,192,89842,128,0,90652:0:0:0:0:
320,192,89842,1,2,0:0:0:0:
448,192,90247,1,8,0:0:0:0:
64,192,90247,1,0,0:0:0:0:
320,192,90652,128,0,91463:0:0:0:0:
448,192,90652,1,2,0:0:0:0:
192,192,91058,1,8,0:0:0:0:
64,192,91058,1,0,0:0:0:0:
64,192,91463,1,0,0:0:0:0:
448,192,91463,1,2,0:0:0:0:
192,192,91666,1,2,0:0:0:0:
448,192,91869,1,8,0:0:0:0:
64,192,91869,1,0,0:0:0:0:
320,192,92071,1,2,0:0:0:0:
64,192,92274,1,0,0:0:0:0:
192,192,92274,1,2,0:0:0:0:
448,192,92578,1,0,0:0:0:0:
320,192,92578,1,2,0:0:0:0:
64,192,92882,1,0,0:0:0:0:
192,192,92882,1,2,0:0:0:0:
448,192,93085,128,4,93896:0:0:0:0:
320,192,93085,1,2,0:0:0:0:
64,192,93490,1,0,0:0:0:0:
320,192,93490,1,8,0:0:0:0:
192,192,93896,128,2,94707:0:0:0:0:
64,192,93896,1,0,0:0:0:0:
320,192,94301,1,8,0:0:0:0:
448,192,94301,1,0,0:0:0:0:
64,192,94707,128,2,95517:0:0:0:0:
448,192,94707,1,0,0:0:0:0:
320,192,95112,1,8,0:0:0:0:
192,192,95112,1,0,0:0:0:0:
320,192,95517,128,0,96328:0:0:0:0:
448,192,95517,1,2,0:0:0:0:
192,192,95923,1,8,0:0:0:0:
64,192,95923,1,0,0:0:0:0:
448,192,96328,128,2,97139:0:0:0:0:
64,192,96328,1,0,0:0:0:0:
192,192,96734,1,0,0:0:0:0:
320,192,96734,1,8,0:0:0:0:
192,192,97139,128,2,97950:0:0:0:0:
64,192,97139,1,0,0:0:0:0:
320,192,97544,1,8,0:0:0:0:
448,192,97544,1,0,0:0:0:0:
320,192,97950,1,2,0:0:0:0:
448,192,98152,1,2,0:0:0:0:
64,192,98355,1,2,0:0:0:0:
192,192,98457,1,2,0:0:0:0:
320,192,98558,1,2,0:0:0:0:
448,192,98659,1,2,0:0:0:0:
192,192,98761,1,2,0:0:0:0:
64,192,98761,1,0,0:0:0:0:
320,192,99065,1,2,0:0:0:0:
448,192,99065,1,0,0:0:0:0:
192,192,99369,1,2,0:0:0:0:
64,192,99369,1,0,0:0:0:0:
448,192,99571,128,4,101193:0:0:0:0:
320,192,99571,1,2,0:0:0:0:
64,192,99977,1,0,0:0:0:0:
192,192,100382,1,0,0:0:0:0:
320,192,100788,1,2,0:0:0:0:
192,192,100788,1,0,0:0:0:0:
64,192,101193,1,0,0:0:0:0:
320,192,101193,1,2,0:0:0:0:
192,192,101598,1,0,0:0:0:0:
320,192,102004,1,0,0:0:0:0:
448,192,102409,128,2,102815:0:0:0:0:
320,192,102815,1,2,0:0:0:0:
64,192,102815,1,0,0:0:0:0:
192,192,103220,1,0,0:0:0:0:
448,192,103220,1,2,0:0:0:0:
320,192,103625,1,2,0:0:0:0:
192,192,103727,1,2,0:0:0:0:
64,192,103930,1,2,0:0:0:0:
192,192,104132,1,2,0:0:0:0:
320,192,104234,1,2,0:0:0:0:
64,192,104436,1,2,0:0:0:0:
448,192,104436,1,0,0:0:0:0:
64,192,104842,128,4,106058:0:0:0:0:
448,192,104842,1,2,0:0:0:0:
192,192,105247,1,2,0:0:0:0:
448,192,105450,1,2,0:0:0:0:
320,192,105652,1,8,0:0:0:0:
192,192,105855,1,2,0:0:0:0:
448,192,106058,128,2,106869:0:0:0:0:
320,192,106058,128,4,106869:0:0:0:0:
