osu file format v14

[General]
AudioFilename: [SDVX III] Hustle Beat!! [NOFX].mp3
AudioLeadIn: 0
PreviewTime: 3490
Countdown: 0
SampleSet: Normal
StackLeniency: 0.7
Mode: 3
LetterboxInBreaks: 0
SpecialStyle: 0
WidescreenStoryboard: 0

[Editor]
DistanceSpacing: 2
BeatDivisor: 4
GridSize: 16
TimelineZoom: 2

[Metadata]
Title:Hustle Beat!!
TitleUnicode:Hustle Beat!!
Artist:Toromaru
ArtistUnicode:とろまる
Creator:Starry-
Version:EXHAUST Lv.14
Source:SOUND VOLTEX III GRAVITY WARS
Tags:sdvx 3rd gw bemani konami puxtu Ryu_Sei LNP-
BeatmapID:561644
BeatmapSetID:243494

[Difficulty]
HPDrainRate:8
CircleSize:4
OverallDifficulty:8
ApproachRate:5
SliderMultiplier:1.4
SliderTickRate:1

[Events]
//Background and Video events
0,0,"HustleBeat!!bg.png",0,0
//Break Periods
//Storyboard Layer 0 (Background)
//Storyboard Layer 1 (Fail)
//Storyboard Layer 2 (Pass)
//Storyboard Layer 3 (Foreground)
//Storyboard Sound Samples

[TimingPoints]
653,405.405405405405,4,1,1,35,1,0
3896,-100,4,1,1,35,0,1
16869,-100,4,1,1,35,0,0
87004,-100,4,1,1,35,0,1
106058,-100,4,1,1,35,0,0

[HitObjects]
448,192,653,128,0,855:0:0:0:0:
64,192,653,128,2,855:0:0:0:0:
192,192,653,128,2,855:0:0:0:0:
64,192,1058,128,0,1261:0:0:0:0:
448,192,1058,128,2,1261:0:0:0:0:
320,192,1058,128,2,1261:0:0:0:0:
64,192,1463,128,2,1565:0:0:0:0:
448,192,1463,1,2,0:0:0:0:
192,192,1565,1,2,0:0:0:0:
320,192,1565,128,2,1767:0:0:0:0:
448,192,1767,128,8,1970:0:0:0:0:
64,192,1767,1,8,0:0:0:0:
320,192,1970,1,2,0:0:0:0:
192,192,1970,128,2,2071:0:0:0:0:
448,192,2071,1,2,0:0:0:0:
64,192,2071,128,2,2274:0:0:0:0:
192,192,2274,1,2,0:0:0:0:
320,192,2274,1,2,0:0:0:0:
448,192,2274,1,0,0:0:0:0:
64,192,2477,1,0,0:0:0:0:
192,192,2527,1,0,0:0:0:0:
320,192,2578,1,0,0:0:0:0:
448,192,2629,1,0,0:0:0:0:
192,192,2680,1,2,0:0:0:0:
320,192,2680,1,2,0:0:0:0:
64,192,2680,128,4,3490:0:0:0:0:
320,192,3085,1,2,0:0:0:0:
448,192,3186,1,2,0:0:0:0:
320,192,3237,1,2,0:0:0:0:
192,192,3288,1,2,0:0:0:0:
320,192,3490,1,8,0:0:0:0:
448,192,3490,1,8,0:0:0:0:
192,192,3592,1,0,0:0:0:0:
64,192,3693,1,0,0:0:0:0:
192,192,3794,1,0,0:0:0:0:
320,192,3896,1,2,0:0:0:0:
448,192,3896,128,4,5315:0:0:0:0:
64,192,3896,1,6,0:0:0:0:
192,192,4098,1,0,0:0:0:0:
320,192,4200,1,0,0:0:0:0:
192,192,4301,1,8,0:0:0:0:
64,192,4301,1,8,0:0:0:0:
320,192,4504,1,0,0:0:0:0:
192,192,4605,1,0,0:0:0:0:
320,192,4707,1,2,0:0:0:0:
64,192,4707,1,2,0:0:0:0:
192,192,4808,1,0,0:0:0:0:
64,192,4909,1,0,0:0:0:0:
320,192,5112,1,8,0:0:0:0:
192,192,5112,1,8,0:0:0:0:
64,192,5315,1,0,0:0:0:0:
320,192,5382,1,0,0:0:0:0:
192,192,5450,1,0,0:0:0:0:
64,192,5517,128,2,6328:0:0:0:0:
448,192,5517,1,2,0:0:0:0:
192,192,5720,1,0,0:0:0:0:
320,192,5821,1,0,0:0:0:0:
448,192,5923,1,8,0:0:0:0:
192,192,5923,1,8,0:0:0:0:
448,192,6125,1,0,0:0:0:0:
320,192,6227,1,0,0:0:0:0:
448,192,6328,128,2,6936:0:0:0:0:
192,192,6328,1,2,0:0:0:0:
320,192,6430,1,0,0:0:0:0:
64,192,6531,1,0,0:0:0:0:
64,192,6734,1,8,0:0:0:0:
192,192,6734,1,8,0:0:0:0:
320,192,6936,128,0,7071:0:0:0:0:
192,192,7071,128,0,7139:0:0:0:0:
64,192,7139,128,2,8761:0:0:0:0:
448,192,7139,1,2,0:0:0:0:
320,192,7342,1,0,0:0:0:0:
448,192,7443,1,0,0:0:0:0:
192,192,7544,1,8,0:0:0:0:
320,192,7544,1,8,0:0:0:0:
448,192,7747,1,0,0:0:0:0:
320,192,7848,1,0,0:0:0:0:
192,192,7950,1,2,0:0:0:0:
448,192,7950,1,2,0:0:0:0:
320,192,8051,1,0,0:0:0:0:
192,192,8152,1,0,0:0:0:0:
320,192,8355,1,8,0:0:0:0:
448,192,8355,1,8,0:0:0:0:
192,192,8558,1,0,0:0:0:0:
448,192,8659,1,0,0:0:0:0:
320,192,8761,1,2,0:0:0:0:
192,192,8761,1,2,0:0:0:0:
64,192,8963,1,2,0:0:0:0:
448,192,8963,1,2,0:0:0:0:
192,192,9065,1,0,0:0:0:0:
448,192,9166,1,8,0:0:0:0:
64,192,9166,1,8,0:0:0:0:
320,192,9267,1,0,0:0:0:0:
192,192,9369,1,2,0:0:0:0:
64,192,9470,1,2,0:0:0:0:
320,192,9470,1,2,0:0:0:0:
448,192,9571,1,2,0:0:0:0:
192,192,9571,1,2,0:0:0:0:
320,192,9673,1,0,0:0:0:0:
192,192,9774,1,2,0:0:0:0:
64,192,9774,1,2,0:0:0:0:
448,192,9875,1,8,0:0:0:0:
320,192,9875,1,8,0:0:0:0:
64,192,10078,1,2,0:0:0:0:
448,192,10078,1,2,0:0:0:0:
192,192,10180,1,8,0:0:0:0:
320,192,10281,1,0,0:0:0:0:
448,192,10382,128,4,11801:0:0:0:0:
64,192,10382,1,2,0:0:0:0:
192,192,10382,1,2,0:0:0:0:
192,192,10585,1,0,0:0:0:0:
64,192,10686,1,0,0:0:0:0:
192,192,10788,1,8,0:0:0:0:
320,192,10788,1,8,0:0:0:0:
64,192,10990,1,0,0:0:0:0:
192,192,11092,1,0,0:0:0:0:
320,192,11193,1,2,0:0:0:0:
64,192,11193,1,2,0:0:0:0:
192,192,11294,1,0,0:0:0:0:
320,192,11396,1,0,0:0:0:0:
64,192,11598,1,8,0:0:0:0:
192,192,11598,1,8,0:0:0:0:
64,192,11801,1,0,0:0:0:0:
320,192,11869,1,0,0:0:0:0:
192,192,11936,1,0,0:0:0:0:
64,192,12004,128,2,12815:0:0:0:0:
448,192,12004,1,2,0:0:0:0:
320,192,12207,1,0,0:0:0:0:
448,192,12308,1,0,0:0:0:0:
320,192,12409,1,8,0:0:0:0:
192,192,12409,1,8,0:0:0:0:
448,192,12612,1,0,0:0:0:0:
320,192,12713,1,0,0:0:0:0:
448,192,12815,128,2,13423:0:0:0:0:
192,192,12815,1,2,0:0:0:0:
320,192,12916,1,0,0:0:0:0:
192,192,13017,1,0,0:0:0:0:
320,192,13220,1,8,0:0:0:0:
64,192,13220,1,8,0:0:0:0:
320,192,13423,128,0,13558:0:0:0:0:
192,192,13558,128,0,13625:0:0:0:0:
448,192,13625,128,2,13828:0:0:0:0:
64,192,13625,1,2,0:0:0:0:
64,192,13828,128,0,15247:0:0:0:0:
192,192,13828,1,0,0:0:0:0:
320,192,13930,1,0,0:0:0:0:
448,192,14031,1,8,0:0:0:0:
192,192,14031,1,8,0:0:0:0:
320,192,14234,1,0,0:0:0:0:
192,192,14335,1,0,0:0:0:0:
320,192,14436,1,2,0:0:0:0:
448,192,14436,1,2,0:0:0:0:
192,192,14639,1,2,0:0:0:0:
448,192,14639,1,2,0:0:0:0:
320,192,14842,1,8,0:0:0:0:
448,192,14842,1,8,0:0:0:0:
192,192,14943,1,2,0:0:0:0:
320,192,15044,1,2,0:0:0:0:
448,192,15044,1,2,0:0:0:0:
192,192,15247,1,2,0:0:0:0:
448,192,15247,128,2,15450:0:0:0:0:
64,192,15450,1,2,0:0:0:0:
192,192,15500,1,2,0:0:0:0:
320,192,15551,1,2,0:0:0:0:
448,192,15602,1,2,0:0:0:0:
192,192,15652,1,8,0:0:0:0:
64,192,15652,1,8,0:0:0:0:
64,192,15855,1,0,0:0:0:0:
320,192,15855,1,0,0:0:0:0:
192,192,16058,1,2,0:0:0:0:
448,192,16058,1,2,0:0:0:0:
64,192,16159,1,0,0:0:0:0:
320,192,16159,1,0,0:0:0:0:
192,192,16261,1,8,0:0:0:0:
448,192,16261,1,8,0:0:0:0:
64,192,16362,1,2,0:0:0:0:
320,192,16362,1,2,0:0:0:0:
320,192,16565,1,2,0:0:0:0:
448,192,16565,1,2,0:0:0:0:
192,192,16666,1,2,0:0:0:0:
64,192,16666,1,2,0:0:0:0:
448,192,16869,1,2,0:0:0:0:
192,192,16869,1,2,0:0:0:0:
64,192,16869,128,4,17071:0:0:0:0:
192,192,17071,128,0,17274:0:0:0:0:
320,192,17274,128,8,17477:0:0:0:0:
448,192,17274,1,8,0:0:0:0:
64,192,17477,128,2,17612:0:0:0:0:
192,192,17612,128,0,17747:0:0:0:0:
448,192,17680,1,0,0:0:0:0:
320,192,17747,128,0,17815:0:0:0:0:
64,192,17815,128,0,17882:0:0:0:0:
448,192,17882,128,2,18085:0:0:0:0:
192,192,17882,1,2,0:0:0:0:
64,192,18085,128,8,18186:0:0:0:0:
192,192,18085,1,8,0:0:0:0:
320,192,18186,128,0,18288:0:0:0:0:
192,192,18288,128,0,18389:0:0:0:0:
448,192,18389,128,0,18490:0:0:0:0:
64,192,18490,1,2,0:0:0:0:
320,192,18490,1,2,0:0:0:0:
192,192,18592,1,0,0:0:0:0:
320,192,18693,1,0,0:0:0:0:
64,192,18794,1,0,0:0:0:0:
448,192,18896,1,8,0:0:0:0:
192,192,18896,1,8,0:0:0:0:
320,192,18997,1,0,0:0:0:0:
192,192,19098,1,0,0:0:0:0:
64,192,19200,1,2,0:0:0:0:
320,192,19301,1,0,0:0:0:0:
448,192,19301,1,0,0:0:0:0:
192,192,19402,1,0,0:0:0:0:
64,192,19504,1,2,0:0:0:0:
192,192,19605,1,0,0:0:0:0:
448,192,19707,1,8,0:0:0:0:
64,192,19707,1,8,0:0:0:0:
320,192,19774,1,8,0:0:0:0:
192,192,19842,1,8,0:0:0:0:
448,192,19909,1,2,0:0:0:0:
64,192,19909,1,2,0:0:0:0:
320,192,20061,128,0,20365:0:0:0:0:
192,192,20061,128,0,20365:0:0:0:0:
448,192,20365,1,0,0:0:0:0:
64,192,20365,1,0,0:0:0:0:
320,192,20517,1,8,0:0:0:0:
192,192,20517,1,8,0:0:0:0:
192,192,20720,1,2,0:0:0:0:
320,192,20720,1,2,0:0:0:0:
64,192,20821,1,0,0:0:0:0:
448,192,20821,1,0,0:0:0:0:
320,192,20923,1,0,0:0:0:0:
192,192,21024,1,0,0:0:0:0:
64,192,21125,1,2,0:0:0:0:
448,192,21125,1,2,0:0:0:0:
448,192,21328,1,8,0:0:0:0:
64,192,21328,1,8,0:0:0:0:
192,192,21396,1,0,0:0:0:0:
320,192,21463,1,0,0:0:0:0:
448,192,21531,1,0,0:0:0:0:
64,192,21531,1,0,0:0:0:0:
192,192,21598,1,0,0:0:0:0:
320,192,21666,1,0,0:0:0:0:
448,192,21734,1,2,0:0:0:0:
64,192,21734,1,2,0:0:0:0:
192,192,21835,1,0,0:0:0:0:
320,192,21936,1,0,0:0:0:0:
192,192,22038,1,0,0:0:0:0:
448,192,22139,1,8,0:0:0:0:
64,192,22139,1,8,0:0:0:0:
320,192,22240,128,0,22443:0:0:0:0:
192,192,22443,1,2,0:0:0:0:
64,192,22443,1,2,0:0:0:0:
448,192,22544,1,0,0:0:0:0:
320,192,22646,1,0,0:0:0:0:
64,192,22747,1,2,0:0:0:0:
448,192,22747,1,2,0:0:0:0:
192,192,22848,1,0,0:0:0:0:
64,192,22950,1,8,0:0:0:0:
320,192,22950,1,8,0:0:0:0:
192,192,23152,1,2,0:0:0:0:
448,192,23152,1,2,0:0:0:0:
320,192,23254,1,2,0:0:0:0:
448,192,23355,1,4,0:0:0:0:
64,192,23355,128,6,23507:0:0:0:0:
192,192,23507,128,0,23609:0:0:0:0:
320,192,23609,1,0,0:0:0:0:
448,192,23659,128,0,23896:0:0:0:0:
64,192,23761,1,8,0:0:0:0:
192,192,23761,1,8,0:0:0:0:
192,192,23896,1,0,0:0:0:0:
320,192,23963,1,2,0:0:0:0:
64,192,23963,1,2,0:0:0:0:
64,192,24166,1,0,0:0:0:0:
448,192,24166,1,0,0:0:0:0:
320,192,24267,1,0,0:0:0:0:
192,192,24369,1,2,0:0:0:0:
64,192,24369,1,2,0:0:0:0:
320,192,24571,1,8,0:0:0:0:
448,192,24571,128,8,24977:0:0:0:0:
192,192,24774,1,0,0:0:0:0:
64,192,24875,1,0,0:0:0:0:
192,192,24977,1,2,0:0:0:0:
320,192,24977,1,2,0:0:0:0:
64,192,25180,1,0,0:0:0:0:
320,192,25247,1,0,0:0:0:0:
192,192,25315,1,0,0:0:0:0:
448,192,25382,1,8,0:0:0:0:
64,192,25382,1,8,0:0:0:0:
320,192,25585,1,0,0:0:0:0:
448,192,25652,1,0,0:0:0:0:
320,192,25720,1,0,0:0:0:0:
192,192,25788,1,0,0:0:0:0:
64,192,25788,1,0,0:0:0:0:
320,192,25889,1,8,0:0:0:0:
448,192,25889,1,8,0:0:0:0:
192,192,25990,1,2,0:0:0:0:
64,192,25990,1,2,0:0:0:0:
320,192,26092,1,0,0:0:0:0:
448,192,26193,1,8,0:0:0:0:
64,192,26193,1,8,0:0:0:0:
320,192,26261,1,8,0:0:0:0:
192,192,26328,1,8,0:0:0:0:
448,192,26396,1,2,0:0:0:0:
64,192,26396,1,2,0:0:0:0:
192,192,26531,1,0,0:0:0:0:
448,192,26598,1,6,0:0:0:0:
320,192,26598,1,2,0:0:0:0:
192,192,26734,1,0,0:0:0:0:
64,192,26801,128,0,27004:0:0:0:0:
448,192,27004,1,8,0:0:0:0:
320,192,27004,1,8,0:0:0:0:
192,192,27105,1,0,0:0:0:0:
64,192,27207,1,2,0:0:0:0:
320,192,27207,1,2,0:0:0:0:
448,192,27308,128,0,27511:0:0:0:0:
320,192,27511,1,0,0:0:0:0:
64,192,27612,1,2,0:0:0:0:
192,192,27612,1,2,0:0:0:0:
320,192,27815,1,8,0:0:0:0:
448,192,27815,128,8,28017:0:0:0:0:
192,192,28017,1,2,0:0:0:0:
64,192,28017,1,2,0:0:0:0:
320,192,28119,1,2,0:0:0:0:
64,192,28220,1,2,0:0:0:0:
448,192,28220,1,2,0:0:0:0:
320,192,28288,1,0,0:0:0:0:
192,192,28355,1,0,0:0:0:0:
448,192,28423,1,0,0:0:0:0:
320,192,28490,1,0,0:0:0:0:
192,192,28558,1,0,0:0:0:0:
64,192,28625,1,8,0:0:0:0:
448,192,28625,1,8,0:0:0:0:
192,192,28693,1,0,0:0:0:0:
320,192,28761,1,0,0:0:0:0:
64,192,28828,1,2,0:0:0:0:
192,192,28896,1,0,0:0:0:0:
320,192,28963,1,0,0:0:0:0:
448,192,29031,1,8,0:0:0:0:
64,192,29031,1,8,0:0:0:0:
320,192,29132,1,2,0:0:0:0:
192,192,29234,1,2,0:0:0:0:
320,192,29335,1,2,0:0:0:0:
64,192,29436,1,2,0:0:0:0:
448,192,29436,1,2,0:0:0:0:
192,192,29538,1,0,0:0:0:0:
448,192,29639,1,2,0:0:0:0:
320,192,29690,1,2,0:0:0:0:
192,192,29740,1,2,0:0:0:0:
64,192,29791,1,2,0:0:0:0:
448,192,29842,1,2,0:0:0:0:
320,192,29842,1,6,0:0:0:0:
192,192,29943,1,0,0:0:0:0:
320,192,30044,1,0,0:0:0:0:
448,192,30146,128,0,30450:0:0:0:0:
64,192,30247,1,8,0:0:0:0:
192,192,30247,1,8,0:0:0:0:
320,192,30450,1,0,0:0:0:0:
64,192,30652,1,2,0:0:0:0:
448,192,30652,1,2,0:0:0:0:
192,192,30754,1,0,0:0:0:0:
448,192,30855,1,0,0:0:0:0:
320,192,30957,128,0,31261:0:0:0:0:
64,192,31058,1,8,0:0:0:0:
192,192,31058,1,8,0:0:0:0:
448,192,31261,1,0,0:0:0:0:
64,192,31463,1,2,0:0:0:0:
448,192,31463,1,2,0:0:0:0:
192,192,31565,1,0,0:0:0:0:
320,192,31666,1,0,0:0:0:0:
448,192,31767,128,0,31970:0:0:0:0:
64,192,31869,1,8,0:0:0:0:
192,192,31869,1,8,0:0:0:0:
320,192,31970,128,0,32071:0:0:0:0:
448,192,32071,128,0,32274:0:0:0:0:
64,192,32274,1,2,0:0:0:0:
320,192,32274,1,2,0:0:0:0:
192,192,32375,1,0,0:0:0:0:
64,192,32477,1,0,0:0:0:0:
448,192,32680,1,8,0:0:0:0:
192,192,32680,1,8,0:0:0:0:
320,192,32781,1,0,0:0:0:0:
64,192,32882,1,0,0:0:0:0:
192,192,32984,1,0,0:0:0:0:
448,192,33085,1,2,0:0:0:0:
64,192,33085,1,2,0:0:0:0:
192,192,33186,1,0,0:0:0:0:
320,192,33288,1,0,0:0:0:0:
448,192,33389,128,0,33693:0:0:0:0:
64,192,33490,1,8,0:0:0:0:
192,192,33490,1,8,0:0:0:0:
320,192,33693,1,0,0:0:0:0:
64,192,33896,1,2,0:0:0:0:
448,192,33896,1,2,0:0:0:0:
192,192,33997,1,0,0:0:0:0:
448,192,34098,1,0,0:0:0:0:
320,192,34200,128,0,34504:0:0:0:0:
192,192,34301,1,8,0:0:0:0:
64,192,34301,1,8,0:0:0:0:
448,192,34504,1,0,0:0:0:0:
64,192,34707,1,2,0:0:0:0:
448,192,34707,1,2,0:0:0:0:
192,192,34808,1,0,0:0:0:0:
320,192,34909,1,2,0:0:0:0:
192,192,35011,1,2,0:0:0:0:
448,192,35011,128,0,35213:0:0:0:0:
64,192,35112,1,2,0:0:0:0:
192,192,35213,1,2,0:0:0:0:
320,192,35213,1,2,0:0:0:0:
64,192,35315,1,2,0:0:0:0:
448,192,35315,1,2,0:0:0:0:
192,192,35517,1,2,0:0:0:0:
320,192,35517,1,2,0:0:0:0:
448,192,35517,1,0,0:0:0:0:
320,192,35720,1,0,0:0:0:0:
192,192,35821,1,2,0:0:0:0:
448,192,35821,1,2,0:0:0:0:
64,192,35821,128,0,36227:0:0:0:0:
192,192,36125,1,2,0:0:0:0:
320,192,36227,1,2,0:0:0:0:
448,192,36328,1,4,0:0:0:0:
64,192,36328,1,6,0:0:0:0:
192,192,36328,1,2,0:0:0:0:
320,192,36430,1,0,0:0:0:0:
192,192,36531,1,0,0:0:0:0:
64,192,36632,128,0,36936:0:0:0:0:
448,192,36734,1,8,0:0:0:0:
320,192,36734,1,8,0:0:0:0:
192,192,36936,1,0,0:0:0:0:
64,192,37139,1,2,0:0:0:0:
448,192,37139,1,2,0:0:0:0:
320,192,37240,1,0,0:0:0:0:
64,192,37342,1,0,0:0:0:0:
192,192,37443,128,0,37747:0:0:0:0:
320,192,37544,1,8,0:0:0:0:
448,192,37544,1,8,0:0:0:0:
64,192,37747,1,0,0:0:0:0:
448,192,37950,1,2,0:0:0:0:
64,192,37950,1,2,0:0:0:0:
320,192,38051,1,0,0:0:0:0:
192,192,38152,1,0,0:0:0:0:
64,192,38254,128,0,38457:0:0:0:0:
448,192,38355,1,8,0:0:0:0:
320,192,38355,1,8,0:0:0:0:
192,192,38457,128,0,38558:0:0:0:0:
64,192,38558,128,0,38761:0:0:0:0:
448,192,38761,1,2,0:0:0:0:
192,192,38761,1,2,0:0:0:0:
320,192,38862,1,0,0:0:0:0:
448,192,38963,1,0,0:0:0:0:
64,192,39166,1,8,0:0:0:0:
320,192,39166,1,8,0:0:0:0:
192,192,39267,1,0,0:0:0:0:
448,192,39369,1,0,0:0:0:0:
320,192,39470,1,0,0:0:0:0:
448,192,39571,1,2,0:0:0:0:
64,192,39571,1,2,0:0:0:0:
320,192,39673,1,0,0:0:0:0:
192,192,39774,1,0,0:0:0:0:
64,192,39875,128,0,40180:0:0:0:0:
448,192,39977,1,8,0:0:0:0:
320,192,39977,1,8,0:0:0:0:
192,192,40180,1,0,0:0:0:0:
64,192,40382,1,2,0:0:0:0:
448,192,40382,1,2,0:0:0:0:
320,192,40484,1,0,0:0:0:0:
64,192,40585,1,0,0:0:0:0:
192,192,40686,128,0,40990:0:0:0:0:
448,192,40788,1,8,0:0:0:0:
320,192,40788,1,8,0:0:0:0:
64,192,40990,1,0,0:0:0:0:
64,192,41193,1,2,0:0:0:0:
448,192,41193,1,2,0:0:0:0:
320,192,41294,1,0,0:0:0:0:
192,192,41396,1,2,0:0:0:0:
448,192,41396,1,2,0:0:0:0:
64,192,41497,1,0,0:0:0:0:
192,192,41598,1,2,0:0:0:0:
448,192,41598,1,2,0:0:0:0:
320,192,41700,1,2,0:0:0:0:
64,192,41700,1,2,0:0:0:0:
192,192,41801,1,2,0:0:0:0:
448,192,41801,1,2,0:0:0:0:
320,192,41902,1,2,0:0:0:0:
64,192,42004,1,2,0:0:0:0:
192,192,42004,1,2,0:0:0:0:
320,192,42105,1,2,0:0:0:0:
448,192,42105,1,2,0:0:0:0:
64,192,42308,1,8,0:0:0:0:
448,192,42308,1,8,0:0:0:0:
320,192,42511,1,2,0:0:0:0:
64,192,42511,1,2,0:0:0:0:
192,192,42612,1,2,0:0:0:0:
448,192,42612,1,2,0:0:0:0:
320,192,42815,1,4,0:0:0:0:
448,192,42815,128,2,43220:0:0:0:0:
64,192,42815,128,2,43220:0:0:0:0:
192,192,43220,1,2,0:0:0:0:
320,192,43220,1,2,0:0:0:0:
64,192,43321,1,0,0:0:0:0:
192,192,43423,1,0,0:0:0:0:
320,192,43524,1,0,0:0:0:0:
64,192,43625,1,2,0:0:0:0:
448,192,43625,1,2,0:0:0:0:
320,192,43727,1,0,0:0:0:0:
192,192,43828,1,0,0:0:0:0:
64,192,43930,1,8,0:0:0:0:
448,192,43930,1,8,0:0:0:0:
320,192,44132,1,0,0:0:0:0:
192,192,44234,1,2,0:0:0:0:
448,192,44234,1,2,0:0:0:0:
64,192,44335,1,2,0:0:0:0:
320,192,44335,1,2,0:0:0:0:
448,192,44639,1,0,0:0:0:0:
192,192,44639,1,2,0:0:0:0:
320,192,44639,1,2,0:0:0:0:
64,192,44842,1,0,0:0:0:0:
320,192,44842,1,2,0:0:0:0:
192,192,44842,1,2,0:0:0:0:
448,192,45044,1,2,0:0:0:0:
320,192,45112,1,2,0:0:0:0:
192,192,45180,1,2,0:0:0:0:
64,192,45247,1,2,0:0:0:0:
448,192,45247,1,2,0:0:0:0:
320,192,45348,1,0,0:0:0:0:
192,192,45450,1,2,0:0:0:0:
64,192,45551,1,0,0:0:0:0:
192,192,45652,1,8,0:0:0:0:
448,192,45652,1,8,0:0:0:0:
320,192,45754,1,0,0:0:0:0:
192,192,45855,1,0,0:0:0:0:
320,192,45957,1,0,0:0:0:0:
192,192,46058,1,2,0:0:0:0:
448,192,46058,1,2,0:0:0:0:
64,192,46058,1,4,0:0:0:0:
320,192,46159,1,0,0:0:0:0:
448,192,46362,128,0,46565:0:0:0:0:
64,192,46463,1,8,0:0:0:0:
192,192,46463,1,8,0:0:0:0:
320,192,46565,1,0,0:0:0:0:
448,192,46666,1,0,0:0:0:0:
64,192,46869,1,2,0:0:0:0:
320,192,46869,1,2,0:0:0:0:
192,192,47071,1,0,0:0:0:0:
448,192,47071,1,0,0:0:0:0:
64,192,47274,1,8,0:0:0:0:
448,192,47274,1,8,0:0:0:0:
320,192,47342,1,0,0:0:0:0:
192,192,47409,1,0,0:0:0:0:
64,192,47477,1,0,0:0:0:0:
448,192,47680,1,2,0:0:0:0:
64,192,47680,1,2,0:0:0:0:
192,192,47781,1,0,0:0:0:0:
320,192,47882,1,0,0:0:0:0:
448,192,47984,128,0,48186:0:0:0:0:
64,192,48085,1,8,0:0:0:0:
192,192,48085,1,8,0:0:0:0:
320,192,48186,1,0,0:0:0:0:
448,192,48288,1,0,0:0:0:0:
192,192,48389,1,0,0:0:0:0:
64,192,48490,1,2,0:0:0:0:
320,192,48490,1,2,0:0:0:0:
192,192,48592,1,0,0:0:0:0:
448,192,48693,1,0,0:0:0:0:
320,192,48794,1,0,0:0:0:0:
448,192,48896,1,8,0:0:0:0:
64,192,48896,1,8,0:0:0:0:
320,192,48997,1,0,0:0:0:0:
192,192,49098,1,2,0:0:0:0:
64,192,49098,1,2,0:0:0:0:
320,192,49200,1,0,0:0:0:0:
64,192,49301,1,2,0:0:0:0:
448,192,49301,1,4,0:0:0:0:
192,192,49301,1,2,0:0:0:0:
320,192,49402,1,0,0:0:0:0:
192,192,49504,1,0,0:0:0:0:
64,192,49605,1,0,0:0:0:0:
448,192,49707,1,8,0:0:0:0:
320,192,49707,1,8,0:0:0:0:
192,192,49808,1,0,0:0:0:0:
320,192,49909,1,0,0:0:0:0:
64,192,50112,1,2,0:0:0:0:
448,192,50112,1,2,0:0:0:0:
192,192,50213,1,0,0:0:0:0:
320,192,50315,1,0,0:0:0:0:
192,192,50517,1,8,0:0:0:0:
64,192,50517,1,8,0:0:0:0:
320,192,50619,128,0,50923:0:0:0:0:
64,192,50923,1,2,0:0:0:0:
448,192,50923,1,2,0:0:0:0:
192,192,51024,1,0,0:0:0:0:
320,192,51125,1,0,0:0:0:0:
192,192,51227,1,0,0:0:0:0:
64,192,51328,1,8,0:0:0:0:
448,192,51328,128,8,51531:0:0:0:0:
320,192,51531,1,0,0:0:0:0:
192,192,51632,1,0,0:0:0:0:
64,192,51734,1,2,0:0:0:0:
448,192,51734,1,2,0:0:0:0:
320,192,51835,1,0,0:0:0:0:
192,192,51936,1,0,0:0:0:0:
320,192,52038,1,0,0:0:0:0:
64,192,52139,1,8,0:0:0:0:
448,192,52139,1,8,0:0:0:0:
192,192,52240,1,2,0:0:0:0:
320,192,52240,1,2,0:0:0:0:
64,192,52342,1,8,0:0:0:0:
448,192,52342,1,8,0:0:0:0:
64,192,52544,1,6,0:0:0:0:
320,192,52544,1,2,0:0:0:0:
448,192,52544,1,4,0:0:0:0:
192,192,52646,1,0,0:0:0:0:
448,192,52848,128,0,53051:0:0:0:0:
64,192,52950,1,8,0:0:0:0:
192,192,52950,1,8,0:0:0:0:
320,192,53051,1,0,0:0:0:0:
448,192,53152,1,0,0:0:0:0:
64,192,53355,1,2,0:0:0:0:
320,192,53355,1,2,0:0:0:0:
192,192,53558,1,0,0:0:0:0:
320,192,53558,1,0,0:0:0:0:
64,192,53761,1,8,0:0:0:0:
448,192,53761,1,8,0:0:0:0:
320,192,53828,1,0,0:0:0:0:
192,192,53896,1,0,0:0:0:0:
64,192,53963,1,0,0:0:0:0:
448,192,54166,1,2,0:0:0:0:
320,192,54166,1,2,0:0:0:0:
192,192,54267,1,0,0:0:0:0:
64,192,54369,1,0,0:0:0:0:
192,192,54470,128,0,54673:0:0:0:0:
320,192,54571,1,8,0:0:0:0:
448,192,54571,1,8,0:0:0:0:
64,192,54673,1,0,0:0:0:0:
448,192,54774,1,0,0:0:0:0:
320,192,54875,1,0,0:0:0:0:
448,192,54977,1,2,0:0:0:0:
192,192,54977,1,2,0:0:0:0:
64,192,55078,1,0,0:0:0:0:
192,192,55180,1,0,0:0:0:0:
448,192,55281,1,0,0:0:0:0:
64,192,55382,1,8,0:0:0:0:
320,192,55382,1,8,0:0:0:0:
448,192,55484,128,0,55686:0:0:0:0:
320,192,55585,1,2,0:0:0:0:
192,192,55686,1,0,0:0:0:0:
64,192,55788,1,6,0:0:0:0:
320,192,55788,1,2,0:0:0:0:
448,192,55788,1,4,0:0:0:0:
192,192,55889,1,0,0:0:0:0:
320,192,55990,1,0,0:0:0:0:
448,192,56092,1,0,0:0:0:0:
64,192,56193,1,8,0:0:0:0:
320,192,56193,1,8,0:0:0:0:
192,192,56294,1,0,0:0:0:0:
320,192,56396,1,0,0:0:0:0:
64,192,56598,1,2,0:0:0:0:
448,192,56598,1,2,0:0:0:0:
320,192,56700,1,0,0:0:0:0:
192,192,56801,1,0,0:0:0:0:
64,192,57004,1,8,0:0:0:0:
320,192,57004,1,8,0:0:0:0:
448,192,57105,128,0,57409:0:0:0:0:
192,192,57409,1,2,0:0:0:0:
320,192,57409,1,2,0:0:0:0:
64,192,57511,1,0,0:0:0:0:
192,192,57612,1,0,0:0:0:0:
320,192,57713,1,0,0:0:0:0:
448,192,57815,128,8,57916:0:0:0:0:
64,192,57815,128,8,57916:0:0:0:0:
192,192,58017,1,0,0:0:0:0:
320,192,58119,1,0,0:0:0:0:
448,192,58220,1,2,0:0:0:0:
64,192,58220,1,2,0:0:0:0:
192,192,58321,1,0,0:0:0:0:
320,192,58423,1,0,0:0:0:0:
64,192,58524,1,2,0:0:0:0:
448,192,58524,1,2,0:0:0:0:
320,192,58625,1,0,0:0:0:0:
192,192,58727,1,0,0:0:0:0:
64,192,58828,128,2,59031:0:0:0:0:
448,192,58828,128,2,59031:0:0:0:0:
320,192,59031,1,6,0:0:0:0:
192,192,59031,1,2,0:0:0:0:
192,192,59234,1,0,0:0:0:0:
64,192,59436,1,8,0:0:0:0:
448,192,59436,1,8,0:0:0:0:
320,192,59639,1,0,0:0:0:0:
192,192,59740,1,0,0:0:0:0:
320,192,59842,1,2,0:0:0:0:
64,192,59842,1,2,0:0:0:0:
448,192,59943,1,0,0:0:0:0:
192,192,60044,1,0,0:0:0:0:
64,192,60247,1,8,0:0:0:0:
448,192,60247,1,8,0:0:0:0:
64,192,60450,1,0,0:0:0:0:
448,192,60450,1,2,0:0:0:0:
320,192,60450,1,2,0:0:0:0:
64,192,60652,1,2,0:0:0:0:
192,192,60652,1,2,0:0:0:0:
448,192,60652,1,0,0:0:0:0:
320,192,60855,1,0,0:0:0:0:
448,192,61058,1,8,0:0:0:0:
192,192,61058,1,8,0:0:0:0:
64,192,61261,1,0,0:0:0:0:
320,192,61362,1,0,0:0:0:0:
192,192,61463,1,2,0:0:0:0:
448,192,61463,1,2,0:0:0:0:
320,192,61565,1,0,0:0:0:0:
448,192,61666,128,0,62173:0:0:0:0:
192,192,61666,128,2,62173:0:0:0:0:
64,192,61666,128,2,62173:0:0:0:0:
64,192,62274,1,2,0:0:0:0:
320,192,62274,1,4,0:0:0:0:
192,192,62274,1,2,0:0:0:0:
448,192,62477,1,0,0:0:0:0:
64,192,62680,1,8,0:0:0:0:
448,192,62680,1,8,0:0:0:0:
192,192,62882,1,0,0:0:0:0:
320,192,62984,1,0,0:0:0:0:
64,192,63085,1,2,0:0:0:0:
448,192,63085,1,2,0:0:0:0:
192,192,63186,1,0,0:0:0:0:
320,192,63288,1,0,0:0:0:0:
64,192,63490,1,8,0:0:0:0:
192,192,63490,1,8,0:0:0:0:
448,192,63693,1,0,0:0:0:0:
320,192,63693,1,2,0:0:0:0:
192,192,63693,1,2,0:0:0:0:
64,192,63896,1,0,0:0:0:0:
192,192,63896,1,2,0:0:0:0:
320,192,63896,1,2,0:0:0:0:
320,192,64098,1,0,0:0:0:0:
192,192,64200,1,2,0:0:0:0:
64,192,64200,1,2,0:0:0:0:
448,192,64200,1,0,0:0:0:0:
64,192,64504,128,0,64707:0:0:0:0:
320,192,64504,128,2,64707:0:0:0:0:
448,192,64504,128,2,64707:0:0:0:0:
64,192,64909,128,2,65112:0:0:0:0:
192,192,64909,128,2,65112:0:0:0:0:
448,192,64909,128,0,65112:0:0:0:0:
64,192,65315,1,2,0:0:0:0:
192,192,65315,1,2,0:0:0:0:
448,192,65315,1,0,0:0:0:0:
192,192,65517,1,4,0:0:0:0:
320,192,65517,1,2,0:0:0:0:
448,192,65517,1,2,0:0:0:0:
64,192,65720,1,0,0:0:0:0:
192,192,65923,1,8,0:0:0:0:
448,192,65923,1,8,0:0:0:0:
320,192,66125,1,0,0:0:0:0:
448,192,66227,1,0,0:0:0:0:
192,192,66328,1,2,0:0:0:0:
320,192,66328,1,2,0:0:0:0:
64,192,66430,1,0,0:0:0:0:
192,192,66531,1,0,0:0:0:0:
448,192,66734,1,8,0:0:0:0:
320,192,66734,1,8,0:0:0:0:
64,192,66936,1,2,0:0:0:0:
192,192,66936,1,2,0:0:0:0:
320,192,66936,1,0,0:0:0:0:
64,192,67139,1,0,0:0:0:0:
320,192,67139,1,2,0:0:0:0:
448,192,67139,1,2,0:0:0:0:
192,192,67342,1,0,0:0:0:0:
64,192,67544,1,8,0:0:0:0:
448,192,67544,1,8,0:0:0:0:
192,192,67747,1,0,0:0:0:0:
320,192,67848,1,0,0:0:0:0:
192,192,67950,1,2,0:0:0:0:
64,192,67950,1,2,0:0:0:0:
448,192,68051,1,0,0:0:0:0:
320,192,68152,128,2,68659:0:0:0:0:
192,192,68152,128,2,68659:0:0:0:0:
64,192,68152,128,0,68659:0:0:0:0:
192,192,68761,1,2,0:0:0:0:
320,192,68761,1,2,0:0:0:0:
448,192,68761,1,4,0:0:0:0:
64,192,68963,1,0,0:0:0:0:
192,192,69166,1,8,0:0:0:0:
320,192,69166,1,8,0:0:0:0:
64,192,69369,1,0,0:0:0:0:
192,192,69470,1,0,0:0:0:0:
448,192,69571,1,2,0:0:0:0:
64,192,69571,1,2,0:0:0:0:
320,192,69673,1,0,0:0:0:0:
192,192,69774,1,0,0:0:0:0:
64,192,69977,1,8,0:0:0:0:
448,192,69977,1,8,0:0:0:0:
64,192,70180,1,2,0:0:0:0:
192,192,70180,1,2,0:0:0:0:
448,192,70180,1,0,0:0:0:0:
64,192,70382,1,4,0:0:0:0:
320,192,70382,1,2,0:0:0:0:
448,192,70382,1,2,0:0:0:0:
448,192,70585,1,0,0:0:0:0:
64,192,70686,1,2,0:0:0:0:
320,192,70686,1,0,0:0:0:0:
192,192,70686,1,2,0:0:0:0:
64,192,70990,128,2,71193:0:0:0:0:
192,192,70990,128,2,71193:0:0:0:0:
448,192,70990,128,0,71193:0:0:0:0:
320,192,71396,128,2,71801:0:0:0:0:
448,192,71396,128,2,71801:0:0:0:0:
64,192,71396,128,0,71801:0:0:0:0:
192,192,72004,1,2,0:0:0:0:
320,192,72004,1,6,0:0:0:0:
448,192,72207,1,0,0:0:0:0:
64,192,72409,1,8,0:0:0:0:
320,192,72409,1,8,0:0:0:0:
192,192,72511,1,0,0:0:0:0:
320,192,72612,1,2,0:0:0:0:
448,192,72612,1,2,0:0:0:0:
64,192,72713,1,0,0:0:0:0:
192,192,72815,1,0,0:0:0:0:
320,192,72916,1,0,0:0:0:0:
448,192,73017,1,2,0:0:0:0:
64,192,73017,1,2,0:0:0:0:
192,192,73119,1,0,0:0:0:0:
320,192,73220,1,8,0:0:0:0:
192,192,73321,1,0,0:0:0:0:
448,192,73423,1,2,0:0:0:0:
64,192,73423,1,2,0:0:0:0:
320,192,73524,1,0,0:0:0:0:
448,192,73625,1,2,0:0:0:0:
192,192,73625,1,2,0:0:0:0:
64,192,73693,1,0,0:0:0:0:
320,192,73761,1,0,0:0:0:0:
192,192,73930,1,0,0:0:0:0:
64,192,74031,1,8,0:0:0:0:
448,192,74031,1,8,0:0:0:0:
320,192,74132,1,0,0:0:0:0:
192,192,74234,1,2,0:0:0:0:
448,192,74234,1,2,0:0:0:0:
64,192,74436,1,0,0:0:0:0:
448,192,74538,1,0,0:0:0:0:
192,192,74639,1,2,0:0:0:0:
64,192,74639,1,2,0:0:0:0:
320,192,74740,1,0,0:0:0:0:
64,192,74842,1,8,0:0:0:0:
448,192,74842,1,8,0:0:0:0:
192,192,74943,1,0,0:0:0:0:
320,192,75044,1,2,0:0:0:0:
448,192,75044,1,2,0:0:0:0:
192,192,75146,1,0,0:0:0:0:
64,192,75247,1,2,0:0:0:0:
320,192,75247,1,2,0:0:0:0:
192,192,75348,1,0,0:0:0:0:
448,192,75450,1,0,0:0:0:0:
320,192,75551,1,0,0:0:0:0:
64,192,75652,1,8,0:0:0:0:
192,192,75652,1,8,0:0:0:0:
320,192,75754,1,0,0:0:0:0:
64,192,75855,1,2,0:0:0:0:
448,192,75855,1,2,0:0:0:0:
192,192,75957,1,0,0:0:0:0:
320,192,76058,1,0,0:0:0:0:
192,192,76159,1,0,0:0:0:0:
320,192,76261,1,2,0:0:0:0:
64,192,76261,1,2,0:0:0:0:
448,192,76362,1,0,0:0:0:0:
64,192,76463,1,8,0:0:0:0:
192,192,76463,1,8,0:0:0:0:
320,192,76565,1,0,0:0:0:0:
448,192,76666,1,2,0:0:0:0:
192,192,76666,1,2,0:0:0:0:
64,192,76869,1,2,0:0:0:0:
320,192,76869,1,2,0:0:0:0:
448,192,76970,1,0,0:0:0:0:
320,192,77071,1,0,0:0:0:0:
192,192,77173,1,0,0:0:0:0:
320,192,77274,1,8,0:0:0:0:
64,192,77274,1,8,0:0:0:0:
192,192,77375,1,0,0:0:0:0:
64,192,77477,1,2,0:0:0:0:
448,192,77477,1,2,0:0:0:0:
320,192,77578,1,0,0:0:0:0:
192,192,77680,1,0,0:0:0:0:
64,192,77680,1,0,0:0:0:0:
320,192,77781,1,0,0:0:0:0:
64,192,77882,1,2,0:0:0:0:
448,192,77882,1,2,0:0:0:0:
192,192,77984,1,0,0:0:0:0:
320,192,78085,1,8,0:0:0:0:
448,192,78085,1,8,0:0:0:0:
192,192,78186,1,0,0:0:0:0:
64,192,78288,1,2,0:0:0:0:
320,192,78288,1,2,0:0:0:0:
192,192,78389,1,0,0:0:0:0:
64,192,78490,1,2,0:0:0:0:
448,192,78490,128,6,78693:0:0:0:0:
320,192,78693,1,0,0:0:0:0:
192,192,78761,1,0,0:0:0:0:
64,192,78828,1,0,0:0:0:0:
320,192,78896,1,8,0:0:0:0:
448,192,78896,1,8,0:0:0:0:
192,192,78997,1,0,0:0:0:0:
64,192,79098,1,2,0:0:0:0:
448,192,79098,1,2,0:0:0:0:
320,192,79166,1,0,0:0:0:0:
192,192,79234,1,0,0:0:0:0:
64,192,79301,1,0,0:0:0:0:
320,192,79402,1,0,0:0:0:0:
192,192,79504,1,2,0:0:0:0:
448,192,79504,1,2,0:0:0:0:
320,192,79605,1,0,0:0:0:0:
64,192,79707,1,8,0:0:0:0:
448,192,79707,1,8,0:0:0:0:
320,192,79808,1,0,0:0:0:0:
192,192,79909,1,2,0:0:0:0:
448,192,79909,1,2,0:0:0:0:
64,192,80011,1,0,0:0:0:0:
320,192,80112,1,2,0:0:0:0:
448,192,80112,1,2,0:0:0:0:
192,192,80213,1,0,0:0:0:0:
320,192,80315,1,0,0:0:0:0:
448,192,80416,1,0,0:0:0:0:
192,192,80517,1,8,0:0:0:0:
64,192,80517,1,8,0:0:0:0:
320,192,80619,1,0,0:0:0:0:
64,192,80720,1,2,0:0:0:0:
448,192,80720,1,2,0:0:0:0:
192,192,80821,1,0,0:0:0:0:
320,192,80923,1,0,0:0:0:0:
448,192,81024,1,2,0:0:0:0:
192,192,81024,1,2,0:0:0:0:
320,192,81125,1,2,0:0:0:0:
64,192,81125,1,2,0:0:0:0:
192,192,81227,1,0,0:0:0:0:
64,192,81328,1,8,0:0:0:0:
448,192,81328,1,8,0:0:0:0:
320,192,81430,1,0,0:0:0:0:
192,192,81531,1,2,0:0:0:0:
448,192,81531,1,2,0:0:0:0:
320,192,81632,1,0,0:0:0:0:
192,192,81734,1,2,0:0:0:0:
64,192,81734,1,2,0:0:0:0:
192,192,81936,1,0,0:0:0:0:
192,192,82038,1,0,0:0:0:0:
448,192,82139,1,8,0:0:0:0:
320,192,82139,1,8,0:0:0:0:
64,192,82207,1,0,0:0:0:0:
448,192,82274,1,0,0:0:0:0:
64,192,82342,1,2,0:0:0:0:
192,192,82342,1,2,0:0:0:0:
448,192,82443,1,0,0:0:0:0:
320,192,82544,1,0,0:0:0:0:
64,192,82646,1,0,0:0:0:0:
320,192,82747,1,2,0:0:0:0:
192,192,82747,1,2,0:0:0:0:
448,192,82848,1,0,0:0:0:0:
320,192,82950,1,8,0:0:0:0:
64,192,82950,1,8,0:0:0:0:
192,192,83051,1,0,0:0:0:0:
448,192,83051,1,0,0:0:0:0:
320,192,83152,1,2,0:0:0:0:
64,192,83152,1,2,0:0:0:0:
192,192,83254,1,2,0:0:0:0:
448,192,83355,1,2,0:0:0:0:
320,192,83355,1,2,0:0:0:0:
64,192,83355,1,4,0:0:0:0:
448,192,83659,1,2,0:0:0:0:
320,192,83659,1,2,0:0:0:0:
64,192,83659,1,0,0:0:0:0:
192,192,83963,1,2,0:0:0:0:
320,192,83963,1,2,0:0:0:0:
448,192,83963,1,0,0:0:0:0:
192,192,84267,1,2,0:0:0:0:
320,192,84267,1,2,0:0:0:0:
448,192,84267,1,0,0:0:0:0:
64,192,84571,1,2,0:0:0:0:
448,192,84571,1,0,0:0:0:0:
192,192,84571,1,2,0:0:0:0:
64,192,84774,1,0,0:0:0:0:
320,192,84774,1,2,0:0:0:0:
448,192,84774,1,2,0:0:0:0:
64,192,84977,1,0,0:0:0:0:
192,192,84977,1,2,0:0:0:0:
320,192,84977,1,2,0:0:0:0:
192,192,85180,1,0,0:0:0:0:
320,192,85281,1,0,0:0:0:0:
448,192,85382,1,8,0:0:0:0:
64,192,85382,1,8,0:0:0:0:
320,192,85484,1,0,0:0:0:0:
192,192,85585,1,0,0:0:0:0:
448,192,85585,1,0,0:0:0:0:
320,192,85686,1,0,0:0:0:0:
64,192,85788,1,2,0:0:0:0:
448,192,85788,1,2,0:0:0:0:
320,192,85855,1,0,0:0:0:0:
192,192,85923,1,0,0:0:0:0:
64,192,85990,1,0,0:0:0:0:
448,192,85990,1,0,0:0:0:0:
320,192,86041,1,0,0:0:0:0:
192,192,86092,1,0,0:0:0:0:
64,192,86142,1,0,0:0:0:0:
448,192,86193,1,8,0:0:0:0:
320,192,86193,1,8,0:0:0:0:
192,192,86294,1,0,0:0:0:0:
64,192,86396,1,0,0:0:0:0:
448,192,86396,1,0,0:0:0:0:
320,192,86497,1,0,0:0:0:0:
448,192,86598,1,0,0:0:0:0:
64,192,86598,1,0,0:0:0:0:
192,192,86700,1,0,0:0:0:0:
320,192,86700,1,0,0:0:0:0:
64,192,86801,1,0,0:0:0:0:
448,192,86801,1,0,0:0:0:0:
320,192,86902,1,0,0:0:0:0:
192,192,86902,1,0,0:0:0:0:
448,192,87004,1,12,0:0:0:0:
64,192,87004,128,8,88017:0:0:0:0:
320,192,87207,1,0,0:0:0:0:
448,192,87308,1,0,0:0:0:0:
320,192,87409,1,2,0:0:0:0:
192,192,87409,1,2,0:0:0:0:
448,192,87612,1,0,0:0:0:0:
320,192,87713,1,0,0:0:0:0:
192,192,87815,1,8,0:0:0:0:
448,192,87815,1,8,0:0:0:0:
192,192,88017,128,0,88119:0:0:0:0:
320,192,88119,128,0,88220:0:0:0:0:
448,192,88220,128,2,88423:0:0:0:0:
64,192,88220,1,2,0:0:0:0:
320,192,88423,1,0,0:0:0:0:
192,192,88524,1,0,0:0:0:0:
64,192,88625,1,8,0:0:0:0:
448,192,88625,1,8,0:0:0:0:
320,192,88727,128,0,88930:0:0:0:0:
192,192,88930,1,0,0:0:0:0:
448,192,89031,1,2,0:0:0:0:
64,192,89031,1,2,0:0:0:0:
320,192,89132,1,0,0:0:0:0:
448,192,89234,128,0,89436:0:0:0:0:
64,192,89436,1,8,0:0:0:0:
192,192,89436,1,8,0:0:0:0:
320,192,89538,1,0,0:0:0:0:
192,192,89639,1,0,0:0:0:0:
320,192,89740,1,0,0:0:0:0:
448,192,89842,1,2,0:0:0:0:
64,192,89842,128,2,90044:0:0:0:0:
192,192,90044,1,0,0:0:0:0:
320,192,90146,1,0,0:0:0:0:
448,192,90247,1,8,0:0:0:0:
192,192,90247,1,8,0:0:0:0:
320,192,90348,1,0,0:0:0:0:
64,192,90450,1,0,0:0:0:0:
192,192,90551,1,0,0:0:0:0:
320,192,90652,1,2,0:0:0:0:
448,192,90652,128,2,90855:0:0:0:0:
192,192,90855,1,0,0:0:0:0:
64,192,90957,1,0,0:0:0:0:
320,192,91058,1,8,0:0:0:0:
448,192,91058,1,8,0:0:0:0:
192,192,91159,1,0,0:0:0:0:
320,192,91261,1,0,0:0:0:0:
448,192,91362,1,0,0:0:0:0:
64,192,91463,1,2,0:0:0:0:
192,192,91463,1,2,0:0:0:0:
320,192,91565,1,0,0:0:0:0:
448,192,91666,1,2,0:0:0:0:
64,192,91666,1,2,0:0:0:0:
192,192,91767,1,0,0:0:0:0:
448,192,91869,1,8,0:0:0:0:
64,192,91869,1,8,0:0:0:0:
192,192,91970,1,2,0:0:0:0:
320,192,91970,1,2,0:0:0:0:
64,192,92071,1,2,0:0:0:0:
448,192,92071,1,2,0:0:0:0:
320,192,92173,1,0,0:0:0:0:
64,192,92274,1,2,0:0:0:0:
192,192,92274,1,2,0:0:0:0:
448,192,92274,1,0,0:0:0:0:
64,192,92578,1,0,0:0:0:0:
320,192,92578,1,2,0:0:0:0:
448,192,92578,1,2,0:0:0:0:
64,192,92882,1,0,0:0:0:0:
192,192,92882,1,2,0:0:0:0:
320,192,92882,1,2,0:0:0:0:
64,192,93085,1,2,0:0:0:0:
192,192,93085,1,2,0:0:0:0:
448,192,93085,128,4,93693:0:0:0:0:
192,192,93288,1,0,0:0:0:0:
320,192,93389,1,0,0:0:0:0:
64,192,93490,1,8,0:0:0:0:
192,192,93490,1,8,0:0:0:0:
320,192,93693,128,0,93794:0:0:0:0:
192,192,93794,128,0,93896:0:0:0:0:
64,192,93896,128,2,94402:0:0:0:0:
448,192,93896,1,2,0:0:0:0:
320,192,94098,1,0,0:0:0:0:
192,192,94200,1,0,0:0:0:0:
320,192,94301,1,8,0:0:0:0:
448,192,94301,1,8,0:0:0:0:
192,192,94402,128,0,94504:0:0:0:0:
448,192,94504,128,0,94605:0:0:0:0:
320,192,94605,128,0,94707:0:0:0:0:
64,192,94707,128,2,95315:0:0:0:0:
192,192,94707,1,2,0:0:0:0:
320,192,94909,1,0,0:0:0:0:
448,192,95011,1,0,0:0:0:0:
320,192,95112,1,8,0:0:0:0:
192,192,95112,1,8,0:0:0:0:
448,192,95315,1,0,0:0:0:0:
64,192,95517,1,2,0:0:0:0:
448,192,95517,128,2,95619:0:0:0:0:
320,192,95619,128,0,95720:0:0:0:0:
64,192,95720,128,0,95821:0:0:0:0:
192,192,95821,128,0,95923:0:0:0:0:
320,192,95923,128,8,96024:0:0:0:0:
448,192,95923,1,8,0:0:0:0:
64,192,96024,128,0,96125:0:0:0:0:
192,192,96125,128,0,96227:0:0:0:0:
320,192,96227,128,0,96328:0:0:0:0:
64,192,96328,1,2,0:0:0:0:
448,192,96328,128,2,96531:0:0:0:0:
192,192,96531,128,0,96632:0:0:0:0:
64,192,96632,128,0,96734:0:0:0:0:
320,192,96734,1,8,0:0:0:0:
448,192,96734,1,8,0:0:0:0:
192,192,96835,128,0,97038:0:0:0:0:
64,192,97038,128,0,97139:0:0:0:0:
320,192,97139,128,2,97240:0:0:0:0:
448,192,97139,1,2,0:0:0:0:
192,192,97240,128,0,97443:0:0:0:0:
64,192,97443,128,0,97646:0:0:0:0:
320,192,97544,1,8,0:0:0:0:
448,192,97544,1,8,0:0:0:0:
192,192,97646,128,0,97747:0:0:0:0:
320,192,97747,128,0,97950:0:0:0:0:
64,192,97950,1,2,0:0:0:0:
448,192,97950,1,2,0:0:0:0:
64,192,98152,1,2,0:0:0:0:
448,192,98152,1,2,0:0:0:0:
64,192,98355,1,2,0:0:0:0:
320,192,98355,1,2,0:0:0:0:
192,192,98457,1,2,0:0:0:0:
448,192,98457,1,2,0:0:0:0:
64,192,98558,1,2,0:0:0:0:
320,192,98558,1,2,0:0:0:0:
192,192,98659,1,2,0:0:0:0:
64,192,98761,1,0,0:0:0:0:
320,192,98761,1,2,0:0:0:0:
448,192,98761,1,2,0:0:0:0:
192,192,99065,1,2,0:0:0:0:
320,192,99065,1,2,0:0:0:0:
448,192,99065,1,0,0:0:0:0:
64,192,99369,1,0,0:0:0:0:
192,192,99369,1,2,0:0:0:0:
320,192,99369,1,2,0:0:0:0:
64,192,99571,1,4,0:0:0:0:
448,192,99571,1,6,0:0:0:0:
320,192,99571,1,2,0:0:0:0:
448,192,99774,128,0,100788:0:0:0:0:
192,192,99774,1,0,0:0:0:0:
64,192,99977,1,0,0:0:0:0:
320,192,99977,1,0,0:0:0:0:
192,192,100078,1,0,0:0:0:0:
320,192,100180,1,0,0:0:0:0:
192,192,100281,1,0,0:0:0:0:
64,192,100382,1,0,0:0:0:0:
320,192,100484,1,0,0:0:0:0:
192,192,100585,1,0,0:0:0:0:
64,192,100686,1,0,0:0:0:0:
192,192,100788,1,2,0:0:0:0:
320,192,100788,1,2,0:0:0:0:
64,192,100889,1,0,0:0:0:0:
320,192,100990,1,0,0:0:0:0:
192,192,101092,1,0,0:0:0:0:
64,192,101193,1,2,0:0:0:0:
448,192,101193,1,2,0:0:0:0:
192,192,101328,1,0,0:0:0:0:
320,192,101463,1,0,0:0:0:0:
64,192,101598,1,0,0:0:0:0:
448,192,101598,1,0,0:0:0:0:
320,192,101700,1,0,0:0:0:0:
192,192,101801,1,0,0:0:0:0:
448,192,101902,1,0,0:0:0:0:
320,192,101953,1,0,0:0:0:0:
64,192,102004,1,0,0:0:0:0:
192,192,102004,1,0,0:0:0:0:
320,192,102207,1,0,0:0:0:0:
448,192,102274,1,0,0:0:0:0:
320,192,102342,1,0,0:0:0:0:
192,192,102409,1,0,0:0:0:0:
64,192,102409,1,2,0:0:0:0:
448,192,102477,1,2,0:0:0:0:
320,192,102544,1,2,0:0:0:0:
192,192,102612,1,2,0:0:0:0:
64,192,102680,1,2,0:0:0:0:
448,192,102747,1,2,0:0:0:0:
320,192,102815,128,0,103017:0:0:0:0:
192,192,102815,128,2,103017:0:0:0:0:
64,192,102815,128,2,103017:0:0:0:0:
320,192,103220,128,2,103423:0:0:0:0:
448,192,103220,128,0,103423:0:0:0:0:
192,192,103220,128,2,103423:0:0:0:0:
64,192,103625,1,2,0:0:0:0:
448,192,103625,128,2,103727:0:0:0:0:
192,192,103727,128,2,103930:0:0:0:0:
320,192,103727,1,2,0:0:0:0:
448,192,103930,1,8,0:0:0:0:
64,192,103930,128,8,104132:0:0:0:0:
320,192,104132,128,2,104234:0:0:0:0:
192,192,104132,1,2,0:0:0:0:
64,192,104234,1,2,0:0:0:0:
448,192,104234,128,2,104436:0:0:0:0:
320,192,104436,1,2,0:0:0:0:
192,192,104436,1,2,0:0:0:0:
64,192,104436,1,0,0:0:0:0:
448,192,104639,1,0,0:0:0:0:
320,192,104690,1,0,0:0:0:0:
192,192,104740,1,0,0:0:0:0:
64,192,104791,1,0,0:0:0:0:
448,192,104842,128,4,105652:0:0:0:0:
320,192,104842,1,2,0:0:0:0:
192,192,104842,1,2,0:0:0:0:
64,192,105247,1,2,0:0:0:0:
320,192,105348,1,2,0:0:0:0:
192,192,105399,1,2,0:0:0:0:
64,192,105450,1,2,0:0:0:0:
64,192,105652,1,2,0:0:0:0:
192,192,105652,1,2,0:0:0:0:
320,192,105855,1,0,0:0:0:0:
192,192,105957,1,0,0:0:0:0:
64,192,106058,128,2,106869:0:0:0:0:
448,192,106058,128,4,106869:0:0:0:0:
320,192,106058,128,2,106869:0:0:0:0:
