osu file format v12

[General]
AudioFilename: 1.mp3
AudioLeadIn: 0
PreviewTime: 63916
Countdown: 0
SampleSet: Soft
StackLeniency: 0.5
Mode: 0
LetterboxInBreaks: 1
WidescreenStoryboard: 1

[Editor]
Bookmarks: 19916,31916,53250,74583,91916,103916,125250,146583,154583,165250
DistanceSpacing: 1.4
BeatDivisor: 4
GridSize: 4
TimelineZoom: 1.7

[Metadata]
Title:Maboroshi No Kessho
TitleUnicode:幻の结晶
Artist:Torikoshi Takako
ArtistUnicode:鸟越隆子
Creator:OrangeNeKo
Version:NTR
Source:純潔の輪舞曲
Tags:純潔の輪舞曲 ED
BeatmapID:384843
BeatmapSetID:157136

[Difficulty]
HPDrainRate:7
CircleSize:4
OverallDifficulty:7
ApproachRate:9
SliderMultiplier:1.8
SliderTickRate:1

[Events]
//Background and Video events
0,0,"BG.jpg",0,0
//Break Periods
//Storyboard Layer 0 (Background)
//Storyboard Layer 1 (Fail)
//Storyboard Layer 2 (Pass)
//Storyboard Layer 3 (Foreground)
//Storyboard Sound Samples
//Background Colour Transformations
3,100,163,162,255

[TimingPoints]
-1333,333.333333333333,4,2,2,20,1,0
21416,-100,4,2,1,60,0,0
42666,-100,4,2,2,20,0,0
42750,-100,4,2,1,60,0,0
64000,-80,4,2,2,60,0,1
64083,-80,4,2,1,60,0,1
74666,-80,4,2,2,40,0,1
74750,-80,4,2,1,60,0,1
84000,-100,4,2,2,20,0,0
84083,-100,4,2,1,60,0,0
92000,-100,4,2,2,20,0,0
93416,-100,4,2,1,60,0,0
114666,-100,4,2,2,20,0,0
114750,-100,4,2,1,60,0,0
136000,-80,4,2,2,60,0,1
136083,-80,4,2,1,60,0,1
154666,-80,4,2,2,40,0,1
154750,-80,4,2,1,60,0,1
174666,-100,4,2,2,20,0,0
174750,-100,4,2,1,60,0,0

[Colours]
Combo1 : 255,128,255
Combo2 : 255,128,128

[HitObjects]
112,328,21333,5,4,0:0:0:0:
112,328,21500,1,4,0:0:0:0:
112,328,21666,2,0,L|120:235,1,90,4|4,0:0|0:0,0:0:0:0:
92,192,21916,1,4,0:0:0:0:
92,192,22000,1,12,0:0:0:0:
264,84,22166,2,0,P|268:136|248:168,1,90,6|4,0:0|0:0,0:0:0:0:
328,264,22500,2,0,P|324:212|344:180,1,90,0|4,0:0|0:0,0:0:0:0:
464,144,22833,6,0,L|472:96,1,45,6|0,0:0|0:0,0:0:0:0:
428,220,23000,2,0,L|420:172,1,45,6|0,0:0|0:0,0:0:0:0:
464,296,23167,1,4,0:0:0:0:
348,348,23333,2,0,P|296:344|264:316,1,90,8|4,0:0|0:0,0:0:0:0:
140,104,23833,5,0,0:0:0:0:
40,280,24000,2,0,L|136:288,1,90,6|4,0:0|0:0,0:0:0:0:
256,272,24333,1,4,0:0:0:0:
256,272,24500,5,4,0:0:0:0:
256,272,24584,1,4,0:0:0:0:
256,272,24667,1,12,0:0:0:0:
160,92,24833,2,0,P|124:124|80:132,1,90,6|4,0:0|0:0,0:0:0:0:
84,132,25333,6,0,P|116:172|156:176,1,90,6|4,0:0|0:0,0:0:0:0:
204,168,25583,1,0,0:0:0:0:
236,140,25667,1,4,0:0:0:0:
248,100,25750,1,0,0:0:0:0:
244,60,25833,2,0,B|276:68|276:68|296:56|336:60,1,90,6|8,0:0|0:0,0:0:0:0:
484,192,26166,1,6,0:0:0:0:
484,192,26500,5,2,0:0:0:0:
332,60,26666,2,0,P|319:102|335:143,1,90,6|4,0:0|0:0,0:0:0:0:
416,240,27000,6,0,L|324:228,1,90,4|4,0:0|0:0,0:0:0:0:
284,192,27250,1,4,0:0:0:0:
284,192,27333,1,12,0:0:0:0:
176,364,27500,2,0,L|268:356,1,90,6|4,0:0|0:0,0:0:0:0:
188,256,27833,1,0,0:0:0:0:
188,256,28000,5,4,0:0:0:0:
80,192,28166,2,0,L|72:144,1,45,6|0,0:0|0:0,0:0:0:0:
204,52,28333,2,0,L|200:96,1,45,6|0,0:0|0:0,0:0:0:0:
240,136,28500,1,4,0:0:0:0:
360,168,28666,2,0,P|408:156|440:128,1,90,8|4,0:0|0:0,0:0:0:0:
256,304,29166,5,0,0:0:0:0:
464,328,29333,2,0,P|416:340|376:332,1,90,6|4,0:0|0:0,0:0:0:0:
256,304,29666,2,0,P|212:292|168:299,1,90,4|4,0:0|0:0,0:0:0:0:
116,320,29917,1,4,0:0:0:0:
116,320,30000,1,12,0:0:0:0:
156,120,30166,2,0,P|192:88|232:72,1,90,6|4,0:0|0:0,0:0:0:0:
104,56,30500,5,4,0:0:0:0:
96,180,30666,2,0,P|136:204|180:200,1,90,6|4,0:0|0:0,0:0:0:0:
224,168,30916,1,0,0:0:0:0:
240,152,31000,1,4,0:0:0:0:
256,136,31083,1,0,0:0:0:0:
276,120,31166,2,0,B|320:128|320:128|372:120,1,90,6|8,0:0|0:0,0:0:0:0:
416,320,31500,1,6,0:0:0:0:
416,320,31833,5,2,0:0:0:0:
364,120,32000,2,0,B|319:113|319:113|275:121,1,90,6|4,0:0|0:0,0:0:0:0:
168,188,32333,6,0,L|172:96,1,90,4|4,0:0|0:0,0:0:0:0:
212,64,32583,1,4,0:0:0:0:
212,64,32666,1,12,0:0:0:0:
12,40,32833,2,0,L|24:132,1,90,6|4,0:0|0:0,0:0:0:0:
44,264,33166,1,0,0:0:0:0:
44,264,33333,5,4,0:0:0:0:
232,336,33500,2,0,L|184:344,1,45,6|0,0:0|0:0,0:0:0:0:
324,256,33666,2,0,L|372:264,1,45,6|0,0:0|0:0,0:0:0:0:
408,228,33833,2,0,B|364:180|364:180|384:156,1,90,4|8,0:0|0:0,0:0:0:0:
472,76,34166,1,4,0:0:0:0:
232,148,34500,5,0,0:0:0:0:
436,152,34666,2,0,L|352:116,1,90,6|4,0:0|0:0,0:0:0:0:
236,64,35000,2,0,P|188:76|156:112,1,90,4|4,0:0|0:0,0:0:0:0:
232,148,35250,1,4,0:0:0:0:
232,148,35333,1,12,0:0:0:0:
40,80,35500,2,0,L|48:172,1,90,6|4,0:0|0:0,0:0:0:0:
212,360,36000,6,0,L|220:264,1,90,6|4,0:0|0:0,0:0:0:0:
184,232,36249,1,0,0:0:0:0:
164,268,36333,1,4,0:0:0:0:
132,292,36416,1,0,0:0:0:0:
92,296,36500,2,0,L|84:204,1,90,6|8,0:0|0:0,0:0:0:0:
288,216,36833,1,6,0:0:0:0:
288,216,37166,5,2,0:0:0:0:
84,206,37333,2,0,P|104:168|144:140,1,90,6|4,0:0|0:0,0:0:0:0:
256,192,37666,6,0,P|256:244|272:280,1,90,4|4,0:0|0:0,0:0:0:0:
256,332,37916,1,4,0:0:0:0:
256,332,37999,1,12,0:0:0:0:
460,340,38166,2,0,P|460:288|444:252,1,90,6|4,0:0|0:0,0:0:0:0:
344,176,38500,2,0,P|344:228|360:264,1,90,0|4,0:0|0:0,0:0:0:0:
424,72,38833,6,0,L|432:120,1,45,6|0,0:0|0:0,0:0:0:0:
276,64,39000,2,0,L|272:108,1,45,6|0,0:0|0:0,0:0:0:0:
236,148,39166,2,0,B|192:132|168:144|168:144|148:132,1,90,4|8,0:0|0:0,0:0:0:0:
40,76,39499,1,4,0:0:0:0:
84,324,39833,5,0,0:0:0:0:
108,124,40000,2,0,B|76:160|40:160|40:160|48:180,1,90,6|4,0:0|0:0,0:0:0:0:
136,256,40333,2,0,P|164:296|168:340,1,90,4|4,0:0|0:0,0:0:0:0:
220,352,40583,1,4,0:0:0:0:
220,352,40666,1,12,0:0:0:0:
416,296,40833,2,0,P|380:328|336:336,1,90,6|4,0:0|0:0,0:0:0:0:
256,244,41166,5,4,0:0:0:0:
404,108,41333,2,0,L|432:196,1,90,6|4,0:0|0:0,0:0:0:0:
384,216,41582,1,0,0:0:0:0:
356,184,41666,1,4,0:0:0:0:
320,168,41749,1,0,0:0:0:0:
280,164,41833,2,0,P|236:164|192:188,1,90,6|8,0:0|0:0,0:0:0:0:
40,52,42166,2,0,L|132:64,1,90,6|8,0:0|0:0,0:0:0:0:
332,88,42500,5,10,0:0:0:0:
140,152,42666,2,0,P|116:188|104:236,1,90,4|4,0:0|0:0,0:0:0:0:
132,356,43000,6,0,P|168:328|216:316,1,90,4|4,0:0|0:0,0:0:0:0:
264,316,43250,1,4,0:0:0:0:
264,316,43333,1,12,0:0:0:0:
72,248,43500,1,6,0:0:0:0:
184,192,43666,1,4,0:0:0:0:
72,132,43833,1,0,0:0:0:0:
72,132,44000,5,4,0:0:0:0:
260,52,44166,2,0,L|216:44,1,45,6|0,0:0|0:0,0:0:0:0:
360,116,44333,2,0,L|312:124,1,45,6|0,0:0|0:0,0:0:0:0:
264,144,44500,2,0,B|272:208|272:208|300:212,1,90,4|8,0:0|0:0,0:0:0:0:
424,216,44833,1,4,0:0:0:0:
204,336,45166,5,0,0:0:0:0:
404,300,45333,2,0,P|424:260|424:212,1,90,6|4,0:0|0:0,0:0:0:0:
304,252,45666,2,0,P|284:292|284:340,1,90,4|4,0:0|0:0,0:0:0:0:
336,356,45917,1,4,0:0:0:0:
336,356,46000,1,12,0:0:0:0:
152,268,46166,2,0,P|192:252|240:256,1,90,6|4,0:0|0:0,0:0:0:0:
238,255,46666,6,0,P|198:271|150:267,1,90,6|4,0:0|0:0,0:0:0:0:
104,240,46916,1,0,0:0:0:0:
88,204,47000,1,4,0:0:0:0:
92,164,47083,1,0,0:0:0:0:
116,132,47166,2,0,P|164:128|196:100,1,90,6|8,0:0|0:0,0:0:0:0:
396,64,47500,1,6,0:0:0:0:
396,64,47833,5,2,0:0:0:0:
456,256,48000,2,0,P|420:216|412:180,1,90,6|4,0:0|0:0,0:0:0:0:
296,128,48333,1,4,0:0:0:0:
292,252,48499,1,4,0:0:0:0:
272,288,48583,1,4,0:0:0:0:
236,308,48666,5,12,0:0:0:0:
32,312,48833,1,6,0:0:0:0:
132,236,48999,1,4,0:0:0:0:
236,308,49166,1,0,0:0:0:0:
236,308,49333,5,4,0:0:0:0:
128,136,49500,2,0,L|76:128,1,45,6|0,0:0|0:0,0:0:0:0:
228,56,49666,2,0,L|276:52,1,45,6|0,0:0|0:0,0:0:0:0:
328,56,49833,2,0,P|340:104|368:136,1,90,4|8,0:0|0:0,0:0:0:0:
460,52,50166,1,4,0:0:0:0:
404,300,50500,5,0,0:0:0:0:
212,232,50666,2,0,P|256:212|300:208,1,90,6|4,0:0|0:0,0:0:0:0:
280,332,51000,2,0,P|236:352|192:356,1,90,4|4,0:0|0:0,0:0:0:0:
140,352,51250,1,4,0:0:0:0:
140,352,51333,1,12,0:0:0:0:
80,160,51500,1,6,0:0:0:0:
92,284,51666,2,0,P|136:268|180:280,1,90,4|4,0:0|0:0,0:0:0:0:
352,172,52000,5,6,0:0:0:0:
228,188,52166,2,0,L|180:196,1,45,4|0,0:0|0:0,0:0:0:0:
236,136,52333,2,0,L|192:124,1,45,4|0,0:0|0:0,0:0:0:0:
268,96,52500,2,0,P|220:76|192:48,1,90,6|8,0:0|0:0,0:0:0:0:
352,172,52833,1,6,0:0:0:0:
352,172,53166,5,2,0:0:0:0:
424,360,53333,2,0,P|436:312|428:268,1,90,6|4,0:0|0:0,0:0:0:0:
352,172,53666,6,0,P|400:168|436:144,1,90,4|4,0:0|0:0,0:0:0:0:
472,108,53916,1,4,0:0:0:0:
472,108,53999,1,12,0:0:0:0:
272,64,54166,1,6,0:0:0:0:
388,16,54332,1,4,0:0:0:0:
272,64,54500,1,0,0:0:0:0:
272,64,54666,5,4,0:0:0:0:
68,68,54833,2,0,L|112:88,1,45,6|0,0:0|0:0,0:0:0:0:
72,244,55000,2,0,L|52:200,1,45,6|0,0:0|0:0,0:0:0:0:
92,168,55166,2,0,P|144:160|172:132,1,90,4|8,0:0|0:0,0:0:0:0:
272,64,55499,1,4,0:0:0:0:
196,304,55833,5,0,0:0:0:0:
392,248,56000,2,0,P|404:308|396:344,1,90,6|4,0:0|0:0,0:0:0:0:
292,272,56333,2,0,P|280:212|288:176,1,90,4|4,0:0|0:0,0:0:0:0:
236,160,56583,1,4,0:0:0:0:
236,160,56666,1,12,0:0:0:0:
420,80,56833,2,0,P|388:112|344:128,1,90,6|4,0:0|0:0,0:0:0:0:
348,128,57333,6,0,P|316:96|272:80,1,90,6|4,0:0|0:0,0:0:0:0:
216,52,57583,1,0,0:0:0:0:
176,60,57666,1,4,0:0:0:0:
144,84,57749,1,0,0:0:0:0:
124,120,57833,2,0,B|104:140|108:184|108:184|80:184,1,90,6|8,0:0|0:0,0:0:0:0:
228,328,58167,1,0,0:0:0:0:
228,328,58500,5,2,0:0:0:0:
28,296,58667,2,0,L|140:272,1,90,0|0,0:0|0:0,0:0:0:0:
228,328,59000,2,0,P|272:340|320:336,1,90,4|0,0:0|0:0,0:0:0:0:
364,360,59249,1,4,0:0:0:0:
364,360,59332,1,12,0:0:0:0:
464,180,59500,1,6,0:0:0:0:
344,216,59665,1,4,0:0:0:0:
372,92,59833,1,0,0:0:0:0:
372,92,60000,5,4,0:0:0:0:
172,52,60166,2,0,L|220:48,1,45,6|0,0:0|0:0,0:0:0:0:
96,156,60333,2,0,L|48:160,1,45,6|0,0:0|0:0,0:0:0:0:
24,208,60500,2,0,P|72:232|100:260,1,90,4|0,0:0|0:0,0:0:0:0:
160,364,60832,1,4,0:0:0:0:
408,324,61166,5,0,0:0:0:0:
216,256,61333,2,0,P|264:268|304:264,1,90,6|4,0:0|0:0,0:0:0:0:
388,168,61666,2,0,P|340:156|300:160,1,90,4|4,0:0|0:0,0:0:0:0:
256,128,61916,1,4,0:0:0:0:
256,128,61999,1,12,0:0:0:0:
440,40,62166,1,6,0:0:0:0:
316,16,62332,1,4,0:0:0:0:
316,16,62499,5,4,0:0:0:0:
256,212,62666,2,0,P|204:196|184:168,1,90,6|4,0:0|0:0,0:0:0:0:
152,124,62916,1,0,0:0:0:0:
96,124,63000,6,0,L|72:164,1,45,4|0,0:0|0:0,0:0:0:0:
44,208,63166,1,6,0:0:0:0:
88,324,63332,1,8,0:0:0:0:
256,212,63500,1,6,0:0:0:0:
200,336,63666,1,0,0:0:0:0:
396,284,63833,5,2,0:0:0:0:
376,48,64000,2,0,P|336:92|328:144,1,112.5,4|4,0:0|0:0,0:0:0:0:
396,284,64333,1,4,0:0:0:0:
256,352,64499,1,4,0:0:0:0:
256,352,64583,1,4,0:0:0:0:
256,352,64666,1,12,0:0:0:0:
80,192,64833,2,0,L|96:308,1,112.5,6|4,0:0|0:0,0:0:0:0:
176,168,65166,1,0,0:0:0:0:
288,56,65333,5,4,0:0:0:0:
52,80,65500,2,0,L|52:24,1,56.25,6|0,0:0|0:0,0:0:0:0:
232,120,65666,2,0,L|232:176,1,56.25,6|0,0:0|0:0,0:0:0:0:
284,236,65833,1,4,0:0:0:0:
408,140,66000,2,0,P|360:168|308:144,1,112.5,8|4,0:0|0:0,0:0:0:0:
360,296,66333,1,0,0:0:0:0:
360,296,66666,6,0,B|352:344|352:344|284:336,1,112.5,6|4,0:0|0:0,0:0:0:0:
132,316,67000,1,4,0:0:0:0:
228,192,67166,1,4,0:0:0:0:
228,192,67250,1,4,0:0:0:0:
228,192,67333,1,12,0:0:0:0:
56,28,67500,2,0,P|56:88|36:140,1,112.5,6|4,0:0|0:0,0:0:0:0:
37,136,68000,6,0,P|88:116|152:112,1,112.5,6|4,0:0|0:0,0:0:0:0:
224,124,68249,1,0,0:0:0:0:
300,104,68333,2,0,L|336:60,1,56.25,4|0,0:0|0:0,0:0:0:0:
416,52,68500,1,6,0:0:0:0:
260,32,68666,1,8,0:0:0:0:
432,192,68833,1,6,0:0:0:0:
300,104,69000,1,0,0:0:0:0:
96,224,69166,1,2,0:0:0:0:
328,188,69333,6,0,B|320:248|320:248|268:244,1,112.5,6|4,0:0|0:0,0:0:0:0:
120,304,69666,1,4,0:0:0:0:
44,164,69832,1,4,0:0:0:0:
92,144,69916,1,4,0:0:0:0:
140,156,69999,1,12,0:0:0:0:
368,56,70166,2,0,L|256:36,1,112.5,6|4,0:0|0:0,0:0:0:0:
368,56,70666,5,4,0:0:0:0:
452,276,70833,2,0,L|464:216,1,56.25,6|0,0:0|0:0,0:0:0:0:
272,156,71000,2,0,L|276:216,1,56.25,6|0,0:0|0:0,0:0:0:0:
280,292,71166,2,0,P|212:324|176:320,1,112.5,4|8,0:0|0:0,0:0:0:0:
32,252,71499,1,4,0:0:0:0:
160,164,71666,1,0,0:0:0:0:
32,252,71999,5,6,0:0:0:0:
140,40,72166,1,12,0:0:0:0:
176,272,72333,1,12,0:0:0:0:
256,136,72499,1,4,0:0:0:0:
296,108,72583,1,4,0:0:0:0:
304,156,72666,1,12,0:0:0:0:
180,356,72833,1,6,0:0:0:0:
336,336,73000,2,0,B|392:352|392:352|432:308,1,112.5,4|4,0:0|0:0,0:0:0:0:
472,160,73333,6,0,B|416:144|416:144|376:188,1,112.5,6|4,0:0|0:0,0:0:0:0:
332,244,73582,1,0,0:0:0:0:
256,264,73666,2,0,L|200:280,1,56.25,4|0,0:0|0:0,0:0:0:0:
180,356,73833,1,6,0:0:0:0:
96,224,73999,1,8,0:0:0:0:
256,48,74166,1,6,0:0:0:0:
112,108,74333,5,0,0:0:0:0:
92,156,74416,1,0,0:0:0:0:
76,204,74500,1,2,0:0:0:0:
256,356,74666,2,0,L|244:244,1,112.5,6|4,0:0|0:0,0:0:0:0:
356,132,75000,1,4,0:0:0:0:
200,108,75166,1,4,0:0:0:0:
180,156,75249,1,4,0:0:0:0:
164,204,75333,1,12,0:0:0:0:
344,356,75500,2,0,L|332:244,1,112.5,6|4,0:0|0:0,0:0:0:0:
344,356,76000,5,4,0:0:0:0:
456,148,76166,2,0,L|436:208,1,56.25,6|0,0:0|0:0,0:0:0:0:
268,88,76333,2,0,L|320:60,1,56.25,6|0,0:0|0:0,0:0:0:0:
388,28,76500,1,4,0:0:0:0:
312,164,76666,2,0,P|256:172|200:144,1,112.5,8|4,0:0|0:0,0:0:0:0:
72,68,77000,1,0,0:0:0:0:
208,148,77333,6,0,P|242:192|246:254,1,112.5,6|4,0:0|0:0,0:0:0:0:
128,352,77667,1,4,0:0:0:0:
16,244,77833,2,0,L|72:232,1,56.25,4|4,0:0|0:0,0:0:0:0:
148,220,78000,1,12,0:0:0:0:
352,340,78166,1,6,0:0:0:0:
448,212,78333,1,4,0:0:0:0:
172,60,78666,6,0,L|288:52,1,112.5,6|4,0:0|0:0,0:0:0:0:
352,92,78916,1,0,0:0:0:0:
292,144,79000,2,0,L|248:188,1,56.25,4|0,0:0|0:0,0:0:0:0:
196,240,79167,1,6,0:0:0:0:
64,156,79333,1,8,0:0:0:0:
200,348,79500,1,6,0:0:0:0:
340,276,79666,1,0,0:0:0:0:
384,304,79750,1,0,0:0:0:0:
392,256,79833,1,2,0:0:0:0:
184,144,80000,6,0,P|232:156|292:144,1,112.5,6|4,0:0|0:0,0:0:0:0:
420,52,80333,2,0,P|372:40|312:52,1,112.5,4|4,0:0|0:0,0:0:0:0:
232,48,80583,1,4,0:0:0:0:
232,48,80666,1,12,0:0:0:0:
68,216,80833,1,6,0:0:0:0:
160,344,81000,6,0,B|232:356|312:284|312:284|320:320|296:344,1,225,4|4,0:0|0:0,0:0:0:0:
172,140,81500,2,0,L|232:132,1,56.25,6|0,0:0|0:0,0:0:0:0:
412,216,81666,2,0,L|348:208,1,56.25,6|0,0:0|0:0,0:0:0:0:
280,192,81833,1,4,0:0:0:0:
364,60,82000,6,0,P|376:112|352:164,1,112.5,8|4,0:0|0:0,0:0:0:0:
204,216,82333,1,0,0:0:0:0:
100,96,82500,1,0,0:0:0:0:
100,96,82583,1,0,0:0:0:0:
100,96,82666,6,0,P|140:60|200:60,1,112.5,6|4,0:0|0:0,0:0:0:0:
204,216,83000,1,4,0:0:0:0:
52,248,83166,1,4,0:0:0:0:
52,248,83250,1,4,0:0:0:0:
52,248,83333,1,12,0:0:0:0:
284,196,83500,1,6,0:0:0:0:
388,316,83666,6,0,L|384:356,8,28.125,4|0|0|0|0|0|0|0|6,0:0|0:0|0:0|0:0|0:0|0:0|0:0|0:0|0:0,0:0:0:0:
348,132,84166,2,0,L|392:124,1,45,6|0,0:0|0:0,0:0:0:0:
244,64,84333,2,0,L|200:72,1,45,6|0,0:0|0:0,0:0:0:0:
148,84,84500,2,0,P|132:136|132:176,1,90,4|8,0:0|0:0,0:0:0:0:
256,192,84833,1,4,0:0:0:0:
