osu file format v14

[General]
AudioFilename: Top Gear 2 Soundtrack - Track 2.mp3
AudioLeadIn: 0
PreviewTime: 14774
Countdown: 0
SampleSet: Normal
StackLeniency: 0.7
Mode: 0
LetterboxInBreaks: 1
WidescreenStoryboard: 0

[Editor]
Bookmarks: 1515,79315
DistanceSpacing: 1.3
BeatDivisor: 4
GridSize: 16
TimelineZoom: 4.999998

[Metadata]
Title:Track 2
TitleUnicode:Track 2
Artist:Top Gear 2 Soundtrack
ArtistUnicode:Top Gear 2 Soundtrack
Creator:TheLeviathan
Version:Ford GT
Source:Top Gear 2
Tags:
BeatmapID:1142525
BeatmapSetID:539172

[Difficulty]
HPDrainRate:5.4
CircleSize:3.2
OverallDifficulty:7.9
ApproachRate:9.5
SliderMultiplier:2.5
SliderTickRate:1

[Events]
//Background and Video events
0,0,"music_equalizer-wallpaper-1920x1080.jpg",0,0
//Break Periods
//Storyboard Layer 0 (Background)
//Storyboard Layer 1 (Fail)
//Storyboard Layer 2 (Pass)
//Storyboard Layer 3 (Foreground)
//Storyboard Sound Samples

[TimingPoints]
285,329.308452250274,4,1,0,50,1,0
1437,-100,4,1,0,10,0,0
1602,-100,4,1,0,50,0,0
14774,-100,4,1,0,50,0,1
25312,-100,4,1,0,50,0,0
25559,-100,4,1,0,50,0,0
25641,-100,4,1,0,50,0,0
35850,-100,4,1,0,50,0,1
45729,-100,4,1,0,50,0,0
56926,-100,4,1,0,50,0,1
66805,-100,4,1,0,50,0,0
67710,-100,4,1,0,5,0,0
67793,-100,4,1,0,50,0,0
111591,-100,4,1,0,30,0,0
122129,-100,4,1,0,50,0,1
132666,-100,4,1,0,50,0,0
133984,-100,4,1,0,20,0,0
134313,-100,4,1,0,50,0,0

[Colours]
Combo1 : 255,128,255
Combo2 : 223,223,0
Combo3 : 128,255,0
Combo4 : 232,116,0

[HitObjects]
256,192,285,12,0,1437,0:0:0:0:
352,64,1602,5,0,0:0:0:0:
336,80,1931,5,0,0:0:0:0:
320,96,2260,5,0,0:0:0:0:
304,112,2590,5,0,0:0:0:0:
79,28,2919,6,0,L|114:93,1,62.5
230,34,3166,2,0,L|190:96,1,62.5
41,160,3413,2,0,L|92:208,1,62.5
272,144,3660,5,0,0:0:0:0:
248,167,3742,1,0,0:0:0:0:
225,189,3825,1,0,0:0:0:0:
200,212,3907,1,0,0:0:0:0:
174,234,3989,1,0,0:0:0:0:
174,254,4072,5,0,0:0:0:0:
182,277,4154,1,0,0:0:0:0:
197,298,4236,6,0,P|261:330|347:321,1,125
379,112,4566,1,0,0:0:0:0:
167,111,4730,5,0,0:0:0:0:
361,199,4895,1,0,0:0:0:0:
182,326,5059,1,0,0:0:0:0:
68,129,5224,5,0,0:0:0:0:
41,342,5389,1,0,0:0:0:0:
283,281,5553,2,0,P|229:221|147:211,1,125
41,342,5883,5,0,0:0:0:0:
149,135,6047,1,0,0:0:0:0:
244,332,6212,1,0,0:0:0:0:
48,171,6377,2,0,P|55:90|95:36,1,125
277,23,6706,5,0,0:0:0:0:
410,154,6871,1,0,0:0:0:0:
449,331,7035,1,0,0:0:0:0:
331,287,7200,2,0,L|459:335,1,125
318,198,7529,5,0,0:0:0:0:
162,108,7694,1,0,0:0:0:0:
263,34,7859,2,0,L|162:107,1,125
16,212,8188,5,0,0:0:0:0:
161,322,8353,1,0,0:0:0:0:
347,342,8517,1,0,0:0:0:0:
140,321,8682,1,0,0:0:0:0:
394,266,8847,5,0,0:0:0:0:
181,323,9011,1,0,0:0:0:0:
415,281,9176,1,0,0:0:0:0:
171,216,9340,1,0,0:0:0:0:
432,89,9505,6,0,L|310:148,1,125
93,250,9834,1,0,0:0:0:0:
247,178,9999,1,0,0:0:0:0:
62,89,10164,6,0,L|184:148,1,125
401,250,10493,1,0,0:0:0:0:
247,178,10658,1,0,0:0:0:0:
62,267,10822,6,0,L|174:212,1,125
401,106,11151,1,0,0:0:0:0:
247,178,11316,1,0,0:0:0:0:
432,267,11481,6,0,L|319:212,1,125
93,106,11810,1,0,0:0:0:0:
247,178,11975,1,0,0:0:0:0:
358,24,12140,6,0,P|433:28|486:70,1,125
432,267,12469,1,0,0:0:0:0:
338,54,12634,1,0,0:0:0:0:
508,322,12798,6,0,P|454:353|392:352,1,125
401,106,13128,1,0,0:0:0:0:
511,293,13292,1,0,0:0:0:0:
302,255,13457,5,0,0:0:0:0:
132,193,13621,1,0,0:0:0:0:
50,362,13786,1,0,0:0:0:0:
221,202,13951,1,0,0:0:0:0:
79,50,14115,5,0,0:0:0:0:
79,50,14198,1,0,0:0:0:0:
79,50,14280,1,0,0:0:0:0:
257,119,14445,1,0,0:0:0:0:
56,151,14609,1,0,0:0:0:0:
50,178,14692,1,0,0:0:0:0:
49,201,14774,6,0,P|78:263|153:269,1,125
362,281,15103,1,0,0:0:0:0:
49,201,15268,2,0,P|58:126|214:42,1,250
221,203,15762,1,0,0:0:0:0:
463,183,16091,6,0,P|434:121|359:115,1,125
150,103,16420,1,0,0:0:0:0:
463,183,16585,2,0,P|454:258|298:342,1,250
291,181,17079,1,0,0:0:0:0:
36,76,17409,5,0,0:0:0:0:
235,35,17573,1,0,0:0:0:0:
424,75,17738,1,0,0:0:0:0:
220,151,17903,2,0,P|125:130|208:44,1,250
424,75,18396,1,0,0:0:0:0:
404,254,18561,5,0,0:0:0:0:
253,331,18726,1,0,0:0:0:0:
98,248,18890,1,0,0:0:0:0:
324,213,19055,1,0,0:0:0:0:
141,353,19220,1,0,0:0:0:0:
37,109,19384,6,0,L|97:253,1,125
253,331,19631,1,0,0:0:0:0:
253,331,19714,2,0,L|193:187,1,125
251,33,20043,5,0,0:0:0:0:
204,215,20208,1,0,0:0:0:0:
384,119,20372,1,0,0:0:0:0:
141,104,20537,2,0,P|277:149|335:246,1,250
141,104,21031,1,0,0:0:0:0:
330,308,21360,5,0,0:0:0:0:
384,119,21525,1,0,0:0:0:0:
197,222,21689,1,0,0:0:0:0:
440,237,21854,2,0,P|304:192|246:95,1,250
440,237,22348,1,0,0:0:0:0:
66,328,22677,5,0,0:0:0:0:
246,373,22842,1,0,0:0:0:0:
426,333,23007,1,0,0:0:0:0:
241,287,23171,2,0,B|203:233|203:233|110:189|110:189|49:105,1,250
152,298,23665,1,0,0:0:0:0:
373,175,23830,5,0,0:0:0:0:
400,0,23995,1,0,0:0:0:0:
214,33,24159,1,0,0:0:0:0:
461,76,24324,1,0,0:0:0:0:
234,153,24489,1,0,0:0:0:0:
482,251,24653,6,0,L|326:287,1,125
225,359,24900,1,0,0:0:0:0:
225,359,24983,2,0,L|81:305,1,125
25,97,25312,6,0,P|78:38|216:42,1,187.5
214,33,25641,1,0,0:0:0:0:
90,183,25806,2,0,L|227:156,1,125
94,262,26135,2,0,P|26:231|20:159,1,125
214,158,26465,1,0,0:0:0:0:
461,217,26629,6,0,L|334:188,1,125
505,321,26958,2,0,L|378:292,1,125
214,158,27288,2,0,L|341:187,1,125
170,54,27617,2,0,L|297:83,1,125
461,217,27946,5,0,0:0:0:0:
343,308,28111,1,0,0:0:0:0:
191,331,28276,1,0,0:0:0:0:
58,293,28440,1,0,0:0:0:0:
211,248,28605,6,0,P|288:206|302:162,2,125
276,88,29099,2,0,P|353:103|393:150,1,125
186,92,29428,1,0,0:0:0:0:
186,92,29593,2,0,P|221:22|280:-1,1,125
300,175,29922,1,0,0:0:0:0:
84,133,30087,5,0,0:0:0:0:
84,133,30252,1,0,0:0:0:0:
211,248,30416,1,0,0:0:0:0:
231,268,30499,1,0,0:0:0:0:
256,289,30581,6,0,P|317:316|395:293,1,125
448,183,30910,2,0,P|387:156|309:179,1,125
371,305,31239,1,0,0:0:0:0:
448,183,31404,2,0,P|466:108|443:61,1,125
236,24,31733,6,0,L|363:45,1,125
127,65,32063,1,0,0:0:0:0:
341,136,32227,2,0,L|220:100,1,125
41,31,32557,6,0,L|65:153,1,125
259,353,32886,2,0,L|256:213,1,125
468,65,33215,5,0,0:0:0:0:
341,136,33380,1,0,0:0:0:0:
238,239,33545,1,0,0:0:0:0:
394,228,33709,2,0,P|492:208|517:192,2,125
374,38,34203,2,0,P|276:58|251:74,2,125
341,136,34697,1,0,0:0:0:0:
208,98,34862,1,0,0:0:0:0:
100,12,35027,1,0,0:0:0:0:
227,61,35191,1,0,0:0:0:0:
264,193,35356,5,0,0:0:0:0:
264,193,35521,1,0,0:0:0:0:
224,323,35685,1,0,0:0:0:0:
199,333,35767,1,0,0:0:0:0:
169,340,35850,6,0,P|98:337|36:287,1,125
48,122,36179,1,0,0:0:0:0:
169,340,36344,2,0,P|246:324|330:178,1,250
152,160,36838,1,0,0:0:0:0:
343,44,37167,6,0,P|414:47|476:97,1,125
464,262,37496,1,0,0:0:0:0:
343,44,37661,2,0,P|266:60|182:206,1,250
360,224,38155,1,0,0:0:0:0:
169,335,38484,5,0,0:0:0:0:
360,224,38649,1,0,0:0:0:0:
169,146,38814,1,0,0:0:0:0:
303,301,38978,2,0,B|215:250|215:250|150:251|150:251|39:202,1,250
274,160,39472,1,0,0:0:0:0:
74,61,39637,5,0,0:0:0:0:
299,34,39802,1,0,0:0:0:0:
111,180,39966,1,0,0:0:0:0:
146,0,40131,1,0,0:0:0:0:
274,160,40295,1,0,0:0:0:0:
411,157,40460,6,0,P|392:229|316:256,1,125
215,256,40707,1,0,0:0:0:0:
215,256,40789,2,0,P|234:184|310:157,1,125
346,375,41119,5,0,0:0:0:0:
146,310,41283,1,0,0:0:0:0:
383,354,41448,1,0,0:0:0:0:
143,345,41613,2,0,B|268:379|268:379|268:311|365:287,1,250
143,345,42107,1,0,0:0:0:0:
60,85,42436,5,0,0:0:0:0:
268,156,42600,1,0,0:0:0:0:
31,112,42765,1,0,0:0:0:0:
271,121,42930,2,0,B|146:87|146:87|146:155|49:179,1,250
271,121,43424,1,0,0:0:0:0:
34,282,43753,5,0,0:0:0:0:
233,319,43918,1,0,0:0:0:0:
382,203,44083,1,0,0:0:0:0:
199,181,44247,2,0,P|104:221|101:359,1,250
199,181,44741,1,0,0:0:0:0:
392,318,44906,5,0,0:0:0:0:
215,195,45070,1,0,0:0:0:0:
428,254,45235,1,0,0:0:0:0:
198,329,45400,1,0,0:0:0:0:
401,180,45564,1,0,0:0:0:0:
195,60,45729,6,0,P|266:30|335:37,1,125
113,121,45976,1,0,0:0:0:0:
113,121,46058,2,0,P|98:48|120:-11,1,125
72,275,46388,5,0,0:0:0:0:
157,100,46552,1,0,0:0:0:0:
85,280,46717,1,0,0:0:0:0:
173,103,46882,1,0,0:0:0:0:
421,76,47376,5,0,0:0:0:0:
421,76,47705,1,0,0:0:0:0:
232,95,47870,1,0,0:0:0:0:
428,88,48034,1,0,0:0:0:0:
230,113,48199,1,0,0:0:0:0:
416,299,48528,5,0,0:0:0:0:
272,180,48693,1,0,0:0:0:0:
407,309,48857,1,0,0:0:0:0:
257,193,49022,1,0,0:0:0:0:
58,86,49516,5,0,0:0:0:0:
187,242,49681,1,0,0:0:0:0:
217,57,49845,1,0,0:0:0:0:
64,200,50010,1,0,0:0:0:0:
274,147,50175,1,0,0:0:0:0:
479,37,50504,5,0,0:0:0:0:
316,52,50669,1,0,0:0:0:0:
162,103,50833,1,0,0:0:0:0:
50,221,50998,5,0,0:0:0:0:
208,182,51163,1,0,0:0:0:0:
368,201,51327,1,0,0:0:0:0:
487,312,51492,1,0,0:0:0:0:
324,318,51657,5,0,0:0:0:0:
160,380,51821,1,0,0:0:0:0:
135,205,51986,1,0,0:0:0:0:
136,383,52151,1,0,0:0:0:0:
71,95,52645,5,0,0:0:0:0:
71,95,52974,1,0,0:0:0:0:
260,76,53139,1,0,0:0:0:0:
64,83,53303,1,0,0:0:0:0:
262,58,53468,1,0,0:0:0:0:
69,223,53797,5,0,0:0:0:0:
213,342,53962,1,0,0:0:0:0:
78,213,54126,1,0,0:0:0:0:
303,350,54291,5,0,0:0:0:0:
303,350,54456,1,0,0:0:0:0:
495,302,54620,1,0,0:0:0:0:
324,229,54785,1,0,0:0:0:0:
171,308,54950,5,0,0:3:0:0:
171,308,55115,1,0,0:3:0:0:
360,366,55279,1,0,0:3:0:0:
252,216,55444,1,0,0:3:0:0:
92,190,55608,5,0,0:3:0:0:
92,190,55773,1,0,0:3:0:0:
210,348,55937,1,0,0:3:0:0:
211,163,56102,1,0,0:3:0:0:
76,51,56267,5,0,0:3:0:0:
76,51,56432,1,0,0:3:0:0:
88,247,56596,1,0,0:3:0:0:
190,93,56761,1,0,0:3:0:0:
363,38,56926,6,0,P|460:62|497:95,1,125
325,217,57255,1,0,0:0:0:0:
357,54,57420,2,0,P|426:104|475:265,1,250
357,54,57913,1,0,0:0:0:0:
321,362,58243,6,0,P|224:338|187:305,1,125
359,183,58572,1,0,0:0:0:0:
327,346,58737,2,0,P|258:296|209:135,1,250
327,346,59230,1,0,0:0:0:0:
64,83,59560,6,0,P|143:28|201:27,1,125
49,175,59889,1,0,0:0:0:0:
258,65,60054,2,0,P|252:156|117:224,1,250
169,24,60548,1,0,0:0:0:0:
363,108,60713,5,0,0:0:0:0:
439,271,60877,1,0,0:0:0:0:
256,190,61042,1,0,0:0:0:0:
478,145,61207,1,0,0:0:0:0:
328,294,61371,1,0,0:0:0:0:
181,124,61536,6,0,P|158:201|184:261,1,125
80,100,61783,1,0,0:0:0:0:
80,100,61865,2,0,P|125:38|188:22,1,125
385,22,62194,5,0,0:0:0:0:
183,78,62359,1,0,0:0:0:0:
414,95,62524,1,0,0:0:0:0:
201,0,62688,2,0,P|263:50|176:167,1,250
201,0,63182,1,0,0:0:0:0:
216,242,63512,5,0,0:0:0:0:
415,178,63677,1,0,0:0:0:0:
186,168,63842,1,0,0:0:0:0:
400,265,64006,2,0,P|337:213|424:96,1,250
400,264,64500,1,0,0:0:0:0:
131,328,64829,5,0,0:0:0:0:
51,143,64994,1,0,0:0:0:0:
25,347,65158,1,0,0:0:0:0:
186,168,65323,2,0,B|70:216|70:216|115:78,1,250
131,328,65817,1,0,0:0:0:0:
326,314,65982,5,0,0:0:0:0:
186,168,66146,1,0,0:0:0:0:
385,163,66311,1,0,0:0:0:0:
197,50,66475,1,0,0:0:0:0:
410,28,66640,1,0,0:0:0:0:
466,234,66805,6,0,L|432:103,1,125
297,68,67052,1,0,0:0:0:0:
297,68,67134,2,0,L|331:199,1,125
468,290,67463,6,0,P|415:349|277:345,1,187.5
279,354,67792,1,0,0:0:0:0:
403,204,67957,2,0,L|266:231,1,125
399,125,68286,2,0,P|467:156|473:228,1,125
279,229,68616,1,0,0:0:0:0:
63,198,68781,6,0,L|198:217,1,125
29,101,69110,2,0,L|164:120,1,125
399,125,69439,2,0,L|264:144,1,125
433,28,69768,2,0,L|298:47,1,125
93,31,70098,6,0,P|184:34|231:58,2,125
209,148,70592,1,0,0:0:0:0:
15,235,70757,2,0,L|135:182,2,125
209,148,71250,1,0,0:0:0:0:
337,257,71415,2,0,P|372:154|342:101,2,125
471,117,71909,2,0,P|401:42|347:35,1,125
197,44,72238,5,0,0:0:0:0:
197,44,72403,1,0,0:0:0:0:
44,121,72568,1,0,0:0:0:0:
54,148,72650,1,0,0:0:0:0:
63,173,72732,6,0,L|112:290,1,125
248,155,73062,2,0,L|296:39,1,125
382,213,73391,5,0,0:0:0:0:
446,319,73556,2,0,L|369:192,1,125
248,155,73885,1,0,0:0:0:0:
312,49,74050,2,0,L|235:176,1,125
155,285,74379,1,0,0:0:0:0:
155,285,74544,1,0,0:0:0:0:
143,52,74708,6,0,L|146:199,1,125
254,376,75038,2,0,L|251:229,1,125
47,254,75367,5,0,0:0:0:0:
174,183,75532,1,0,0:0:0:0:
283,89,75697,1,0,0:0:0:0:
143,52,75861,2,0,P|45:72|20:88,2,125
141,281,76355,2,0,P|239:261|264:245,2,125
174,183,76849,1,0,0:0:0:0:
307,221,77014,1,0,0:0:0:0:
415,307,77179,1,0,0:0:0:0:
288,258,77343,1,0,0:0:0:0:
256,121,77507,5,0,0:0:0:0:
256,121,77672,1,0,0:0:0:0:
356,5,77837,1,0,0:0:0:0:
358,34,77919,1,0,0:0:0:0:
361,63,78001,6,0,L|365:138,1,62.5
337,104,78166,2,0,L|341:179,1,62.5
304,136,78331,2,0,L|308:211,1,62.5
271,165,78495,2,0,L|275:240,1,62.5
241,196,78660,2,0,L|245:271,1,62.5
206,225,78825,2,0,L|210:300,1,62.5
172,256,78989,2,0,L|176:331,1,62.5
142,285,79154,2,0,L|146:360,1,62.5
118,326,79319,6,0,L|114:251,1,62.5
142,285,79484,2,0,L|138:210,1,62.5
175,253,79649,2,0,L|171:178,1,62.5
208,224,79813,2,0,L|204:149,1,62.5
238,193,79978,2,0,L|234:118,1,62.5
273,164,80143,2,0,L|269:89,1,62.5
307,133,80307,2,0,L|303:58,1,62.5
337,104,80472,2,0,L|333:29,1,62.5
302,17,80636,6,0,L|306:92,1,62.5
278,58,80801,2,0,L|282:133,1,62.5
245,90,80966,2,0,L|249:165,1,62.5
212,119,81130,2,0,L|216:194,1,62.5
182,150,81295,2,0,L|186:225,1,62.5
147,179,81460,2,0,L|151:254,1,62.5
113,210,81624,2,0,L|117:285,1,62.5
83,239,81789,2,0,L|87:314,1,62.5
47,285,81953,6,0,L|43:210,1,62.5
71,244,82118,2,0,L|67:169,1,62.5
104,212,82283,2,0,L|100:137,1,62.5
137,183,82447,2,0,L|133:108,1,62.5
167,152,82612,2,0,L|163:77,1,62.5
202,123,82777,2,0,L|198:48,1,62.5
236,92,82941,2,0,L|232:17,1,62.5
266,63,83106,2,0,L|262:-12,1,62.5
338,3,83270,6,0,P|381:38|392:64,1,62.5
418,110,83435,6,0,P|381:141|345:144,1,62.5
407,174,83600,2,0,P|360:183|328:169,1,62.5
368,219,83764,2,0,P|328:209|301:175,1,62.5
309,244,83929,2,0,P|283:222|271:179,1,62.5
247,228,84094,2,0,P|240:191|244:146,1,62.5
201,183,84258,2,0,P|217:146|246:124,1,62.5
192,119,84423,2,0,P|233:87|265:80,1,62.5
202,84,84587,6,0,P|173:97|151:119,1,62.5
192,132,84752,2,0,P|170:154|160:183,1,62.5
200,167,84916,2,0,P|200:198|206:228,1,62.5
232,197,85081,2,0,P|244:225|268:244,1,62.5
272,196,85246,2,0,P|296:214|327:219,1,62.5
306,180,85410,2,0,P|336:184|366:174,1,62.5
328,145,85575,2,0,P|356:133|377:110,1,62.5
339,104,85740,2,0,P|366:70|367:33,1,62.5
381,90,85905,6,0,P|401:131|401:166,1,62.5
375,127,86069,2,0,P|381:167|376:206,1,62.5
354,154,86234,2,0,P|346:191|329:218,1,62.5
320,177,86399,2,0,P|298:213|266:233,1,62.5
285,184,86563,2,0,P|244:209|212:211,1,62.5
245,184,86728,2,0,P|191:188|172:181,1,62.5
213,169,86893,2,0,P|169:155|151:132,1,62.5
182,135,87057,2,0,P|158:105|151:77,1,62.5
137,108,87222,6,0,P|131:151|137:175,1,62.5
153,168,87387,2,0,P|167:205|191:223,1,62.5
203,212,87551,2,0,P|230:245|253:248,1,62.5
265,233,87716,2,0,P|309:243|336:240,1,62.5
332,222,87881,2,0,P|375:220|395:206,1,62.5
392,190,88045,2,0,P|424:169|434:148,1,62.5
426,129,88210,2,0,P|441:94|437:67,1,62.5
421,57,88375,2,0,P|412:23|385:4,1,62.5
274,5,88539,6,0,L|210:12,2,62.5
325,73,88786,2,0,L|410:84,2,62.5
235,92,89033,2,0,L|164:105,2,62.5
302,156,89280,2,0,L|366:175,2,62.5
219,182,89527,2,0,L|157:189,2,62.5
285,241,89774,1,0,0:0:0:0:
362,275,89856,6,0,L|423:266,2,62.5
285,241,90103,2,0,L|224:229,2,62.5
356,188,90350,2,0,L|415:170,2,62.5
279,147,90597,2,0,L|218:135,2,62.5
360,99,90844,2,0,L|419:81,2,62.5
281,61,91091,1,0,0:0:0:0:
291,1,91174,6,0,L|216:-1,1,62.5
139,32,91338,2,0,L|207:26,1,62.5
278,80,91503,2,0,L|203:78,1,62.5
126,112,91667,2,0,L|194:106,1,62.5
252,160,91832,2,0,L|177:158,1,62.5
100,191,91996,2,0,L|168:185,1,62.5
239,239,92161,2,0,L|164:237,1,62.5
87,271,92325,2,0,L|155:265,1,62.5
212,323,92491,6,0,L|146:312,1,62.5
231,290,92656,2,0,L|296:280,1,62.5
220,272,92820,2,0,L|154:261,1,62.5
239,239,92985,2,0,L|304:229,1,62.5
223,195,93149,2,0,L|157:184,1,62.5
242,162,93314,2,0,L|307:152,1,62.5
249,116,93479,2,0,L|183:105,1,62.5
268,83,93644,2,0,L|333:73,1,62.5
412,115,93808,6,0,P|372:152|341:159,1,62.5
308,128,93973,2,0,P|348:165|379:172,1,62.5
439,157,94137,2,0,P|399:194|368:201,1,62.5
335,170,94302,2,0,P|375:207|406:214,1,62.5
463,200,94467,2,0,P|423:237|392:244,1,62.5
359,213,94632,2,0,P|399:250|430:257,1,62.5
490,242,94796,2,0,P|450:279|419:286,1,62.5
386,255,94961,2,0,P|426:292|457:299,1,62.5
353,342,95125,6,0,L|287:329,1,62.5
209,330,95290,2,0,L|269:296,1,62.5
330,272,95455,2,0,L|264:259,1,62.5
192,259,95619,2,0,L|252:225,1,62.5
310,198,95784,2,0,L|244:185,1,62.5
173,183,95949,2,0,L|233:149,1,62.5
299,123,96113,2,0,L|233:110,1,62.5
161,105,96278,2,0,L|221:71,1,62.5
260,77,96443,6,0,L|276:149,1,62.5
199,201,96607,2,0,L|196:129,1,62.5
103,95,96772,2,0,L|119:167,1,62.5
42,219,96936,2,0,L|39:147,1,62.5
120,187,97101,2,0,L|115:254,1,62.5
199,201,97266,2,0,L|190:136,1,62.5
273,197,97430,2,0,L|268:264,1,62.5
352,211,97595,2,0,L|343:146,1,62.5
411,258,97760,6,0,L|431:328,1,62.5
455,217,97924,2,0,L|429:283,1,62.5
393,197,98089,2,0,L|413:267,1,62.5
437,156,98253,2,0,L|411:222,1,62.5
375,136,98418,2,0,L|395:206,1,62.5
419,95,98582,2,0,L|393:161,1,62.5
367,83,98748,2,0,L|387:153,1,62.5
411,42,98912,2,0,L|385:108,1,62.5
281,108,99077,5,0,0:0:0:0:
272,122,99406,1,0,0:0:0:0:
140,315,99736,5,0,0:0:0:0:
123,273,99818,1,0,0:0:0:0:
106,231,99900,1,0,0:0:0:0:
157,67,100065,1,0,0:0:0:0:
352,47,100230,2,0,L|312:102,1,62.5
257,186,100477,1,0,0:0:0:0:
372,312,100641,2,0,L|327:264,1,62.5
472,167,100888,1,0,0:0:0:0:
444,170,100971,1,0,0:0:0:0:
411,172,101053,6,0,L|279:183,2,125
205,191,101547,1,0,0:0:0:0:
51,41,102041,5,0,0:0:0:0:
51,41,102370,1,0,0:0:0:0:
88,221,102535,1,0,0:0:0:0:
206,45,102699,1,0,0:0:0:0:
16,136,102864,1,0,0:0:0:0:
307,143,103193,5,0,0:0:0:0:
490,161,103358,1,0,0:0:0:0:
305,113,103523,1,0,0:0:0:0:
472,244,103687,1,0,0:0:0:0:
170,307,104181,5,0,0:0:0:0:
366,266,104346,1,0,0:0:0:0:
149,210,104511,1,0,0:0:0:0:
370,353,104675,1,0,0:0:0:0:
230,152,104840,1,0,0:0:0:0:
56,308,105169,5,0,0:0:0:0:
50,145,105334,1,0,0:0:0:0:
161,26,105499,1,0,0:0:0:0:
322,13,105663,5,0,0:0:0:0:
465,89,105828,1,0,0:0:0:0:
305,122,105993,1,0,0:0:0:0:
165,204,106157,1,0,0:0:0:0:
322,246,106322,5,0,0:0:0:0:
480,342,106486,1,0,0:0:0:0:
294,332,106651,1,0,0:0:0:0:
502,249,106816,1,0,0:0:0:0:
305,122,107310,5,0,0:0:0:0:
305,122,107639,1,0,0:0:0:0:
116,141,107804,1,0,0:0:0:0:
312,134,107968,1,0,0:0:0:0:
114,159,108133,1,0,0:0:0:0:
452,169,108462,5,0,0:0:0:0:
308,50,108627,1,0,0:0:0:0:
443,179,108791,1,0,0:0:0:0:
218,42,108956,5,0,0:0:0:0:
218,42,109121,1,0,0:0:0:0:
26,90,109285,1,0,0:0:0:0:
197,163,109450,1,0,0:0:0:0:
350,84,109615,5,0,0:3:0:0:
350,84,109780,1,0,0:3:0:0:
161,26,109944,1,0,0:3:0:0:
269,176,110109,1,0,0:3:0:0:
429,202,110273,5,0,0:3:0:0:
429,202,110438,1,0,0:3:0:0:
311,44,110602,1,0,0:3:0:0:
310,229,110767,1,0,0:3:0:0:
445,341,110932,5,0,0:3:0:0:
445,341,111097,1,0,0:3:0:0:
433,145,111261,1,0,0:3:0:0:
331,299,111426,1,0,0:3:0:0:
119,278,111591,6,0,P|142:207|207:166,1,125
361,188,111920,1,0,0:0:0:0:
119,278,112085,2,0,P|88:198|138:44,1,250
316,23,112579,1,0,0:0:0:0:
172,163,112743,1,0,0:0:0:0:
352,51,112908,6,0,P|336:128|277:172,1,125
156,257,113237,1,0,0:0:0:0:
352,51,113402,2,0,P|388:136|360:293,1,250
188,338,113896,1,0,0:0:0:0:
381,333,114061,1,0,0:0:0:0:
167,341,114225,5,0,0:0:0:0:
329,340,114390,1,0,0:0:0:0:
475,267,114555,1,0,0:0:0:0:
485,105,114719,2,0,P|422:61|396:183,1,250
511,69,115213,1,0,0:0:0:0:
396,183,115378,5,0,0:0:0:0:
214,219,115542,1,0,0:0:0:0:
394,285,115707,1,0,0:0:0:0:
242,135,115872,1,0,0:0:0:0:
258,336,116036,1,0,0:0:0:0:
70,114,116366,6,0,B|82:193|82:193|117:252,1,125
105,231,116695,1,0,0:0:0:0:
331,338,116860,6,0,P|423:301|447:268,1,125
375,124,117189,1,0,0:0:0:0:
331,338,117354,2,0,P|213:338|105:242,1,250
59,104,117848,1,0,0:0:0:0:
182,208,118012,1,0,0:0:0:0:
196,31,118177,6,0,P|132:40|71:85,1,125
182,208,118506,1,0,0:0:0:0:
196,31,118671,2,0,P|300:46|418:133,1,250
410,304,119165,1,0,0:0:0:0:
249,329,119330,1,0,0:0:0:0:
437,298,119494,5,0,0:0:0:0:
327,177,119659,1,0,0:0:0:0:
170,135,119823,1,0,0:0:0:0:
20,198,119988,2,0,P|72:273|155:159,1,250
3,223,120482,1,0,0:0:0:0:
67,73,120647,5,0,0:0:0:0:
259,33,120811,1,0,0:0:0:0:
66,117,120976,1,0,0:0:0:0:
264,134,121141,1,0,0:0:0:0:
72,27,121305,1,0,0:0:0:0:
433,56,121635,5,0,0:0:0:0:
259,33,121799,1,0,0:0:0:0:
262,85,121882,1,0,0:0:0:0:
264,134,121964,1,0,0:0:0:0:
266,181,122046,1,0,0:0:0:0:
267,226,122129,6,0,P|301:294|368:327,1,125
438,167,122458,1,0,0:0:0:0:
267,226,122623,2,0,B|202:279|202:279|180:335|180:335|300:349,1,250
101,327,123117,1,0,0:0:0:0:
264,134,123446,6,0,P|230:66|163:33,1,125
93,193,123775,1,0,0:0:0:0:
264,134,123940,2,0,B|329:81|329:81|351:25|351:25|231:11,1,250
430,33,124434,1,0,0:0:0:0:
354,297,124763,5,0,0:0:0:0:
264,134,124928,1,0,0:0:0:0:
437,210,125092,1,0,0:0:0:0:
237,290,125257,2,0,B|146:288|146:288|240:246|247:162,1,250
354,297,125751,1,0,0:0:0:0:
147,289,125916,5,0,0:0:0:0:
335,191,126080,1,0,0:0:0:0:
233,374,126245,1,0,0:0:0:0:
153,187,126410,1,0,0:0:0:0:
354,297,126574,1,0,0:0:0:0:
486,126,126739,6,0,L|412:232,1,125
400,83,126986,1,0,0:0:0:0:
400,83,127068,2,0,P|458:36|529:36,1,125
245,40,127398,5,0,0:0:0:0:
71,123,127562,1,0,0:0:0:0:
272,149,127727,1,0,0:0:0:0:
69,91,127892,2,0,B|147:70|147:70|95:142|158:239,1,250
69,91,128385,1,0,0:0:0:0:
178,337,128715,5,0,0:0:0:0:
352,254,128879,1,0,0:0:0:0:
151,228,129044,1,0,0:0:0:0:
354,286,129209,2,0,B|276:307|276:307|328:235|265:138,1,250
354,286,129702,1,0,0:0:0:0:
461,37,130032,5,0,0:0:0:0:
310,98,130197,1,0,0:0:0:0:
466,139,130361,1,0,0:0:0:0:
300,137,130526,2,0,P|218:114|310:100,1,250
412,223,131020,1,0,0:0:0:0:
263,288,131185,5,0,0:0:0:0:
116,218,131349,1,0,0:0:0:0:
112,49,131514,1,0,0:0:0:0:
114,250,131679,1,0,0:0:0:0:
209,50,131843,1,0,0:0:0:0:
25,132,132008,6,0,P|90:173|139:165,1,125
221,83,132255,1,0,0:0:0:0:
221,83,132337,2,0,P|156:42|107:50,1,125
256,192,132666,12,0,133984,0:0:0:0:
43,99,134313,5,0,0:0:0:0:
65,79,134642,1,0,0:0:0:0:
87,57,134972,1,0,0:0:0:0:
356,268,135301,6,0,L|340:205,1,62.5
200,249,135548,2,0,L|246:196,1,62.5
419,151,135795,2,0,L|370:96,1,62.5
144,176,136042,5,0,0:0:0:0:
168,153,136124,1,0,0:0:0:0:
191,131,136207,1,0,0:0:0:0:
216,108,136289,1,0,0:0:0:0:
242,86,136371,1,0,0:0:0:0:
242,66,136454,5,0,0:0:0:0:
234,43,136536,1,0,0:0:0:0:
228,25,136618,5,0,0:0:0:0:
